osu file format v14

[General]
AudioFilename: audio.mp3
AudioLeadIn: 0
PreviewTime: 9702
Countdown: 0
SampleSet: Soft
StackLeniency: 0.7
Mode: 0
LetterboxInBreaks: 0
WidescreenStoryboard: 1

[Editor]
Bookmarks: 21076
DistanceSpacing: 1
BeatDivisor: 4
GridSize: 8
TimelineZoom: 2.899999

[Metadata]
Title:lucio vs. hydraulic press
TitleUnicode:lucio vs. hydraulic press
Artist:bh6w
ArtistUnicode:bh6w
Creator:wafer
Version:enri Squishy ball ball asmr Slime fidget spinner insane feet. Ralkinson
Source:
Tags:dariacore hyper flip hyperflip pop electronic english ayel enri yeastiest payney ralkinson desire blue sky martin garrix bebe rexha in the name of love carly rae jepsen i really like you rihanna drake work demi lovato cool for the summer zedd foxes clarity blac youngsta dababy like a pro
BeatmapID:4420607
BeatmapSetID:2081606

[Difficulty]
HPDrainRate:5
CircleSize:4
OverallDifficulty:7
ApproachRate:7.7
SliderMultiplier:1.5
SliderTickRate:1

[Events]
//Background and Video events
0,0,"frog.jpg",0,0
//Break Periods
//Storyboard Layer 0 (Background)
//Storyboard Layer 1 (Fail)
//Storyboard Layer 2 (Pass)
//Storyboard Layer 3 (Foreground)
//Storyboard Layer 4 (Overlay)
//Storyboard Sound Samples

[TimingPoints]
5252,329.67032967033,4,2,0,50,1,0
10526,-100,4,2,0,70,0,0
21076,-66.6666666666667,4,2,0,70,0,0
26350,-100,4,2,0,70,0,0
30966,-80,4,2,0,70,0,0
41186,-133.333333333333,4,2,0,70,0,0
41927,-80,4,2,0,70,0,0
42175,-66.6666666666667,4,2,0,70,0,0
47120,-100,4,2,0,70,0,0
47449,-66.6666666666667,4,2,0,70,0,0
52724,-133.333333333333,4,2,0,70,0,0
53383,-80,4,2,0,70,0,0
57669,-133.333333333333,4,2,0,70,0,0
57999,-100,4,2,0,70,0,0
62944,-200,4,2,0,70,0,0
63273,-129.613658338812,4,2,0,70,0,0
63933,-125,4,2,0,60,0,0
63959,329.67032967033,4,2,0,60,1,0
63959,-125,4,2,0,60,0,0
64618,329.67032967033,4,2,0,50,1,0
64618,-125,4,2,0,50,0,0
68219,-83.3333333333333,4,2,0,50,0,0
68548,329.67032967033,4,2,0,70,1,0
68548,-66.6666666666667,4,2,0,70,0,0
73493,-133.333333333333,4,2,0,70,0,0
73823,-66.6666666666667,4,2,0,70,0,0
78603,-133.333333333333,4,2,0,70,0,0
79098,-66.6666666666667,4,2,0,70,0,0
83383,-74.0740740740741,4,2,0,70,0,0
83713,-133.333333333333,4,2,0,70,0,0
84537,-100,4,2,0,70,0,0
94592,-66.6666666666667,4,2,0,70,0,0
94921,-66.6666666666667,4,2,0,70,0,1
104811,-66.6666666666667,4,2,0,70,0,0
105471,-66.6666666666667,4,2,0,70,0,1
116020,-66.6666666666667,4,2,0,70,0,0

[Colours]
Combo1 : 145,194,255
Combo2 : 192,192,192

[HitObjects]
210,360,10526,5,4,1:0:0:0:
341,262,10691,1,2,0:0:0:0:
435,380,10856,2,0,B|332:367|391:346|277:337,1,150,8|0,1:0|1:0,0:0:0:0:
226,179,11350,2,0,P|238:225|235:273,1,75,2|8,1:2|1:0,0:0:0:0:
54,312,11680,2,0,P|27:262|32:159,1,150,4|2,1:0|1:0,0:0:0:0:
152,286,12175,2,0,L|137:375,1,75,8|0,1:0|0:0,0:0:0:0:
253,266,12504,1,2,1:0:0:0:
120,199,12669,1,0,0:0:0:0:
228,102,12834,2,0,L|213:191,1,75,10|0,1:0|0:0,0:0:0:0:
349,81,13164,6,0,B|355:49|355:49|344:5,1,75,4|0,1:0|0:0,0:0:0:0:
164,89,13493,2,0,P|199:132|319:135,1,150,8|0,1:0|1:0,0:0:0:0:
512,125,13988,2,0,L|422:107,1,75,2|8,1:2|1:0,0:0:0:0:
259,239,14317,2,0,B|351:254|311:210|416:225,1,150,4|2,1:0|1:0,0:0:0:0:
304,76,14812,2,0,P|289:122|288:156,1,75,8|0,1:0|0:0,0:0:0:0:
169,306,15142,2,0,P|165:268|152:233,2,75,2|0|10,1:0|0:0|1:0,0:0:0:0:
59,115,15636,5,0,0:0:0:0:
59,115,15719,1,0,0:0:0:0:
59,115,15801,2,0,P|138:102|198:156,1,150,4|8,1:0|1:0,0:0:0:0:
308,25,16295,2,0,P|297:62|294:99,1,75,0|0,0:0|1:0,0:0:0:0:
293,269,16625,2,0,P|287:226|270:189,1,75,2|8,1:2|1:0,0:0:0:0:
512,141,16955,6,0,B|431:133|453:178|365:170,1,150,4|2,1:0|1:0,0:0:0:0:
433,59,17449,2,0,L|520:39,1,75,8|0,1:0|0:0,0:0:0:0:
446,197,17779,1,2,1:0:0:0:
333,97,17944,1,0,0:0:0:0:
207,158,18109,2,0,P|202:208|207:241,1,75,10|0,1:0|0:0,0:0:0:0:
313,360,18438,6,0,P|318:320|304:199,1,150,4|8,1:0|1:0,0:0:0:0:
106,125,18933,6,0,P|101:165|115:286,1,150,0|2,0:0|1:2,0:0:0:0:
214,123,19427,1,8,1:0:0:0:
159,50,19592,2,0,P|119:33|59:24,1,75,4|0,1:0|0:0,0:0:0:0:
191,215,19922,1,2,1:0:0:0:
300,38,20087,2,0,P|300:89|334:192,1,150,8|2,1:0|1:0,0:0:0:0:
465,86,20581,1,0,0:0:0:0:
465,86,20664,1,0,0:0:0:0:
465,86,20746,2,2,B|443:80|443:80|422:94|422:94|383:84,1,75,2|0,0:1|0:0,0:1:0:0:
311,195,21076,6,0,P|365:208|417:230,2,112.500004291535,4|10|4,1:0|0:0|3:3,0:0:0:0:
135,209,21570,2,0,P|102:180|92:153,1,56.2500021457673,10|0,0:0|0:0,0:0:0:0:
190,122,21735,6,0,P|183:177|149:221,1,112.500004291535,4|8,3:3|0:0,3:0:0:0:
185,299,21982,2,0,P|154:318|136:339,1,56.2500021457673,4|8,2:3|2:0,3:0:0:0:
16,249,22148,1,0,0:0:0:0:
36,241,22230,2,0,P|70:258|95:288,1,56.2500021457673,4|0,2:3|2:0,3:0:0:0:
207,311,22394,6,0,P|281:306|331:211,1,168.750006437302,4|0,3:0|0:0,0:0:0:0:
322,213,22724,2,0,P|283:277|311:402,1,168.750006437302,4|0,3:0|0:0,0:0:0:0:
305,383,23054,5,4,3:0:0:0:
478,306,23219,1,12,3:0:0:0:
461,292,23301,2,0,L|406:271,1,56.2500021457673,4|8,3:0|0:0,0:0:0:0:
245,233,23548,1,6,3:0:0:0:
245,233,23878,5,4,3:0:0:0:
358,109,24043,1,4,3:0:0:0:
384,220,24208,6,0,P|342:199|315:196,1,56.2500021457673,8|0,0:0|0:0,0:0:0:0:
239,119,24372,2,0,P|184:141|122:139,1,112.500004291535,4|8,3:0|0:0,0:0:0:0:
351,93,24702,1,8,0:0:0:0:
221,255,24867,5,4,3:0:0:0:
221,255,24949,1,0,0:0:0:0:
221,255,25032,2,0,P|199:312|205:375,1,112.500004291535,4|10,3:0|0:0,0:0:0:0:
313,190,25361,1,8,3:0:0:0:
99,320,25526,5,10,0:0:0:0:
99,320,25609,1,0,0:0:0:0:
99,320,25691,2,0,L|74:195,1,112.500004291535,4|8,3:0|0:0,0:0:0:0:
12,137,25938,2,0,L|-1:192,1,56.2500021457673,4|0,3:0|0:0,0:0:0:0:
0,191,26350,6,0,L|148:168,2,150,2|2|2,3:0|3:0|3:0,0:0:0:0:
146,144,27175,1,0,0:0:0:0:
135,157,27257,2,0,L|229:175,1,75,2|0,3:0|0:0,0:0:0:0:
283,202,27504,2,0,L|320:198,1,37.5,2|0,3:0|0:0,0:0:0:0:
191,187,27669,6,0,L|340:173,1,150,2|2,3:0|3:0,0:0:0:0:
345,195,28328,2,0,L|253:180,1,75,2|0,3:0|0:0,0:0:0:0:
243,204,28576,2,0,L|279:196,1,37.5,2|0,3:0|0:0,0:0:0:0:
444,177,28823,1,2,3:0:0:0:
89,181,29153,5,2,3:0:0:0:
183,187,29317,2,0,L|109:172,1,75,2|0,3:0|0:0,0:0:0:0:
24,208,29647,2,0,L|97:193,1,75,2|0,3:0|0:0,0:0:0:0:
189,175,29894,2,0,L|283:193,1,75,2|0,3:0|0:0,0:0:0:0:
350,152,30142,1,2,3:0:0:0:
512,192,30306,6,0,L|364:169,1,150,2|2,3:0|3:0,0:0:0:0:
350,177,30966,6,0,B|332:216|392:259|385:216,1,93.75
406,205,31213,2,0,B|397:254|379:242|369:290,1,93.75
348,374,31460,2,0,B|367:275|493:253|547:344|492:382|432:338,1,281.25
423,350,32284,6,0,P|343:322|247:319,2,140.625,6|2|2,3:0|3:0|3:0,0:0:0:0:
207,373,32944,2,0,P|181:325|189:224,1,140.625,2|0,3:0|0:0,0:0:0:0:
193,234,33273,2,0,P|209:289|200:335,1,93.75,2|0,3:0|0:0,0:0:0:0:
0,384,33603,2,0,P|41:345|155:350,2,140.625,0|2|2,0:0|3:0|3:0,0:0:0:0:
287,236,34427,6,0,L|332:225,1,46.875,2|0,3:0|0:0,0:0:0:0:
401,163,34592,2,0,P|444:182|490:190,1,93.75,2|0,3:0|0:0,0:0:0:0:
311,115,34922,1,2,3:0:0:0:
426,47,35086,1,0,0:0:0:0:
440,63,35169,2,0,P|448:130|404:190,1,140.625,2|2,3:0|2:0,0:0:0:0:
285,146,35581,6,0,P|197:143|111:220,1,187.5,2|2,3:0|3:0,0:0:0:0:
166,379,36241,1,0,0:0:0:0:
63,344,36405,1,0,0:0:0:0:
63,344,36488,2,0,L|107:328,1,46.875,2|0,3:0|0:0,0:0:0:0:
107,328,36900,6,0,L|238:346,1,93.75,10|0,0:0|0:0,0:0:0:0:
6,251,37230,2,0,L|97:232,1,93.75,8|0,0:0|0:0,0:0:0:0:
260,240,37559,2,0,L|295:163,1,46.875,8|0,0:0|0:0,0:0:0:0:
170,89,37724,1,0,0:0:0:0:
160,103,37806,2,0,L|185:217,1,93.75,2|0,3:0|0:0,0:0:0:0:
242,253,38054,2,0,L|231:298,1,46.875,2|0,3:0|0:0,0:0:0:0:
363,225,38219,6,0,L|417:305,1,93.75,10|0,0:0|0:0,0:0:0:0:
512,112,38548,2,0,L|485:201,1,93.75,10|0,0:0|0:0,0:0:0:0:
293,146,38878,2,0,L|366:121,1,46.875,10|0,0:0|0:0,0:0:0:0:
411,182,39043,1,0,0:0:0:0:
402,193,39125,2,0,L|272:159,1,93.75,2|0,3:0|0:0,0:0:0:0:
232,207,39372,1,2,0:1:0:0:
355,90,39537,5,8,0:0:0:0:
355,90,39702,2,0,L|340:45,1,46.875,2|0,3:0|0:0,0:0:0:0:
260,62,39867,2,0,L|165:-24,1,93.75,2|0,3:0|0:0,0:0:0:0:
8,158,40197,2,0,L|162:128,1,140.625,10|2,0:0|3:0,0:0:0:0:
171,139,40526,1,8,0:0:0:0:
102,63,40691,2,0,L|92:108,1,46.875,2|0,3:0|0:0,0:0:0:0:
153,259,40856,5,4,1:2:0:0:
153,259,41186,2,0,P|165:299|166:318,1,56.2500021457673,8|4,0:0|3:0,0:0:0:0:
71,303,41515,2,2,L|38:290,2,28.1250010728836,2|2|2,0:0|0:0|3:0,0:0:0:0:
231,213,41845,1,4,0:0:0:0:
247,222,41927,2,0,L|379:194,1,93.75,10|0,3:0|0:0,0:0:0:0:
338,223,42175,6,0,L|488:242,2,112.500004291535,4|2|8,1:0|0:0|0:0,0:0:0:0:
234,153,42669,2,0,P|213:120|208:95,1,56.2500021457673,2|0,0:0|0:0,0:0:0:0:
337,119,42834,2,0,P|324:184|277:232,1,112.500004291535,8|8,0:0|0:0,0:0:0:0:
213,309,43081,1,0,0:0:0:0:
234,326,43164,2,0,P|224:266|162:210,1,112.500004291535,10|0,0:1|1:0,0:0:0:0:
16,164,43493,5,2,1:2:0:0:
118,124,43658,2,0,L|106:179,1,56.2500021457673,8|0,0:0|0:0,0:0:0:0:
67,248,43823,2,0,L|88:358,2,112.500004291535,2|10|8,1:2|0:0|0:0,0:0:0:0:
0,85,44317,1,0,1:0:0:0:
0,85,44400,1,0,1:0:0:0:
0,85,44482,2,0,L|56:99,1,56.2500021457673,8|0,0:0|0:0,0:0:0:0:
178,60,44647,1,0,0:0:0:0:
178,60,44977,5,4,3:0:0:0:
124,170,45142,2,0,P|86:128|68:75,1,112.500004291535,2|2,1:2|0:0,0:0:0:0:
221,23,45471,2,0,P|266:56|349:47,1,112.500004291535,8|8,0:0|0:0,0:0:0:0:
366,129,45719,1,4,3:0:0:0:
394,138,45801,2,0,P|439:121|515:111,1,112.500004291535,8|4,0:0|3:0,0:0:0:0:
316,34,46131,6,0,P|277:98|279:192,1,168.750006437302,2|0,1:0|0:0,0:0:0:0:
293,208,46460,2,0,P|340:154|298:85,1,112.500004291535,10|2,0:1|0:0,0:0:0:0:
188,210,46790,2,0,B|112:149|63:238|-22:189,1,168.750006437302,0|0,1:0|1:0,1:0:0:0:
0,179,47120,2,0,B|-21:162|13:153|31:163|39:190,1,75,2|0,0:1|0:0,0:0:0:0:
172,233,47449,6,0,P|164:288|133:334,1,112.500004291535,0|2,1:0|0:0,0:0:0:0:
6,288,47779,1,8,0:0:0:0:
50,174,47943,2,0,P|66:196|75:223,1,56.2500021457673,2|0,0:0|0:0,0:0:0:0:
191,254,48109,2,0,P|257:216|331:227,1,112.500004291535,0|8,1:0|0:0,0:0:0:0:
232,83,48356,1,0,0:0:0:0:
216,99,48438,2,0,P|230:157|294:188,1,112.500004291535,10|0,0:1|1:0,0:0:0:0:
369,278,48768,6,0,P|398:266|434:255,1,56.2500021457673,2|0,1:2|0:0,0:0:0:0:
430,225,48933,1,8,0:0:0:0:
240,192,49098,2,0,P|275:266|279:353,1,168.750006437302,2|0,1:2|0:0,0:0:0:0:
263,372,49427,1,0,3:0:0:0:
232,24,50252,5,4,3:0:0:0:
252,149,50416,2,0,P|268:74|249:15,1,112.500004291535,2|2,1:2|0:0,0:0:0:0:
138,132,50746,2,0,P|75:171|21:170,1,112.500004291535,0|8,1:0|0:0,0:0:0:0:
76,75,50994,1,4,3:0:0:0:
94,81,51076,2,0,P|113:113|118:136,1,56.2500021457673,8|0,0:0|0:0,0:0:0:0:
49,196,51241,1,4,3:0:0:0:
182,285,51405,6,0,P|149:330|133:384,2,112.500004291535,2|2|10,1:0|0:0|0:1,0:0:0:0:
194,304,51900,1,2,0:0:0:0:
167,37,52230,5,0,0:0:0:0:
107,78,52394,1,2,0:0:0:0:
107,78,52477,1,2,0:0:0:0:
107,78,52559,2,0,L|161:63,1,56.2500021457673,2|0,0:1|0:0,0:0:0:0:
255,0,52724,6,0,L|248:44,7,28.1250010728836,2|0|0|0|0|0|0|0,3:0|0:0|0:0|0:0|0:0|0:0|0:0|0:0,0:0:0:0:
313,126,53383,6,0,L|340:86,1,46.875,0|0,1:0|3:2,0:0:0:0:
467,68,53548,1,8,3:1:0:0:
447,85,53631,2,0,L|408:197,1,93.75,0|0,3:2|0:2,0:0:0:0:
290,135,53878,2,2,L|312:193,1,46.875,0|0,1:1|0:2,3:2:0:0:
264,269,54043,6,0,L|379:308,1,93.75,0|8,1:2|3:2,0:0:0:0:
404,189,54372,2,0,L|519:164,1,93.75,8|8,3:1|3:2,0:0:0:0:
507,311,54702,6,0,L|467:336,1,46.875,0|0,1:2|0:0,0:0:0:0:
388,282,54867,1,0,1:0:0:0:
369,312,54949,1,0,1:0:0:0:
181,347,55197,1,0,1:0:0:0:
181,347,55526,6,0,L|193:301,1,46.875,4|0,3:0|0:0,0:0:0:0:
12,215,55691,2,0,L|62:363,1,140.625,0|0,1:0|0:0,0:0:0:0:
132,271,56021,6,0,L|165:304,1,46.875,0|0,1:0|3:2,0:0:0:0:
211,194,56186,1,8,3:1:0:0:
190,183,56268,2,0,L|89:159,1,93.75,0|0,3:2|0:2,0:0:0:0:
43,110,56515,2,2,L|-7:131,1,46.875,0|0,1:1|0:2,3:2:0:0:
38,223,56680,6,0,L|192:103,2,187.5,0|8|8,1:2|3:1|1:0,0:0:0:0:
61,353,57504,5,0,3:0:0:0:
61,353,57587,1,0,0:0:0:0:
61,353,57669,2,0,B|18:360|51:304|100:327,1,84.3750032186509,2|0,0:1|0:0,0:0:0:0:
105,314,57999,6,0,L|188:344,2,75,8|2|8,0:0|3:0|0:0,0:0:0:0:
46,383,58493,1,2,3:0:0:0:
178,251,58658,1,8,0:0:0:0:
178,251,58823,2,0,L|164:187,1,37.5,2|0,3:0|0:0,0:0:0:0:
106,159,58988,2,0,L|122:85,1,75,10|0,0:0|0:0,0:0:0:0:
7,255,59317,6,0,P|43:243|101:230,1,75,10|0,0:0|0:0,0:0:0:0:
185,195,59647,2,0,P|210:210|256:217,1,75,10|0,0:0|0:0,0:0:0:0:
267,233,59977,2,0,L|278:187,1,37.5,8|0,0:0|0:0,0:0:0:0:
366,162,60142,2,0,L|375:208,1,37.5,8|0,0:0|0:0,0:0:0:0:
310,310,60306,2,0,L|280:162,1,150,10|0,0:0|0:0,0:0:0:0:
365,120,60801,5,8,0:0:0:0:
365,120,60883,1,0,0:0:0:0:
365,120,60966,2,0,L|375:30,1,75,8|2,0:0|3:0,0:0:0:0:
399,58,61295,2,0,L|435:49,1,37.5,8|0,0:0|0:0,0:0:0:0:
501,140,61460,2,0,L|464:129,1,37.5,2|0,3:0|0:0,0:0:0:0:
358,83,61625,2,0,L|284:95,1,75,8|2,0:0|3:0,0:0:0:0:
186,169,61955,6,0,P|154:153|94:150,1,75,10|0,0:0|0:0,0:0:0:0:
258,83,62284,2,0,L|290:161,1,75,10|0,0:0|0:0,0:0:0:0:
204,252,62614,1,10,0:0:0:0:
204,252,62779,1,0,0:0:0:0:
262,306,62944,2,0,P|255:325|253:361,1,56.25,10|0,0:0|0:0,0:0:0:0:
264,372,63273,6,0,B|231:192|112:341,1,240.815670200503,4|0,0:0|0:0,0:0:0:0:
112,340,64123,1,8,0:0:0:0:
133,352,64288,2,0,L|116:274,1,60,8|8,0:0|0:0,0:0:0:0:
224,271,64618,6,0,L|198:216,3,60
234,172,65277,1,0,0:0:0:0:
234,172,65607,2,0,L|221:249,1,60,8|8,0:0|0:0,0:0:0:0:
199,305,65936,6,0,P|251:274|316:281,1,120,2|2,0:0|0:0,0:0:0:0:
317,265,66430,1,0,0:0:0:0:
265,362,66595,2,0,P|238:310|243:241,1,120,0|8,0:0|0:0,0:0:0:0:
277,179,67090,1,8,0:0:0:0:
205,312,67255,6,0,P|253:284|316:291,1,120,2|2,0:0|0:0,0:0:0:0:
331,273,67749,1,0,0:0:0:0:
263,384,67914,2,0,P|245:346|241:291,1,90
225,278,68244,6,0,B|322:254|277:349,1,134.999995880127,2|0,0:0|0:0,0:0:0:0:
248,255,68548,6,0,L|112:228,1,112.500004291535,0|0,1:3|0:0,0:0:0:0:
400,108,68878,2,0,L|291:145,1,112.500004291535,4|8,3:0|0:0,0:0:0:0:
90,90,69208,2,0,L|121:152,1,56.2500021457673,4|0,1:3|0:0,0:0:0:0:
170,229,69372,1,8,0:0:0:0:
186,215,69455,2,0,L|205:84,1,112.500004291535,4|0,3:0|0:0,0:0:0:0:
203,0,69702,2,0,L|158:34,1,56.2500021457673,4|0,3:0|0:0,0:0:0:0:
107,157,69867,6,0,L|255:118,1,112.500004291535,0|0,1:3|0:0,0:0:0:0:
22,34,70197,2,0,L|133:50,1,112.500004291535,4|8,3:0|0:0,0:0:0:0:
243,145,70526,2,0,L|227:91,1,56.2500021457673,4|0,1:3|0:0,0:0:0:0:
265,19,70691,1,8,0:0:0:0:
278,40,70773,2,0,L|259:178,1,112.500004291535,4|0,3:0|0:0,0:0:0:0:
226,219,71021,1,4,3:0:0:0:
213,5,71350,6,0,L|229:59,1,56.2500021457673,0|0,1:0|0:0,0:0:0:0:
281,147,71515,2,0,L|254:256,1,112.500004291535,4|8,3:0|0:0,0:0:0:0:
123,329,71845,2,0,L|185:298,1,56.2500021457673,4|0,1:3|0:0,0:0:0:0:
274,232,72009,1,8,0:0:0:0:
261,211,72092,2,0,L|130:192,1,112.500004291535,4|0,3:0|0:0,0:0:0:0:
40,197,72339,2,0,L|74:242,1,56.2500021457673,4|0,3:0|0:0,0:0:0:0:
251,238,72504,6,0,L|226:129,1,112.500004291535,0|0,1:3|0:0,0:0:0:0:
388,170,72834,2,0,L|405:59,1,112.500004291535,4|8,3:0|0:0,0:0:0:0:
509,277,73164,1,2,0:0:0:0:
509,277,73328,1,2,0:0:0:0:
448,333,73493,2,0,P|460:371|499:385,1,84.3750032186509
510,377,73823,6,0,P|476:292|330:278,2,225.000008583069,4|0|8,1:0|1:0|0:0,0:0:0:0:
331,355,74647,1,2,0:0:0:0:
331,355,74730,2,0,P|277:335|209:330,1,112.500004291535,2|2,0:0|0:0,0:0:0:0:
140,306,74977,2,0,P|115:338|95:351,1,56.2500021457673,2|0,0:0|0:0,0:0:0:0:
240,344,75142,6,0,P|220:286|216:219,1,112.500004291535,2|2,3:0|3:0,0:0:0:0:
179,117,75471,2,0,P|213:73|223:7,1,112.500004291535,0|8,0:0|1:0,0:0:0:0:
107,190,75801,5,0,0:0:0:0:
225,111,75966,1,0,0:0:0:0:
254,128,76048,2,0,L|385:94,1,112.500004291535
428,27,76295,2,0,L|494:51,2,56.2500021457673,0|0|0,1:0|0:0|1:0,0:0:0:0:
321,199,76625,5,2,0:0:0:0:
495,135,76790,2,0,P|412:131|357:70,1,168.750006437302,2|0,0:0|0:0,0:0:0:0:
326,85,77120,1,8,0:0:0:0:
512,160,77284,1,2,0:0:0:0:
493,174,77367,2,0,P|457:231|448:294,1,112.500004291535,2|2,0:0|0:0,0:0:0:0:
362,333,77614,2,0,P|385:396|387:426,1,56.2500021457673,2|0,0:0|0:0,0:0:0:0:
512,326,77779,6,0,P|459:308|424:265,1,112.500004291535,2|2,3:0|3:0,0:0:0:0:
273,327,78109,2,0,P|218:339|168:364,1,112.500004291535,2|0,0:0|1:0,0:0:0:0:
182,378,78603,6,0,L|195:308,2,56.2500021457673,0|0|2,0:0|0:0|0:1,0:0:0:0:
68,302,79098,6,0,P|176:294|256:203,2,225.000008583069,4|0|8,1:0|1:0|0:0,0:0:0:0:
173,167,79922,1,2,0:0:0:0:
173,167,80005,2,0,P|153:113|148:45,1,112.500004291535,2|2,0:0|0:0,0:0:0:0:
85,0,80252,2,0,P|69:23|47:40,1,56.2500021457673,2|0,0:0|0:0,0:0:0:0:
132,90,80417,6,0,P|185:84|240:57,1,112.500004291535,2|2,3:0|3:0,0:0:0:0:
421,144,80746,2,0,P|431:89|465:45,1,112.500004291535,0|0,0:0|1:0,0:0:0:0:
256,160,81076,5,0,0:0:0:0:
362,243,81241,1,0,0:0:0:0:
345,272,81323,2,0,L|379:403,1,112.500004291535
460,364,81570,2,0,L|512:383,2,56.2500021457673,0|0|0,1:0|0:0|1:0,0:0:0:0:
269,322,81899,5,2,0:0:0:0:
438,258,82064,2,0,P|355:254|300:193,1,168.750006437302,2|0,0:0|0:0,0:0:0:0:
272,204,82394,1,8,0:0:0:0:
146,128,82559,1,2,0:0:0:0:
169,96,82642,2,0,P|221:76|270:48,1,112.500004291535,2|2,0:0|0:0,0:0:0:0:
325,103,82889,2,0,P|348:118|375:128,1,56.2500021457673,2|0,0:0|0:0,0:0:0:0:
244,190,83054,6,0,P|174:223|157:332,1,168.750006437302,2|0,3:0|0:0,0:0:0:0:
170,384,83383,2,0,P|175:303|115:237,1,151.875000579357,2|0,0:0|0:0,0:0:0:0:
71,297,83713,2,0,L|-4:313,2,56.2500021457673
88,305,84372,5,4,1:0:0:0:
110,213,84537,2,0,L|74:200,2,37.5,0|0|0,0:0|0:0|1:0,0:0:0:0:
204,216,84867,2,0,L|226:246,2,37.5,0|0|8,0:0|0:0|1:0,0:0:0:0:
260,143,85197,1,0,0:0:0:0:
260,143,85279,1,0,1:0:0:0:
349,161,85444,1,0,0:0:0:0:
349,161,85526,1,0,1:0:0:0:
258,119,85691,1,4,1:0:0:0:
344,71,85856,2,0,L|358:105,2,37.5,0|0|0,0:0|0:0|1:0,0:0:0:0:
444,139,86186,2,0,L|437:175,2,37.5,0|0|8,0:0|0:0|1:0,0:0:0:0:
512,96,86515,1,0,0:0:0:0:
512,96,86598,1,0,1:0:0:0:
512,96,86680,2,0,L|416:122,1,75
323,165,87010,1,8,0:0:0:0:
323,165,87175,2,0,L|313:202,1,37.5,0|0,1:0|0:0,0:0:0:0:
321,227,87339,1,0,1:0:0:0:
408,241,87504,2,0,L|433:213,2,37.5,0|0|8,0:0|0:0|1:2,0:0:0:0:
443,324,87834,1,0,0:0:0:0:
443,324,87916,1,8,1:2:0:0:
512,384,88081,1,0,0:0:0:0:
512,384,88163,1,0,1:0:0:0:
425,327,88328,1,0,1:0:0:0:
329,344,88493,2,0,L|294:330,2,37.5,0|0|0,0:0|0:0|1:0,0:0:0:0:
208,361,88823,2,0,L|158:382,2,37.5,0|0|8,0:0|0:0|1:0,0:0:0:0:
172,284,89153,1,0,0:0:0:0:
172,284,89235,1,0,1:0:0:0:
82,287,89400,1,0,0:0:0:0:
82,287,89483,1,0,1:0:0:0:
179,265,89647,1,4,1:0:0:0:
116,198,89812,2,0,L|68:180,2,37.5,0|0|0,0:0|0:0|1:0,0:0:0:0:
198,143,90142,2,0,L|238:173,2,37.5,0|0|8,0:0|0:0|1:0,0:0:0:0:
161,47,90472,1,0,0:0:0:0:
161,47,90554,1,0,1:0:0:0:
72,9,90719,1,0,0:0:0:0:
72,9,90801,1,0,1:0:0:0:
170,34,90966,1,0,1:0:0:0:
76,101,91131,2,0,L|43:75,2,37.5,0|0|0,0:0|0:0|1:0,0:0:0:0:
160,143,91461,2,0,L|176:181,2,37.5,0|0|8,0:0|0:0|1:0,0:0:0:0:
120,253,91790,1,0,0:0:0:0:
120,253,91873,1,0,1:0:0:0:
120,253,91955,2,0,L|188:341,1,112.5
200,326,92284,6,0,L|236:316,3,37.5,8|8|0|0,0:0|0:0|1:0|0:0,0:0:0:0:
319,343,92614,2,0,L|366:357,3,37.5,0|0|8|8,1:0|0:0|0:0|0:0,0:0:0:0:
445,308,92944,6,0,L|435:272,1,37.5,0|0,1:0|0:0,0:0:0:0:
404,191,93109,1,8,0:0:0:0:
404,191,93191,2,0,L|414:155,1,37.5,0|8,1:0|0:0,0:0:0:0:
360,92,93355,1,8,0:0:0:0:
360,92,93438,1,0,1:0:0:0:
254,205,93603,6,0,B|241:188|241:188|282:205,7,37.5,0|0|0|0|0|0|0|0,3:0|3:0|3:0|3:0|3:0|3:0|3:0|3:0,0:0:0:0:
339,246,94262,6,0,B|353:303|353:303|364:313,1,75,0|0,3:0|0:0,0:0:0:0:
428,234,94510,1,0,0:0:0:0:
428,234,94592,2,0,B|291:197|291:197|271:174,1,168.750006437302
325,88,94922,5,4,1:0:0:0:
325,88,95004,2,0,P|350:103|314:103,6,56.2500021457673,0|0|0|2|0|0|0,0:0|0:0|0:0|1:0|0:0|0:0|0:0,0:0:0:0:
277,201,95581,6,0,L|112:239,1,168.750006437302,8|0,0:0|0:0,0:0:0:0:
39,193,95911,2,0,B|0:159|0:159|81:184,1,112.500004291535,2|0,1:0|0:0,0:0:0:0:
197,310,96241,5,2,3:0:0:0:
197,310,96405,1,0,0:0:0:0:
145,375,96570,2,0,B|102:334|102:334|98:323|98:323|175:161,1,225.000008583069,2|8,1:0|0:0,0:0:0:0:
142,182,96982,6,0,L|102:67,1,112.500004291535
117,59,97230,2,0,B|120:74|120:74|97:125,2,56.2500021457673,2|2|2,3:0|3:0|3:0,0:0:0:0:
17,124,97559,6,0,B|50:143|50:143|305:87|305:87|341:104,1,337.500012874604,4|0,1:0|0:0,0:0:0:0:
219,52,98219,5,8,0:0:0:0:
217,77,98301,2,0,B|233:96|233:96|350:122,1,112.500004291535,2|0,3:0|0:0,0:0:0:0:
409,75,98548,2,0,B|453:42|453:42|398:57,1,112.500004291535,2|0,0:1|0:0,0:0:0:0:
264,191,98878,5,2,3:0:0:0:
264,191,99043,1,0,3:0:0:0:
376,251,99208,2,0,B|488:286|488:286|424:199,1,225.000008583069,2|8,1:1|0:0,0:0:0:0:
242,205,99702,6,0,B|223:210|223:210|135:182,1,112.500004291535,0|0,1:0|3:0,0:0:0:0:
139,163,99949,2,0,L|168:302,1,112.500004291535,0|0,3:0|0:0,0:0:0:0:
139,355,100197,6,0,B|123:321|123:321|179:66|179:66|160:33,1,337.500012874604,4|0,1:0|0:0,0:0:0:0:
0,124,100856,1,8,0:0:0:0:
19,134,100938,2,0,B|108:107|108:107|162:121,1,112.500004291535,2|0,3:0|0:0,0:0:0:0:
117,126,101186,2,0,L|188:141,2,56.2500021457673,2|0|0,1:0|0:0|0:0,0:0:0:0:
150,25,101515,5,2,3:0:0:0:
150,25,101680,1,0,0:0:0:0:
276,97,101845,2,0,B|368:35|368:35|259:68,1,225.000008583069,2|8,1:0|0:0,0:0:0:0:
156,156,102339,6,0,B|152:182|152:182|181:263,1,112.500004291535,2|2,3:0|3:0,0:0:0:0:
174,279,102587,2,0,L|320:243,1,112.500004291535,2|0,3:0|0:0,0:0:0:0:
381,263,102834,6,0,B|348:282|348:282|93:226|93:226|58:242,1,337.500012874604,4|0,1:0|0:0,0:0:0:0:
100,103,103493,6,0,B|127:115|127:115|157:205,1,112.500004291535,2|8,3:0|0:0,0:0:0:0:
135,212,103741,1,0,0:0:0:0:
291,332,103988,6,0,B|275:303|275:303|178:267,1,112.500004291535,0|2,0:0|3:0,0:0:0:0:
180,290,104235,1,0,3:0:0:0:
373,170,104482,6,0,B|348:190|348:190|258:205,1,112.500004291535,2|0,1:1|0:0,0:0:0:0:
245,193,104730,2,0,B|229:176|229:176|277:192,1,56.2500021457673,0|8,0:0|0:0,0:0:0:0:
260,186,105471,5,4,1:0:0:0:
260,186,105553,2,0,P|245:211|245:175,6,56.2500021457673,0|0|0|2|0|0|0,0:0|0:0|0:0|1:0|0:0|0:0|0:0,0:0:0:0:
217,112,106131,6,0,L|179:277,1,168.750006437302,8|0,0:0|0:0,0:0:0:0:
242,327,106461,2,0,B|276:366|276:366|251:285,1,112.500004291535,2|0,1:0|0:0,0:0:0:0:
90,229,106790,5,2,3:0:0:0:
90,229,106955,1,0,0:0:0:0:
137,367,107120,2,0,B|149:345|149:345|112:175|112:175|123:151,1,225.000008583069,2|8,1:0|0:0,0:0:0:0:
43,96,107614,1,2,3:0:0:0:
227,74,107779,2,0,B|231:92|231:92|204:181,1,112.500004291535,2|2,3:0|3:0,3:0:0:0:
5,232,108109,6,0,L|170:270,1,168.750006437302,4|0,1:0|0:0,0:0:0:0:
186,259,108438,1,2,1:0:0:0:
289,344,108603,1,0,0:0:0:0:
199,360,108768,2,0,B|140:377|140:377|179:343,1,112.500004291535,8|2,0:0|3:0,0:0:0:0:
321,255,109098,1,2,0:1:0:0:
257,149,109262,1,0,0:0:0:0:
400,60,109427,6,0,L|509:85,1,112.500004291535,2|0,3:0|3:0,3:0:0:0:
376,174,109757,2,0,B|353:163|353:163|182:200|182:200|160:188,1,225.000008583069,2|8,1:1|0:0,0:0:0:0:
22,116,110252,1,0,1:0:0:0:
151,67,110416,1,0,3:0:0:0:
165,83,110499,2,0,L|138:192,1,112.500004291535,0|0,3:0|0:0,0:0:0:0:
84,251,110746,5,4,1:0:0:0:
84,251,110828,2,0,P|56:240|92:234,6,56.2500021457673,0|0|0|2|0|0|0,0:0|0:0|0:0|1:0|0:0|0:0|0:0,0:0:0:0:
0,321,111405,6,0,B|16:301|16:301|187:265|187:265|203:245,1,225.000008583069,8|2,0:0|1:0,0:0:0:0:
307,319,111900,1,0,0:0:0:0:
181,343,112065,2,0,B|142:309|142:309|201:326,1,112.500004291535,2|0,3:0|0:0,0:0:0:0:
388,378,112394,2,0,L|497:351,1,112.500004291535,2|0,1:0|0:0,0:0:0:0:
361,239,112724,1,8,0:0:0:0:
361,239,112889,1,2,3:0:0:0:
506,142,113054,2,0,B|510:160|510:160|483:249,1,112.500004291535,2|2,3:0|3:0,0:0:0:0:
292,334,113383,6,0,B|268:322|268:322|99:359|99:359|77:347,1,225.000008583069,4|2,1:0|1:0,0:0:0:0:
76,346,113878,1,0,0:0:0:0:
164,175,114043,2,0,B|198:136|198:136|180:194,1,112.500004291535,2|8,3:0|0:0,0:0:0:0:
103,250,114372,1,2,0:1:0:0:
48,121,114537,1,0,0:0:0:0:
182,47,114702,2,0,B|314:86|314:86|363:82,1,168.750006437302,2|0,3:0|0:0,3:0:0:0:
414,40,115032,2,0,B|453:6|453:6|394:23,1,112.500004291535,2|0,1:1|0:0,0:0:0:0:
251,105,115361,5,8,0:0:0:0:
251,105,115526,2,0,L|261:160,1,56.2500021457673
252,239,115691,1,0,0:0:0:0:
262,256,115773,2,0,L|242:366,1,112.500004291535
256,384,116021,1,0,0:0:0:0:
