osu file format v14

[General]
AudioFilename: audio.mp3
AudioLeadIn: 0
PreviewTime: 9702
Countdown: 0
SampleSet: Soft
StackLeniency: 0.7
Mode: 0
LetterboxInBreaks: 0
WidescreenStoryboard: 0

[Editor]
DistanceSpacing: 1
BeatDivisor: 4
GridSize: 16
TimelineZoom: 1.9

[Metadata]
Title:lucio vs. hydraulic press
TitleUnicode:lucio vs. hydraulic press
Artist:bh6w
ArtistUnicode:bh6w
Creator:wafer
Version:1000000000000000000000000000000000000000000000000000000000000000000 degree knife
Source:
Tags:dariacore hyper flip hyperflip pop electronic english ayel enri yeastiest payney ralkinson desire blue sky martin garrix bebe rexha in the name of love carly rae jepsen i really like you rihanna drake work demi lovato cool for the summer zedd foxes clarity blac youngsta dababy like a pro
BeatmapID:4359427
BeatmapSetID:2081606

[Difficulty]
HPDrainRate:5
CircleSize:4
OverallDifficulty:8.6
ApproachRate:9
SliderMultiplier:1.8
SliderTickRate:1

[Events]
//Background and Video events
0,0,"frog.jpg",0,0
//Break Periods
//Storyboard Layer 0 (Background)
//Storyboard Layer 1 (Fail)
//Storyboard Layer 2 (Pass)
//Storyboard Layer 3 (Foreground)
//Storyboard Layer 4 (Overlay)
//Storyboard Sound Samples

[TimingPoints]
5252,329.67032967033,4,2,0,50,1,0
10526,-100,4,2,0,70,0,0
42175,-76.9230769230769,4,2,0,70,0,0
42339,-100,4,2,0,70,0,0
63959,329.67032967033,4,2,0,60,1,0
63959,-133.333333333333,4,2,0,60,0,0
64618,329.67032967033,4,2,0,50,1,0
64618,-200,4,2,0,50,0,0
68548,329.67032967033,4,2,0,70,1,0
68548,-100,4,2,0,70,0,0
73823,-86.9565217391304,4,2,0,70,0,0
84372,-100,4,2,0,70,0,0
94922,-83.3333333333333,4,2,0,70,0,0

[Colours]
Combo1 : 145,194,255
Combo2 : 192,192,192

[HitObjects]
256,192,5252,12,4,9372,3:0:0:0:
256,192,9537,5,0,3:0:0:0:
308,143,9702,1,0,1:0:0:0:
272,224,9867,1,0,1:0:0:0:
184,174,10032,1,0,1:0:0:0:
253,152,10197,1,0,1:0:0:0:
290,91,10361,1,0,1:0:0:0:
256,16,10526,5,4,1:0:0:0:
256,16,10691,1,2,0:0:0:0:
196,64,10856,2,0,P|146:74|105:63,1,90,8|0,1:0|0:0,0:0:0:0:
16,0,11186,1,0,1:0:0:0:
109,65,11350,2,0,P|139:106|146:147,1,90,2|8,1:2|1:0,0:0:0:0:
0,243,11680,2,0,P|-16:178|76:134,1,180,4|2,1:0|1:0,0:0:0:0:
200,202,12175,1,8,1:0:0:0:
200,202,12339,1,0,0:0:0:0:
128,303,12504,6,0,P|116:267|127:200,1,90,2|0,1:0|0:0,0:0:0:0:
410,163,12834,2,0,P|424:229|407:294,1,135,10|0,1:0|0:0,0:0:0:0:
408,298,13164,6,0,P|364:303|320:312,1,90,4|0,1:0|0:0,0:0:0:0:
200,202,13493,2,0,P|244:196|288:187,1,90,8|0,1:0|0:0,0:0:0:0:
498,243,13824,1,0,1:0:0:0:
342,131,13988,2,0,P|351:87|379:53,1,90,2|8,1:2|1:0,0:0:0:0:
254,273,14318,2,0,B|161:276|173:320|75:317,1,180,4|2,1:0|1:0,0:0:0:0:
238,353,14813,1,8,1:0:0:0:
113,237,14977,1,0,0:0:0:0:
192,114,15142,6,0,P|204:150|193:217,1,90,2|0,1:0|0:0,0:0:0:0:
13,364,15471,2,0,P|4:327|20:261,1,90,10|0,1:0|0:0,0:0:0:0:
132,66,15801,5,4,1:0:0:0:
132,66,15966,1,2,0:0:0:0:
192,114,16131,2,0,P|231:117|287:102,1,90,8|0,1:0|0:0,0:0:0:0:
438,0,16461,1,0,1:0:0:0:
381,79,16625,2,0,P|357:117|352:162,1,90,2|8,1:2|1:0,0:0:0:0:
501,253,16955,2,0,P|517:188|425:144,1,180,4|2,1:0|1:0,0:0:0:0:
280,192,17450,1,8,1:0:0:0:
280,192,17614,1,0,0:0:0:0:
401,304,17779,6,0,P|413:268|402:201,1,90,2|0,1:0|0:0,0:0:0:0:
114,173,18109,2,0,P|97:238|111:304,1,135,10|0,1:0|0:0,0:0:0:0:
111,304,18439,6,0,P|155:309|199:318,1,90,4|0,1:0|0:0,0:0:0:0:
290,114,18768,2,0,P|272:72|258:29,1,90,8|0,1:0|0:0,0:0:0:0:
88,179,19099,1,0,1:0:0:0:
184,124,19263,2,0,P|174:80|146:46,1,90,2|8,1:2|1:0,0:0:0:0:
327,256,19593,2,0,B|420:253|408:209|506:212,1,180,4|2,1:0|1:0,0:0:0:0:
349,164,20088,1,8,1:0:0:0:
471,298,20252,1,0,0:0:0:0:
349,164,20417,6,0,P|343:126|365:62,1,90,2|0,1:0|0:0,0:0:0:0:
510,36,20746,2,2,P|450:65|425:126,1,135,2|0,0:1|0:0,0:1:0:0:
425,126,21076,6,0,L|480:131,1,45,4|0,1:0|0:0,0:0:0:0:
442,204,21241,1,10,0:0:0:0:
296,27,21405,6,0,L|241:17,1,45,4|0,3:3|3:0,3:0:0:0:
258,98,21570,1,10,0:0:0:0:
0,59,21735,6,0,L|18:110,1,45,4|0,3:3|3:0,3:0:0:0:
133,2,21900,1,8,0:0:0:0:
108,16,21982,2,0,L|53:6,1,45,4|8,2:3|2:0,3:0:0:0:
127,118,22230,2,0,L|162:75,1,45,4|0,2:3|2:0,3:0:0:0:
256,208,22394,6,0,L|251:300,1,90,4|8,3:0|0:0,0:0:0:0:
343,224,22724,6,0,L|329:273,1,45,4|0,3:0|0:0,0:0:0:0:
196,354,22889,1,8,0:0:0:0:
408,285,23054,6,0,L|381:328,1,45,4|0,3:0|0:0,0:0:0:0:
167,280,23219,1,12,3:0:0:0:
167,280,23301,1,4,3:0:0:0:
167,280,23383,1,8,0:0:0:0:
425,206,23548,5,6,3:0:0:0:
64,128,23878,5,4,3:0:0:0:
147,0,24043,6,0,L|132:97,1,90,4|8,3:0|0:0,0:0:0:0:
279,3,24372,2,0,L|291:69,1,45,4|0,3:0|0:0,0:0:0:0:
313,123,24537,1,8,0:0:0:0:
436,34,24702,1,8,0:0:0:0:
238,109,24867,2,0,L|226:175,1,45,4|0,3:0|0:0,0:0:0:0:
403,107,25032,5,4,3:0:0:0:
403,107,25114,1,0,0:0:0:0:
403,107,25197,2,0,P|442:111|510:84,1,90,10|8,0:0|3:0,0:0:0:0:
343,194,25526,5,10,0:0:0:0:
281,238,25691,2,0,P|242:230|172:251,1,90,4|8,3:0|0:0,0:0:0:0:
143,300,25938,2,0,L|133:360,1,45,4|0,3:0|0:0,0:0:0:0:
77,229,26103,1,0,0:0:0:0:
85,242,26186,2,0,L|75:182,1,45,4|0,3:0|0:0,0:0:0:0:
0,224,26350,5,2,3:0:0:0:
180,168,26680,5,2,3:0:0:0:
357,229,27010,5,2,3:0:0:0:
412,138,27257,1,2,3:0:0:0:
508,184,27504,1,2,3:0:0:0:
434,214,27669,5,2,3:0:0:0:
256,144,27999,5,2,3:0:0:0:
224,0,28329,5,2,3:0:0:0:
239,74,28493,1,0,0:0:0:0:
239,74,28576,1,2,3:0:0:0:
261,223,28823,1,2,3:0:0:0:
261,223,29153,5,2,3:0:0:0:
58,191,29317,1,2,3:0:0:0:
104,251,29647,5,2,3:0:0:0:
185,157,29894,1,2,3:0:0:0:
309,148,30141,1,2,3:0:0:0:
370,198,30306,5,2,3:0:0:0:
370,198,30636,1,2,3:0:0:0:
394,213,31007,6,0,L|429:217,1,22.5
436,141,31254,6,0,L|471:137,1,22.5
471,58,31460,6,0,L|518:36,1,45
511,38,32284,6,0,L|416:64,1,90,6|0,3:0|0:0,0:0:0:0:
385,41,32532,2,0,L|326:111,1,90,2|0,3:0|0:0,3:0:0:0:
255,133,32779,2,0,L|245:187,1,45,2|0,3:0|0:0,3:0:0:0:
247,177,32944,6,0,L|220:-15,2,180,2|2|0,3:0|3:0|0:0,0:0:0:0:
256,352,33850,1,2,3:0:0:0:
300,259,34098,1,2,3:0:0:0:
300,259,34427,5,2,3:0:0:0:
201,248,34592,2,0,L|96:273,1,90,2|0,3:0|0:0,0:0:0:0:
247,177,34922,6,0,L|277:73,1,90,2|0,3:0|0:0,0:0:0:0:
294,82,35169,2,0,L|368:160,1,90,2|0,3:0|0:0,0:0:0:0:
396,166,35416,2,0,L|312:186,1,45,2|0,2:0|2:0,2:0:0:0:
250,181,35581,6,0,L|277:-11,2,180,2|2|0,3:0|3:0|0:0,0:0:0:0:
385,65,36488,1,2,3:0:0:0:
385,65,36900,5,10,0:0:0:0:
512,112,37230,1,8,0:0:0:0:
486,272,37559,1,8,0:0:0:0:
309,242,37806,1,2,3:0:0:0:
309,242,37889,1,8,0:0:0:0:
280,337,38054,1,2,3:0:0:0:
381,316,38219,5,10,0:0:0:0:
256,144,38548,1,10,0:0:0:0:
92,280,38878,1,10,0:0:0:0:
311,249,39125,1,2,3:0:0:0:
311,249,39208,1,8,0:0:0:0:
182,202,39373,1,2,0:1:0:0:
236,146,39537,1,8,0:0:0:0:
192,16,39702,5,2,3:0:0:0:
191,16,39867,2,0,P|173:58|172:107,1,90,2|0,3:0|0:0,0:0:0:0:
457,146,40197,2,0,P|475:104|476:55,1,90,10|0,0:0|0:0,0:0:0:0:
417,18,40444,1,2,3:0:0:0:
417,18,40526,1,8,0:0:0:0:
318,170,40691,1,2,3:0:0:0:
303,66,40856,5,4,1:2:0:0:
303,66,41186,2,0,P|284:95|254:108,1,45,8|0,0:0|0:0,0:0:0:0:
224,160,41350,2,0,P|190:167|159:155,1,45,4|0,3:0|0:0,0:0:0:0:
121,113,41515,2,2,P|112:75|119:44,2,45,2|2|2,0:0|0:0|3:0,0:0:0:0:
19,231,41845,5,4,0:0:0:0:
15,236,41927,2,0,P|27:188|78:163,1,90,10|0,3:0|0:0,0:0:0:0:
162,282,42175,6,0,P|151:312|153:324,3,29.2499986610413,4|0|4|0,1:0|0:0|1:0|0:0,0:0:0:0:
151,308,42339,2,0,L|280:291,1,90,2|8,0:0|0:0,0:0:0:0:
45,346,42669,1,2,0:0:0:0:
210,215,42834,1,8,0:0:0:0:
229,142,42999,1,8,0:0:0:0:
335,277,43164,2,0,P|341:328|331:371,1,90,10|0,0:1|1:0,0:0:0:0:
393,165,43493,6,0,P|400:114|421:75,1,90,2|8,1:2|0:0,0:0:0:0:
435,300,43823,1,2,1:2:0:0:
512,131,43988,1,10,0:0:0:0:
308,194,44153,1,8,0:0:0:0:
464,211,44317,1,0,1:0:0:0:
464,211,44400,1,0,1:0:0:0:
464,211,44482,1,8,0:0:0:0:
334,15,44647,6,2,B|352:84|338:60|352:102,1,90,0|2,0:0|0:0,0:1:0:0:
352,102,44977,2,0,L|329:62,1,45,4|0,3:0|0:0,0:0:0:0:
190,23,45142,5,2,1:2:0:0:
227,184,45306,2,0,P|237:145|235:79,1,90,2|8,0:0|0:0,0:0:0:0:
73,0,45636,1,8,0:0:0:0:
45,23,45719,1,4,3:0:0:0:
33,44,45801,2,0,P|32:102|45:145,1,90,8|4,0:0|3:0,0:0:0:0:
256,256,46131,5,2,1:0:0:0:
26,306,46295,1,2,0:0:0:0:
227,336,46460,1,10,0:1:0:0:
76,237,46624,1,2,0:0:0:0:
227,336,46790,2,0,P|258:343|317:338,1,90,0|8,1:0|0:0,1:0:0:0:
368,288,47037,1,0,1:0:0:0:
410,302,47120,1,2,0:1:0:0:
410,302,47449,5,0,1:0:0:0:
333,188,47613,2,0,L|350:59,1,90,2|8,0:0|0:0,0:0:0:0:
225,240,47943,1,2,0:0:0:0:
410,196,48108,1,0,1:0:0:0:
252,148,48273,1,8,0:0:0:0:
156,122,48438,2,0,P|150:71|160:28,1,90,10|0,0:1|1:0,0:0:0:0:
105,204,48767,6,0,P|106:255|92:297,1,90,2|8,1:2|0:0,0:0:0:0:
77,84,49097,1,2,1:2:0:0:
0,253,49262,1,10,0:0:0:0:
10,160,49427,5,0,3:0:0:0:
10,160,50251,2,0,L|69:150,1,45,4|0,3:0|0:0,0:0:0:0:
224,80,50416,5,2,1:2:0:0:
256,239,50580,2,0,P|270:197|266:151,1,90,2|0,0:0|1:0,0:0:0:0:
384,14,50910,1,8,0:0:0:0:
356,37,50993,1,4,3:0:0:0:
344,58,51075,2,0,P|343:116|356:159,1,90,8|4,0:0|3:0,0:0:0:0:
505,238,51405,5,2,1:0:0:0:
317,290,51569,1,2,0:0:0:0:
459,170,51734,1,10,0:1:0:0:
351,147,51900,1,2,0:0:0:0:
395,212,52065,5,2,0:0:0:0:
509,70,52394,1,2,0:0:0:0:
498,51,52476,1,2,0:0:0:0:
460,32,52558,5,2,0:1:0:0:
381,47,52724,2,0,P|361:70|350:125,7,45,2|0|0|0|0|0|0|0,3:0|0:0|0:0|0:0|0:0|0:0|0:0|0:0,0:0:0:0:
289,41,53383,5,0,1:0:0:0:
247,27,53466,1,0,3:2:0:0:
208,48,53548,1,8,3:1:0:0:
197,91,53630,1,0,3:2:0:0:
220,128,53713,2,2,P|231:109|237:87,1,45,8|0,3:1|0:2,3:2:0:0:
83,25,53878,2,2,P|71:44|65:66,1,45,0|0,1:1|0:2,3:2:0:0:
11,128,54043,5,0,1:2:0:0:
51,111,54125,1,0,3:2:0:0:
90,130,54207,1,8,3:2:0:0:
103,172,54290,1,0,3:2:0:0:
80,209,54372,1,8,3:1:0:0:
37,216,54454,1,0,3:2:0:0:
5,188,54536,1,8,3:2:0:0:
8,144,54619,1,0,3:2:0:0:
44,120,54701,1,0,1:2:0:0:
202,213,54867,1,0,1:0:0:0:
202,213,54949,1,0,1:0:0:0:
202,213,55032,1,8,1:0:0:0:
15,314,55197,1,0,1:0:0:0:
15,314,55526,6,0,L|84:307,1,45,4|0,3:0|0:0,0:0:0:0:
128,336,55691,1,0,1:0:0:0:
240,142,55856,1,2,3:0:0:0:
346,336,56021,5,0,1:0:0:0:
387,349,56104,1,0,3:2:0:0:
426,328,56186,1,8,3:1:0:0:
437,285,56268,1,0,3:2:0:0:
414,248,56351,2,2,P|402:267|396:289,1,45,8|0,3:1|0:2,3:2:0:0:
512,269,56516,2,2,P|506:247|494:227,1,45,0|0,1:1|0:2,3:2:0:0:
373,174,56681,5,0,1:2:0:0:
332,190,56763,1,0,3:2:0:0:
293,171,56845,1,8,3:2:0:0:
280,129,56928,1,0,3:2:0:0:
303,92,57010,1,8,3:1:0:0:
346,85,57092,1,0,3:2:0:0:
378,113,57174,1,8,3:2:0:0:
375,157,57257,1,0,3:2:0:0:
338,180,57339,1,8,1:0:0:0:
294,172,57421,1,0,3:0:0:0:
266,137,57504,2,0,P|265:117|268:92,1,45,0|0,3:0|0:0,0:0:0:0:
416,16,57669,5,2,0:1:0:0:
416,16,57999,5,8,0:0:0:0:
416,96,58164,1,2,3:0:0:0:
487,62,58328,1,8,0:0:0:0:
465,170,58493,1,2,3:0:0:0:
497,242,58658,1,8,0:0:0:0:
432,195,58823,1,2,3:0:0:0:
291,178,58988,6,0,P|246:184|204:204,1,90,10|0,0:0|0:0,0:0:0:0:
54,133,59317,2,0,P|95:151|140:158,1,90,10|0,0:0|0:0,0:0:0:0:
245,36,59647,2,0,P|216:70|178:94,1,90,10|0,0:0|0:0,0:0:0:0:
37,16,59977,1,8,0:0:0:0:
37,16,60142,1,8,0:0:0:0:
102,64,60306,2,0,P|116:40|116:12,2,45,10|2|10,0:0|0:0|0:0,0:0:0:0:
102,62,60801,1,8,0:0:0:0:
75,149,60966,5,8,0:0:0:0:
10,192,61131,1,2,3:0:0:0:
10,192,61295,1,8,0:0:0:0:
104,248,61460,1,2,3:0:0:0:
78,323,61625,1,8,0:0:0:0:
7,297,61790,1,2,3:0:0:0:
160,318,61955,6,0,P|204:324|247:344,1,90,10|0,0:0|0:0,0:0:0:0:
396,273,62284,2,0,P|355:291|310:297,1,90,10|0,0:0|0:0,0:0:0:0:
184,190,62614,2,0,P|212:224|250:248,1,90,10|0,0:0|0:0,0:0:0:0:
429,177,62944,2,0,P|439:124|379:72,1,135,10|0,0:0|0:0,0:0:0:0:
381,64,63273,2,0,B|362:112|388:116|451:73|513:170,1,180,4|0,0:0|0:0,0:0:0:0:
504,158,63959,6,0,L|509:85,2,67.5000025749208,0|8|8,0:0|0:0|0:0,0:0:0:0:
504,158,64453,1,8,0:0:0:0:
436,120,64618,6,0,L|425:68,4,45
476,7,65441,1,8,0:0:0:0:
476,7,65606,1,8,0:0:0:0:
476,7,65771,1,8,0:0:0:0:
328,67,65936,5,2,0:0:0:0:
328,67,66266,2,0,L|319:15,1,45,2|0,0:0|0:0,0:0:0:0:
240,128,66595,1,0,0:0:0:0:
246,50,66760,1,8,0:0:0:0:
246,50,66925,1,8,0:0:0:0:
246,50,67090,1,8,0:0:0:0:
98,110,67255,5,2,0:0:0:0:
98,110,67585,2,0,L|89:58,1,45,2|0,0:0|0:0,0:0:0:0:
10,171,67914,1,0,0:0:0:0:
19,92,68079,1,8,0:0:0:0:
162,164,68244,6,0,L|158:186,1,22.5,2|0,0:0|0:0,0:0:0:0:
158,186,68548,6,0,B|199:223|199:223|241:200|281:206,1,135,0|0,1:3|0:0,0:0:0:0:
290,217,68878,2,0,B|329:205|329:205|331:183|346:150,1,90,4|8,3:0|0:0,0:0:0:0:
140,267,69208,2,0,L|148:334,1,45,4|0,1:3|0:0,0:0:0:0:
57,293,69372,1,8,0:0:0:0:
48,318,69455,1,4,3:0:0:0:
54,332,69537,1,8,0:0:0:0:
229,292,69702,2,0,L|271:319,1,45,4|0,3:0|0:0,0:0:0:0:
389,300,69867,6,0,B|409:268|406:213|406:213|477:173,1,135,0|0,1:3|0:0,0:0:0:0:
445,190,70197,2,0,B|487:202|487:202|501:257,1,90,4|8,3:0|0:0,0:0:0:0:
371,96,70527,2,0,L|363:29,1,45,4|0,1:3|0:0,0:0:0:0:
454,70,70691,1,8,0:0:0:0:
463,45,70774,1,4,3:0:0:0:
457,31,70856,1,8,0:0:0:0:
272,80,71021,1,4,3:0:0:0:
272,80,71350,5,0,1:0:0:0:
144,1,71515,2,0,B|115:33|115:33|134:104,1,90,4|8,3:0|0:0,0:0:0:0:
65,182,71845,2,0,L|-2:174,1,45,4|0,1:3|0:0,0:0:0:0:
45,255,72009,1,8,0:0:0:0:
70,264,72092,1,4,3:0:0:0:
84,258,72174,1,8,0:0:0:0:
201,102,72339,1,4,3:0:0:0:
315,223,72504,6,0,B|277:249|277:249|230:231|177:250,1,135,0|0,1:3|0:0,0:0:0:0:
189,245,72834,2,0,B|158:213|158:213|174:158,1,90,4|8,3:0|0:0,0:0:0:0:
256,315,73164,1,2,0:0:0:0:
256,315,73328,1,2,0:0:0:0:
291,103,73493,6,0,P|270:167|261:234,1,135
207,90,73823,5,4,1:0:0:0:
473,135,73988,2,0,P|493:78|481:12,1,103.500001974106,2|0,0:0|1:0,0:0:0:0:
400,187,74317,1,2,0:0:0:0:
358,54,74482,1,8,0:0:0:0:
201,102,74647,1,2,0:0:0:0:
201,101,74730,1,2,0:0:0:0:
121,83,74894,1,2,0:0:0:0:
121,82,74977,1,2,0:0:0:0:
0,192,75142,5,2,3:0:0:0:
77,166,75306,2,0,P|138:175|196:187,1,103.500001974106,2|0,3:0|0:0,0:0:0:0:
271,6,75636,2,0,P|278:67|281:126,1,103.500001974106,8|0,1:0|0:0,0:0:0:0:
240,336,75966,1,0,0:0:0:0:
240,336,76048,1,0,0:0:0:0:
240,336,76131,1,0,1:0:0:0:
201,101,76295,1,0,1:0:0:0:
396,266,76460,5,0,1:0:0:0:
318,275,76625,1,2,0:0:0:0:
140,365,76790,2,0,P|141:313|163:264,1,103.500001974106,2|0,0:0|1:0,0:0:0:0:
350,158,77119,1,8,0:0:0:0:
428,172,77284,1,2,0:0:0:0:
428,171,77367,1,2,0:0:0:0:
508,153,77531,1,2,0:0:0:0:
508,152,77614,1,2,0:0:0:0:
446,73,77779,5,2,3:0:0:0:
368,112,77944,1,2,3:0:0:0:
319,245,78109,1,2,0:0:0:0:
289,47,78273,5,0,1:0:0:0:
289,47,78603,5,0,0:0:0:0:
237,110,78768,5,0,0:0:0:0:
221,0,78933,5,2,0:1:0:0:
251,183,79098,5,4,1:0:0:0:
39,137,79263,2,0,P|19:80|31:14,1,103.500001974106,2|0,0:0|1:0,0:0:0:0:
174,166,79592,1,2,0:0:0:0:
13,263,79757,1,8,0:0:0:0:
105,80,79922,1,2,0:0:0:0:
105,79,80005,1,2,0:0:0:0:
186,79,80169,1,2,0:0:0:0:
186,78,80252,1,2,0:0:0:0:
260,129,80417,5,2,3:0:0:0:
349,158,80581,2,0,P|410:149|468:137,1,103.500001974106,2|0,3:0|0:0,0:0:0:0:
320,228,80911,2,0,P|258:235|199:238,1,103.500001974106,0|0,1:0|0:0,0:0:0:0:
387,72,81241,1,0,0:0:0:0:
387,72,81323,1,0,0:0:0:0:
387,72,81406,1,0,1:0:0:0:
470,234,81570,1,0,1:0:0:0:
260,129,81735,5,0,1:0:0:0:
260,129,81900,1,2,0:0:0:0:
132,212,82065,2,0,P|133:263|155:312,1,103.500001974106,2|0,0:0|1:0,0:0:0:0:
173,107,82394,1,8,0:0:0:0:
227,50,82559,1,2,0:0:0:0:
227,49,82642,1,2,0:0:0:0:
307,31,82806,1,2,0:0:0:0:
307,30,82889,1,2,0:0:0:0:
446,75,83054,5,2,3:0:0:0:
427,200,83219,1,2,3:0:0:0:
319,247,83384,1,2,0:0:0:0:
144,176,83548,5,0,1:0:0:0:
144,176,84372,6,0,L|99:173,1,45,4|0,1:0|0:0,0:0:0:0:
256,96,84702,2,0,L|176:111,1,45,0|0,1:0|0:0,0:0:0:0:
89,13,85032,2,0,L|-7:49,1,90,8|0,1:0|0:0,0:0:0:0:
4,44,85279,2,0,L|100:80,1,90,0|0,1:0|0:0,0:0:0:0:
88,75,85526,2,0,L|54:116,1,45,0|0,1:0|0:0,0:0:0:0:
99,173,85691,6,0,L|144:176,1,45,4|0,1:0|0:0,0:0:0:0:
256,96,86021,2,0,L|176:111,1,45,0|0,1:0|0:0,0:0:0:0:
89,13,86351,2,0,L|-7:49,1,90,8|0,1:0|0:0,0:0:0:0:
4,44,86598,2,0,L|100:80,1,90,0|0,1:0|0:0,0:0:0:0:
88,75,86845,1,0,0:0:0:0:
176,37,87010,1,8,0:0:0:0:
335,82,87175,5,0,1:0:0:0:
437,121,87339,2,0,P|447:68|416:1,1,90,0|0,1:0|0:0,0:0:0:0:
274,131,87669,2,0,P|264:184|295:251,1,90,8|0,1:2|0:0,0:0:0:0:
259,242,87916,2,0,P|307:265|380:252,1,90,8|0,1:2|0:0,0:0:0:0:
368,243,88164,1,0,1:0:0:0:
144,176,88328,6,0,L|99:173,1,45,0|0,1:0|0:0,0:0:0:0:
256,96,88658,2,0,L|176:111,1,45,0|0,1:0|0:0,0:0:0:0:
89,13,88988,2,0,L|-7:49,1,90,8|0,1:0|0:0,0:0:0:0:
4,44,89235,2,0,L|100:80,1,90,0|0,1:0|0:0,0:0:0:0:
88,75,89482,2,0,L|54:116,1,45,0|0,1:0|0:0,0:0:0:0:
99,173,89647,6,0,L|144:176,1,45,4|0,1:0|0:0,0:0:0:0:
256,96,89977,2,0,L|176:111,1,45,0|0,1:0|0:0,0:0:0:0:
89,13,90306,2,0,L|-7:49,1,90,8|0,1:0|0:0,0:0:0:0:
4,44,90553,2,0,L|100:80,1,90,0|0,1:0|0:0,0:0:0:0:
88,75,90800,2,0,L|54:116,1,45,0|0,1:0|0:0,0:0:0:0:
144,176,90966,6,0,L|99:173,1,45,0|0,1:0|0:0,0:0:0:0:
256,96,91296,2,0,L|176:111,1,45,0|0,1:0|0:0,0:0:0:0:
89,13,91624,2,0,L|-7:49,1,90,8|0,1:0|0:0,0:0:0:0:
4,44,91873,2,0,L|100:80,1,90,0|0,1:0|0:0,0:0:0:0:
88,75,92120,2,0,L|54:116,1,45,0|0,1:0|0:0,0:0:0:0:
99,173,92285,5,8,0:0:0:0:
142,184,92367,1,8,0:0:0:0:
186,195,92449,2,0,P|190:217|192:240,1,45,0|0,1:0|0:0,0:0:0:0:
311,179,92614,2,0,P|309:156|305:135,1,45,0|0,1:0|0:0,0:0:0:0:
401,74,92779,5,8,0:0:0:0:
444,86,92861,1,8,0:0:0:0:
488,97,92943,2,0,P|492:118|494:141,1,45,0|0,1:0|0:0,0:0:0:0:
386,325,93109,5,8,0:0:0:0:
334,311,93191,2,0,P|328:284|326:257,1,45,0|8,1:0|0:0,0:0:0:0:
485,214,93356,5,8,0:0:0:0:
511,260,93438,2,0,P|496:282|478:303,1,45,0|8,1:0|0:0,0:0:0:0:
414,177,93603,5,0,3:0:0:0:
414,177,93686,1,0,3:0:0:0:
414,177,93768,1,0,3:0:0:0:
414,177,93850,1,0,3:0:0:0:
414,177,93933,1,0,3:0:0:0:
414,177,94015,1,0,3:0:0:0:
414,177,94098,1,0,3:0:0:0:
414,177,94180,1,0,3:0:0:0:
414,177,94262,1,0,3:0:0:0:
257,15,94592,6,0,L|246:61,1,45
246,58,94757,2,0,L|186:26,1,45
97,124,94922,6,0,B|46:141|46:141|26:91|26:91|55:69|59:38,1,161.999995056153,4|0,1:0|0:0,0:0:0:0:
115,134,95252,2,0,B|186:148|186:148|102:174,1,107.999996704102,2|0,1:0|0:0,0:0:0:0:
38,263,95581,1,8,0:0:0:0:
15,248,95663,1,2,3:0:0:0:
6,223,95745,1,2,3:0:0:0:
191,224,95911,2,0,B|143:278|143:278|162:192,1,107.999996704102,2|0,1:0|0:0,0:0:0:0:
151,243,96241,6,0,L|335:203,1,161.999995056153,2|0,3:0|0:0,0:0:0:0:
372,160,96570,2,0,B|442:173|442:173|359:199,1,107.999996704102,2|0,1:0|0:0,0:0:0:0:
256,16,96900,1,8,0:0:0:0:
299,135,97065,1,2,3:0:0:0:
446,73,97230,1,2,3:0:0:0:
446,73,97312,1,2,3:0:0:0:
446,73,97394,2,0,L|371:74,1,53.9999983520508,2|0,3:0|0:0,0:0:0:0:
309,208,97559,6,0,B|324:247|324:247|382:278|382:278|403:258|459:266,1,161.999995056153,4|0,1:0|0:0,0:0:0:0:
296,232,97889,2,0,B|282:303|282:303|256:219,1,107.999996704102,2|0,1:0|0:0,0:0:0:0:
110,290,98218,1,8,0:0:0:0:
82,319,98300,1,2,3:0:0:0:
74,358,98382,1,2,3:0:0:0:
148,220,98548,2,0,B|216:196|216:196|156:261,1,107.999996704102,2|0,0:1|0:0,0:0:0:0:
41,128,98878,6,0,P|28:152|24:188,1,53.9999983520508,2|0,3:0|3:0,3:0:0:0:
36,182,99043,2,0,P|62:157|92:151,1,53.9999983520508,0|0,3:0|0:0,0:0:0:0:
69,46,99208,2,0,B|14:-1|14:-1|100:17,1,107.999996704102,2|0,1:1|0:0,0:0:0:0:
238,31,99537,1,8,0:0:0:0:
129,93,99702,2,0,P|143:69|168:57,1,53.9999983520508,0|0,1:0|0:0,0:0:0:0:
315,70,99867,1,0,3:0:0:0:
306,19,99949,1,0,3:0:0:0:
257,7,100032,2,0,P|247:30|247:42,2,26.9999991760254
415,124,100197,6,0,B|442:98|442:98|495:103|495:103|503:55|421:34,1,161.999995056153,4|0,1:0|0:0,0:0:0:0:
397,134,100527,2,0,B|326:148|326:148|410:174,1,107.999996704102,2|0,1:0|0:0,0:0:0:0:
474,263,100856,1,8,0:0:0:0:
496,248,100938,1,2,3:0:0:0:
505,223,101020,1,2,3:0:0:0:
321,224,101186,2,0,B|368:278|368:278|349:192,1,107.999996704102,2|0,1:0|0:0,0:0:0:0:
360,243,101516,6,0,L|176:283,1,161.999995056153,2|0,3:0|0:0,0:0:0:0:
104,256,101845,2,0,B|33:269|33:269|116:295,1,107.999996704102,2|0,1:0|0:0,0:0:0:0:
200,112,102175,1,8,0:0:0:0:
140,332,102340,1,2,3:0:0:0:
62,186,102505,1,2,3:0:0:0:
62,186,102587,1,2,3:0:0:0:
62,186,102669,2,0,L|35:105,1,53.9999983520508,2|0,3:0|0:0,0:0:0:0:
209,38,102834,6,0,B|192:64|192:64|114:46|114:46|111:14|67:-16,1,161.999995056153,4|0,1:0|0:0,0:0:0:0:
214,46,103164,2,0,B|228:117|228:117|254:33,1,107.999996704102,2|0,1:0|0:0,0:0:0:0:
390,75,103493,1,2,3:0:0:0:
410,40,103576,1,2,3:0:0:0:
412,0,103658,1,8,0:0:0:0:
297,153,103823,2,0,B|365:176|365:176|305:111,1,107.999996704102,2|0,0:1|0:0,0:0:0:0:
502,33,104153,6,0,P|497:60|485:84,1,53.9999983520508,2|0,3:0|3:0,3:0:0:0:
511,70,104318,2,0,P|486:96|480:126,1,53.9999983520508,0|0,3:0|0:0,0:0:0:0:
462,251,104483,2,0,B|432:184|432:184|502:238,1,107.999996704102,2|0,1:1|0:0,0:0:0:0:
312,68,104812,1,8,0:0:0:0:
312,68,105142,2,0,B|232:73|240:119|142:122,1,161.999995056153
179,0,105471,6,0,B|229:-17|229:-17|250:33|250:33|221:55|217:86,1,161.999995056153,4|0,1:0|0:0,0:0:0:0:
146,0,105801,2,0,B|75:14|75:14|159:40,1,107.999996704102,2|0,1:0|0:0,0:0:0:0:
39,191,106130,1,8,0:0:0:0:
16,176,106212,1,2,3:0:0:0:
7,151,106294,1,2,3:0:0:0:
16,112,106378,1,0,3:0:0:0:
56,142,106460,2,0,B|8:196|8:196|27:110,1,107.999996704102,2|0,1:0|0:0,0:0:0:0:
190,194,106790,6,0,P|126:216|69:299,1,161.999995056153,2|0,3:0|3:0,3:0:0:0:
229,216,107119,2,0,B|299:202|299:202|216:176,1,107.999996704102,2|0,1:0|0:0,0:0:0:0:
0,259,107449,1,8,0:0:0:0:
233,314,107614,1,2,3:0:0:0:
21,347,107779,2,0,L|78:338,1,53.9999983520508,2|0,3:0|3:0,3:0:0:0:
105,353,107944,2,0,L|162:362,1,53.9999983520508,2|0,3:0|3:0,3:0:0:0:
307,270,108108,6,0,B|369:284|369:284|395:323|457:328,1,161.999995056153,4|0,1:0|0:0,0:0:0:0:
290,228,108438,2,0,B|276:157|276:157|250:241,1,107.999996704102,2|0,1:0|0:0,0:0:0:0:
343,372,108767,1,8,0:0:0:0:
443,215,108933,1,2,3:0:0:0:
232,282,109097,2,0,B|300:258|300:258|240:323,1,107.999996704102,2|0,0:1|0:0,0:0:0:0:
468,224,109427,6,0,P|481:200|485:164,1,53.9999983520508,2|0,3:0|3:0,3:0:0:0:
454,178,109592,2,0,P|479:152|485:122,1,53.9999983520508,0|0,3:0|0:0,0:0:0:0:
261,108,109757,2,0,B|243:37|243:37|302:102,1,107.999996704102,2|0,1:1|0:0,0:0:0:0:
495,46,110086,1,8,0:0:0:0:
324,148,110251,2,0,P|309:171|284:183,1,53.9999983520508,0|0,1:0|0:0,0:0:0:0:
138,213,110416,1,0,3:0:0:0:
147,162,110498,1,0,3:0:0:0:
196,150,110581,2,0,P|206:173|206:185,2,26.9999991760254
89,283,110746,6,0,B|62:257|62:257|9:262|9:262|1:214|83:193,1,161.999995056153,4|0,1:0|0:0,0:0:0:0:
117,310,111076,2,0,B|188:324|188:324|104:350,1,107.999996704102,2|0,1:0|0:0,0:0:0:0:
80,141,111405,2,0,P|89:95|88:78,1,53.9999983520508,8|0,0:0|0:0,0:0:0:0:
43,31,111570,1,0,1:0:0:0:
44,206,111735,2,0,B|-3:260|-3:260|15:174,1,107.999996704102,2|0,1:0|0:0,0:0:0:0:
143,33,112065,6,0,B|196:38|221:79|221:79|315:98,1,161.999995056153,2|0,3:0|0:0,0:0:0:0:
107,12,112394,2,0,B|36:25|36:25|119:51,1,107.999996704102,2|0,1:0|0:0,0:0:0:0:
288,2,112724,1,8,0:0:0:0:
165,162,112889,1,2,3:0:0:0:
363,66,113054,1,2,3:0:0:0:
363,66,113136,1,2,3:0:0:0:
363,66,113218,2,0,L|390:147,1,53.9999983520508,2|0,3:0|0:0,0:0:0:0:
504,160,113383,6,0,B|487:133|487:133|409:151|409:151|406:183|362:214,1,161.999995056153,4|0,1:0|0:0,0:0:0:0:
512,186,113713,2,0,B|498:257|498:257|472:173,1,107.999996704102,2|0,1:0|0:0,0:0:0:0:
294,206,114042,1,2,3:0:0:0:
274,241,114125,1,2,3:0:0:0:
272,281,114207,1,8,0:0:0:0:
427,270,114372,2,0,B|358:293|358:293|418:228,1,107.999996704102,2|0,0:1|0:0,0:0:0:0:
205,150,114702,6,0,P|200:176|187:200,1,53.9999983520508,2|0,3:0|3:0,3:0:0:0:
213,186,114867,2,0,P|188:212|182:242,1,53.9999983520508,0|0,3:0|0:0,0:0:0:0:
19,152,115032,2,0,B|-21:44|-21:44|59:139,1,215.999993408203,2|8,1:1|0:0,0:0:0:0:
67,225,115526,5,0,0:0:0:0:
119,164,115691,1,0,0:0:0:0:
111,78,115856,1,0,0:0:0:0:
105,66,115938,1,0,0:0:0:0:
75,52,116021,1,0,0:0:0:0:
