osu file format v14

[General]
AudioFilename: audio.mp3
AudioLeadIn: 0
PreviewTime: 117812
Countdown: 0
SampleSet: Soft
StackLeniency: 0.7
Mode: 0
LetterboxInBreaks: 0
WidescreenStoryboard: 0

[Editor]
DistanceSpacing: 1.4
BeatDivisor: 8
GridSize: 4
TimelineZoom: 1

[Metadata]
Title:Eastside
TitleUnicode:Eastside
Artist:benny blanco, Halsey & Khalid
ArtistUnicode:benny blanco, Halsey & Khalid
Creator:tomadoi
Version:Insane
Source:
Tags:bearizm agatsu shiinoha kotone pop english leader nextplay
BeatmapID:2035307
BeatmapSetID:972053

[Difficulty]
HPDrainRate:6
CircleSize:4.2
OverallDifficulty:8
ApproachRate:9
SliderMultiplier:2.4
SliderTickRate:1

[Events]
//Background and Video events
0,0,"51320842_p0_master1200.jpg",0,0
//Break Periods
//Storyboard Layer 0 (Background)
//Storyboard Layer 1 (Fail)
//Storyboard Layer 2 (Pass)
//Storyboard Layer 3 (Foreground)
//Storyboard Layer 4 (Overlay)
//Storyboard Sound Samples

[TimingPoints]
270,666.666666666667,4,2,22,30,1,0
270,-250,4,2,22,30,0,0
10936,-125,4,2,22,30,0,0
18436,-125,4,2,22,5,0,0
18603,-125,4,2,22,30,0,0
21603,-100,4,2,22,40,0,0
23186,-100,4,2,22,5,0,0
23270,-100,4,2,22,40,0,0
23520,-100,4,2,22,5,0,0
23603,-100,4,2,22,40,0,0
31103,-100,4,2,22,30,0,0
32270,-83.3333333333333,4,2,22,50,0,0
32520,-83.3333333333333,4,2,22,5,0,0
32603,-83.3333333333333,4,2,22,50,0,0
37853,-83.3333333333333,4,2,22,5,0,0
37936,-83.3333333333333,4,2,22,50,0,0
52270,-142.857142857143,4,2,22,50,0,0
52353,-142.857142857143,4,2,22,20,0,0
52936,-142.857142857143,4,2,22,50,0,0
53603,-71.4285714285715,4,2,22,60,0,0
54853,-71.4285714285715,4,2,22,5,0,0
54936,-71.4285714285715,4,2,22,60,0,0
55853,-71.4285714285715,4,2,22,5,0,0
55936,-71.4285714285715,4,2,22,60,0,0
59853,-71.4285714285715,4,2,22,5,0,0
59936,-71.4285714285715,4,2,22,60,0,0
65186,-71.4285714285715,4,2,22,5,0,0
65270,-71.4285714285715,4,2,22,60,0,0
69020,-71.4285714285715,4,2,22,5,0,0
69103,-71.4285714285715,4,2,22,60,0,0
75270,-125,4,2,22,40,0,0
95103,-125,4,2,22,30,0,0
96270,-83.3333333333333,4,2,22,50,0,0
96520,-83.3333333333333,4,2,22,5,0,0
96603,-83.3333333333333,4,2,22,50,0,0
101853,-83.3333333333333,4,2,22,5,0,0
101936,-83.3333333333333,4,2,22,50,0,0
116353,-83.3333333333333,4,2,22,5,0,0
116936,-83.3333333333333,4,2,22,50,0,0
117603,-71.4285714285714,4,2,22,60,0,1
118853,-71.4285714285714,4,2,22,5,0,1
118936,-71.4285714285714,4,2,22,60,0,1
119853,-71.4285714285714,4,2,22,5,0,1
119936,-71.4285714285714,4,2,22,60,0,1
123853,-71.4285714285714,4,2,22,5,0,1
123936,-71.4285714285714,4,2,22,60,0,1
129186,-71.4285714285714,4,2,22,5,0,1
129270,-71.4285714285714,4,2,22,60,0,1
133020,-71.4285714285714,4,2,22,5,0,1
133103,-71.4285714285714,4,2,22,60,0,1
138936,-71.4285714285714,4,2,22,60,0,0
139103,-71.4285714285714,4,2,22,70,0,0
139853,-71.4285714285714,4,2,22,5,0,0
139936,-71.4285714285714,4,2,22,80,0,0
140020,-71.4285714285714,4,2,22,70,0,0
141186,-71.4285714285714,4,2,22,5,0,0
141270,-71.4285714285714,4,2,22,70,0,0
142520,-71.4285714285714,4,2,22,5,0,0
142603,-71.4285714285714,4,2,22,70,0,0
142853,-71.4285714285714,4,2,22,5,0,0
142936,-71.4285714285714,4,2,22,70,0,0
145186,-71.4285714285714,4,2,22,5,0,0
145270,-71.4285714285714,4,2,22,80,0,0
145353,-71.4285714285714,4,2,22,70,0,0
146520,-71.4285714285714,4,2,22,5,0,0
146603,-71.4285714285714,4,2,22,70,0,0
147853,-71.4285714285714,4,2,22,5,0,0
147936,-71.4285714285714,4,2,22,70,0,0
149603,-250.000000000001,4,2,22,50,0,0

[Colours]
Combo1 : 178,178,178
Combo2 : 0,255,168
Combo3 : 255,85,255
Combo4 : 0,191,255

[HitObjects]
39,350,270,6,0,P|115:293|209:320,1,192,2|2,0:0|0:0,0:0:0:0:
263,362,2270,1,2,0:0:0:0:
338,118,2936,6,0,L|320:310,1,192,2|2,0:0|0:0,0:0:0:0:
382,355,4936,1,2,0:0:0:0:
407,194,5603,6,0,B|299:181|336:257|226:246,1,192,2|2,0:0|0:0,0:0:0:0:
185,183,7603,1,2,0:0:0:0:
429,293,8270,6,0,P|437:179|447:99,1,192,2|2,0:0|0:0,0:0:0:0:
407,35,10270,1,2,0:0:0:0:
215,184,10936,5,0,0:0:0:0:
215,184,11103,1,2,0:0:0:0:
215,184,11270,2,0,L|275:175,1,48,0|0,0:0|0:0,0:0:0:0:
326,138,11603,2,0,B|362:226|362:226|325:316,1,192,2|0,0:0|0:0,0:0:0:0:
193,356,12436,5,0,0:0:0:0:
193,356,12603,2,0,L|255:368,1,48,2|2,0:0|0:0,0:0:0:0:
117,333,12936,2,0,L|16:349,1,96,0|0,0:0|0:0,0:0:0:0:
170,278,13436,6,0,P|184:240|173:184,1,96,2|0,0:0|0:0,0:0:0:0:
122,135,13936,1,2,0:0:0:0:
122,135,14270,1,2,0:0:0:0:
122,135,14603,1,0,0:0:0:0:
315,286,14936,6,0,L|363:296,1,48,2|2,0:0|0:0,0:0:0:0:
426,253,15270,1,0,0:0:0:0:
315,286,15436,2,0,L|212:307,1,96,2|0,0:0|0:0,0:0:0:0:
176,361,15936,1,2,0:0:0:0:
309,130,16436,5,2,0:0:0:0:
309,130,16603,2,0,P|312:153|308:180,1,48,0|0,0:0|0:0,0:0:0:0:
391,228,16936,2,0,P|385:176|395:81,1,144,2|0,0:0|0:0,0:0:0:0:
394,85,17603,2,0,L|392:26,1,48,2|0,0:0|0:0,0:0:0:0:
454,0,17936,1,0,0:0:0:0:
312,102,18103,6,0,B|272:80|272:80|223:90,1,96,2|0,0:0|0:0,0:0:0:0:
144,176,18603,2,0,B|166:163|166:163|194:165,1,48,0|0,0:0|0:0,0:0:0:0:
336,193,18936,5,2,0:0:0:0:
313,261,19103,1,0,0:0:0:0:
244,239,19270,1,0,0:0:0:0:
267,171,19437,1,0,0:0:0:0:
388,282,19603,6,0,L|393:337,1,48,0|0,0:0|0:0,0:0:0:0:
409,213,19936,2,0,L|414:268,1,48,0|0,0:0|0:0,0:0:0:0:
296,343,20270,6,0,L|301:288,1,48,2|2,0:0|0:0,0:0:0:0:
270,229,20603,1,0,0:0:0:0:
90,265,20770,2,0,B|182:250|155:298|234:291,1,144,2|0,0:0|0:0,0:0:0:0:
27,344,21603,5,4,0:0:0:0:
90,265,21770,1,2,0:0:0:0:
6,208,21936,2,0,L|13:274,1,60,2|8,0:0|0:0,0:0:0:0:
84,163,22270,1,0,0:0:0:0:
84,163,22436,1,2,0:0:0:0:
5,66,22603,2,0,L|12:132,1,60,8|0,0:0|0:0,0:0:0:0:
208,99,22936,6,0,P|155:106|98:66,2,120,2|2|2,0:0|0:0|0:0,0:0:0:0:
370,20,23936,2,0,P|340:24|313:40,1,60,8|8,0:0|0:0,0:0:0:0:
292,188,24270,5,2,0:0:0:0:
356,144,24436,1,0,0:0:0:0:
286,110,24603,1,0,0:0:0:0:
362,221,24770,6,0,B|439:213|411:250|488:245,1,120,8|0,0:0|0:0,0:0:0:0:
274,346,25270,2,0,P|243:348|211:355,1,60,8|0,0:0|0:0,0:0:0:0:
307,276,25603,5,2,0:0:0:0:
359,333,25770,1,0,0:0:0:0:
436,325,25936,1,0,0:0:0:0:
254,209,26103,6,0,P|209:237|137:225,1,120,10|0,0:0|0:0,0:0:0:0:
42,289,26603,2,0,P|72:293|104:309,1,60,8|8,0:0|0:0,0:0:0:0:
149,364,26936,1,0,0:0:0:0:
66,208,27103,5,2,0:0:0:0:
66,208,27270,2,0,P|61:175|58:141,1,60,0|8,0:0|0:0,0:0:0:0:
217,38,27603,2,0,P|228:115|228:278,1,240,2|2,0:0|0:0,0:0:0:0:
228,276,28436,1,0,0:0:0:0:
304,380,28603,6,0,P|300:350|299:318,1,60,0|8,0:0|0:0,0:0:0:0:
133,384,28936,2,0,P|136:354|137:324,1,60,2|0,0:0|0:0,0:0:0:0:
224,372,29270,1,8,0:0:0:0:
224,372,29436,1,8,0:0:0:0:
326,241,29603,6,0,P|322:270|321:303,1,60,2|2,0:0|0:0,0:0:0:0:
376,354,29936,1,0,0:0:0:0:
430,201,30103,2,0,B|366:201|390:163|318:165,1,120,10|2,0:0|0:0,0:0:0:0:
253,207,30603,1,8,0:0:0:0:
253,207,30770,1,2,0:0:0:0:
108,41,32270,6,0,P|113:75|116:115,1,71.9999978027344,4|0,1:0|0:0,0:0:0:0:
70,171,32603,1,0,0:0:0:0:
281,225,32770,2,0,B|205:227|222:184|147:185,1,143.999995605469,0|0,1:0|0:0,0:0:0:0:
92,316,33270,2,0,P|94:280|99:244,1,71.9999978027344,8|0,0:0|0:0,0:0:0:0:
362,107,33603,6,0,P|359:142|354:178,1,71.9999978027344,2|2,1:2|0:0,0:0:0:0:
402,237,33936,1,2,0:0:0:0:
402,237,34103,1,0,1:0:0:0:
277,329,34270,2,0,P|312:323|348:321,1,71.9999978027344,2|0,0:0|0:0,0:0:0:0:
211,128,34603,2,0,P|246:133|282:135,1,71.9999978027344,10|8,0:0|0:0,0:0:0:0:
444,86,34936,5,2,1:2:0:0:
367,140,35103,1,0,0:0:0:0:
453,180,35270,1,0,0:0:0:0:
241,269,35436,6,0,B|327:276|299:230|379:242,1,143.999995605469,0|0,1:0|0:0,0:0:0:0:
446,306,35936,1,8,0:0:0:0:
117,183,36270,5,0,1:0:0:0:
241,269,36436,1,0,0:0:0:0:
71,342,36603,2,0,P|36:348|0:360,1,71.9999978027344,2|0,0:0|1:0,0:0:0:0:
212,193,36936,2,0,P|246:181|281:175,1,71.9999978027344,2|0,0:2|0:0,0:0:0:0:
186,354,37270,1,10,0:0:0:0:
44,251,37436,1,10,0:0:0:0:
99,198,37603,6,0,B|112:112|62:141|83:41,1,143.999995605469,2|2,1:2|0:0,0:0:0:0:
241,269,38103,2,0,P|203:273|166:284,1,71.9999978027344,0|2,1:0|0:0,0:0:0:0:
114,331,38436,1,2,0:0:0:0:
324,383,38603,6,0,P|315:348|312:305,1,71.9999978027344,8|0,0:0|0:0,0:0:0:0:
209,123,38936,2,0,P|217:158|221:201,1,71.9999978027344,2|0,1:2|0:0,0:0:0:0:
241,269,39270,1,0,0:0:0:0:
339,119,39436,1,0,1:0:0:0:
156,37,39603,2,0,P|192:34|228:23,1,71.9999978027344,2|0,0:0|0:0,0:0:0:0:
468,191,39936,2,0,P|433:201|397:204,1,71.9999978027344,10|8,0:0|0:0,0:0:0:0:
173,322,40270,5,2,1:2:0:0:
241,269,40436,1,0,0:0:0:0:
253,354,40603,1,0,0:0:0:0:
123,114,40770,2,0,B|134:197|167:157|170:250,1,143.999995605469,0|0,1:0|0:0,0:0:0:0:
205,123,41270,1,10,0:0:0:0:
55,348,41603,5,2,1:2:0:0:
55,348,41770,1,0,0:0:0:0:
173,322,41936,2,0,P|209:328|252:340,1,71.9999978027344,0|0,0:0|1:0,0:0:0:0:
99,262,42270,2,0,P|133:253|169:246,1,71.9999978027344,2|0,0:0|0:0,0:0:0:0:
70,130,42603,1,10,0:0:0:0:
4,276,42770,1,10,0:0:0:0:
181,137,42936,6,0,P|240:155|266:233,1,143.999995605469,2|0,1:3|0:0,0:0:0:0:
127,80,43436,2,0,P|124:47|124:4,1,71.9999978027344,2|0,1:3|0:0,0:0:0:0:
99,262,43770,1,2,0:0:0:0:
99,262,43853,1,2,0:0:0:0:
99,262,43936,2,0,P|101:297|102:333,1,71.9999978027344,10|2,0:0|0:0,0:0:0:0:
87,173,44270,5,2,1:3:0:0:
87,173,44436,1,0,0:0:0:0:
190,273,44603,1,0,0:0:0:0:
26,364,44770,2,0,B|115:339|93:389|168:371,1,143.999995605469,2|2,1:3|0:0,0:0:0:0:
423,366,45270,2,0,P|387:368|350:377,1,71.9999978027344,8|8,0:0|0:0,0:0:0:0:
287,337,45603,5,2,1:2:0:0:
415,144,45770,2,0,P|411:181|411:224,1,71.9999978027344,2|0,0:0|0:0,0:0:0:0:
165,371,46103,2,0,P|176:306|177:227,1,143.999995605469,2|2,1:2|0:0,0:0:0:0:
136,169,46603,1,8,0:0:0:0:
269,256,46770,1,2,0:0:0:0:
91,315,46936,6,0,P|55:322|20:334,1,71.9999978027344,0|2,1:0|0:0,0:0:0:0:
0,265,47270,1,0,0:0:0:0:
163,348,47436,2,0,P|240:358|318:371,1,143.999995605469,2|2,1:2|0:0,0:0:0:0:
439,288,47936,1,8,0:0:0:0:
322,152,48103,1,10,0:0:0:0:
375,100,48270,6,0,B|465:91|435:135|516:135,1,143.999995605469,0|0,1:0|0:0,0:0:0:0:
301,78,48770,2,0,L|303:7,1,71.9999978027344,2|0,1:2|0:0,0:0:0:0:
333,234,49103,1,2,0:0:0:0:
303,297,49270,2,0,L|305:368,1,71.9999978027344,8|2,0:0|0:0,0:0:0:0:
97,259,49603,6,0,P|171:271|223:227,1,143.999995605469,2|0,1:2|0:0,0:0:0:0:
181,172,50103,2,0,L|176:99,1,71.9999978027344,2|0,1:2|0:0,0:0:0:0:
171,28,50436,2,0,L|175:99,1,71.9999978027344,2|8,0:0|0:0,0:0:0:0:
171,28,50770,1,10,0:0:0:0:
390,101,50936,6,0,B|313:86|332:135|250:125,1,143.999995605469,0|0,1:0|0:0,0:0:0:0:
68,229,51436,2,0,P|105:233|147:244,1,71.9999978027344,2|0,1:2|0:0,0:0:0:0:
327,365,51770,2,0,P|289:360|248:350,1,71.9999978027344,2|8,0:0|0:0,0:0:0:0:
198,300,52103,1,10,0:0:0:0:
19,373,52270,6,0,L|148:357,2,125.999996154785,0|0|8,0:0|0:0|0:0,0:0:0:0:
19,373,53436,1,8,0:0:0:0:
309,146,53603,6,0,P|304:185|300:234,1,83.9999974365235,4|2,1:0|0:0,0:0:0:0:
250,287,53936,1,2,0:0:0:0:
472,367,54103,2,0,B|383:376|411:309|298:329,1,167.999994873047,0|0,1:2|0:0,0:0:0:0:
453,289,54603,2,0,P|455:244|461:197,1,83.9999974365235,10|0,0:0|0:0,0:0:0:0:
414,152,54936,5,0,1:0:0:0:
414,152,55103,1,0,0:0:0:0:
217,215,55270,2,0,P|256:218|306:232,1,83.9999974365235,2|0,0:0|1:2,0:0:0:0:
373,29,55603,2,0,P|294:29|206:7,1,167.999994873047,2|10,0:0|0:0,0:0:0:0:
373,29,56103,1,10,0:0:0:0:
171,185,56270,5,0,1:0:0:0:
336,163,56436,2,0,P|257:163|169:185,1,167.999994873047,2|0,0:0|1:0,0:0:0:0:
40,356,56936,2,0,P|49:317|53:271,1,83.9999974365235,2|0,0:0|0:0,0:0:0:0:
39,55,57270,2,0,P|30:94|26:140,1,83.9999974365235,10|0,0:0|0:0,0:0:0:0:
79,201,57603,5,2,1:2:0:0:
242,88,57770,1,0,0:0:0:0:
130,20,57936,1,0,0:0:0:0:
174,265,58103,1,0,1:0:0:0:
240,229,58270,2,0,L|416:262,1,167.999994873047,2|10,0:0|0:0,0:0:0:0:
174,265,58770,1,8,0:0:0:0:
260,63,58936,6,0,P|251:105|249:150,1,83.9999974365235,0|0,1:0|0:0,0:0:0:0:
305,194,59270,1,2,0:0:0:0:
79,198,59436,2,0,B|182:179|155:236|240:228,1,167.999994873047,2|0,1:2|0:0,0:0:0:0:
366,325,59936,1,8,0:0:0:0:
366,325,60103,1,0,0:0:0:0:
470,161,60270,6,0,P|474:202|476:244,1,83.9999974365235,2|0,1:2|0:0,0:0:0:0:
451,313,60603,1,0,0:0:0:0:
212,339,60770,2,0,P|283:303|369:327,1,167.999994873047,2|2,1:2|0:0,0:0:0:0:
136,379,61270,2,0,P|135:334|131:289,1,83.9999974365235,8|8,0:0|0:0,0:0:0:0:
343,64,61603,6,0,P|344:109|348:154,1,83.9999974365235,0|2,1:0|0:0,0:0:0:0:
285,189,61936,1,2,0:0:0:0:
512,186,62103,2,0,B|424:168|441:236|349:225,1,167.999994873047,0|0,1:0|0:0,0:0:0:0:
432,110,62603,1,10,0:0:0:0:
432,110,62770,1,0,0:0:0:0:
288,271,62936,6,0,P|293:314|296:360,1,83.9999974365235,2|0,1:2|0:0,0:0:0:0:
288,271,63270,1,2,0:0:0:0:
51,304,63436,2,0,P|128:313|223:332,1,167.999994873047,2|2,1:2|0:0,0:0:0:0:
397,269,63936,1,8,0:0:0:0:
249,157,64103,1,8,0:0:0:0:
300,107,64270,6,0,P|294:64|292:20,1,83.9999974365235,0|0,1:0|0:0,0:0:0:0:
361,5,64603,1,2,0:0:0:0:
90,190,64770,2,0,B|175:200|160:136|249:156,1,167.999994873047,2|0,1:2|0:0,0:0:0:0:
314,232,65270,1,12,0:0:0:0:
34,50,65603,6,0,P|39:91|43:145,1,83.9999974365235,2|0,1:2|0:0,0:0:0:0:
90,190,65936,1,0,0:0:0:0:
1,371,66103,2,0,B|-19:268|38:305|15:201,1,167.999994873047,2|0,1:2|0:0,0:0:0:0:
225,342,66603,2,0,P|182:345|130:355,1,83.9999974365235,10|0,0:0|0:0,0:0:0:0:
363,257,66936,6,0,P|404:249|446:246,1,83.9999974365235,2|2,1:2|0:0,0:0:0:0:
498,300,67270,1,0,0:0:0:0:
256,172,67436,2,0,P|194:185|85:189,1,167.999994873047,0|0,1:0|0:0,0:0:0:0:
27,109,67936,1,10,0:0:0:0:
27,109,68103,1,0,0:0:0:0:
81,272,68270,6,0,P|87:237|89:186,1,83.9999974365235,2|2,1:2|0:0,0:0:0:0:
121,122,68603,1,2,0:0:0:0:
338,47,68770,2,0,B|248:24|262:86|172:71,1,167.999994873047,2|2,1:2|0:0,0:0:0:0:
431,180,69270,2,0,P|425:135|423:90,1,83.9999974365235,8|8,0:0|0:0,0:0:0:0:
279,210,69603,5,0,1:0:0:0:
279,210,69770,1,2,0:0:0:0:
399,360,69936,2,0,P|354:354|309:352,1,83.9999974365235,2|0,0:0|1:0,0:0:0:0:
105,251,70270,2,0,P|149:256|195:259,1,83.9999974365235,2|0,0:0|0:0,0:0:0:0:
247,312,70603,1,8,0:0:0:0:
17,143,70936,6,0,P|22:187|25:233,1,83.9999974365235,2|0,1:2|0:0,0:0:0:0:
0,296,71270,1,0,0:0:0:0:
221,384,71436,2,0,B|125:380|170:325|66:330,1,167.999994873047,2|0,1:2|0:0,0:0:0:0:
284,126,71936,2,0,P|279:167|279:218,1,83.9999974365235,10|8,0:0|0:0,0:0:0:0:
465,371,72270,5,2,1:2:0:0:
465,371,72436,2,0,P|470:330|470:279,1,83.9999974365235,2|0,0:0|0:0,0:0:0:0:
212,316,72770,2,0,P|295:318|379:329,1,167.999994873047,0|0,1:0|0:0,0:0:0:0:
470,287,73270,1,8,0:0:0:0:
128,318,73603,6,0,P|121:277|119:228,1,83.9999974365235,2|0,1:2|0:0,0:0:0:0:
167,181,73936,1,0,0:0:0:0:
80,2,74103,2,0,B|60:105|117:68|94:172,1,167.999994873047,2|0,1:2|0:0,0:0:0:0:
36,210,74603,1,8,0:0:0:0:
36,210,74770,1,8,0:0:0:0:
383,347,75270,6,0,L|325:356,1,48,0|8,0:0|0:0,0:0:0:0:
430,293,75603,2,0,P|443:254|430:194,1,96,2|8,0:0|0:0,0:0:0:0:
380,155,76103,1,0,0:0:0:0:
218,230,76270,2,0,P|246:232|279:239,1,48,2|0,0:0|0:0,0:0:0:0:
328,276,76603,1,0,0:0:0:0:
166,167,76770,2,0,P|120:165|65:152,1,96,10|0,0:0|0:0,0:0:0:0:
33,98,77270,1,8,0:0:0:0:
33,98,77436,1,8,0:0:0:0:
9,250,77603,6,0,P|8:222|5:191,1,48,2|0,0:0|0:0,0:0:0:0:
110,28,77936,2,0,P|110:55|114:87,1,48,0|8,0:0|0:0,0:0:0:0:
33,98,78270,2,0,P|32:70|29:39,1,48,0|0,0:0|0:0,0:0:0:0:
126,248,78603,2,0,P|126:275|130:307,1,48,8|0,0:0|0:0,0:0:0:0:
204,130,78936,5,2,0:0:0:0:
200,200,79103,1,0,0:0:0:0:
141,161,79270,1,0,0:0:0:0:
271,171,79436,2,0,B|331:166|310:192|367:192,1,96,10|0,0:0|0:0,0:0:0:0:
425,155,79936,1,10,0:0:0:0:
425,155,80103,1,10,0:0:0:0:
481,340,80603,6,0,P|482:313|488:282,1,48,0|8,0:0|0:0,0:0:0:0:
503,120,80936,2,0,P|502:170|494:215,1,96,2|8,0:0|0:0,0:0:0:0:
428,248,81436,1,0,0:0:0:0:
289,350,81603,6,0,P|315:352|345:360,1,48,2|0,0:0|0:0,0:0:0:0:
394,315,81936,1,0,0:0:0:0:
217,361,82103,2,0,P|168:369|115:374,1,96,10|0,0:0|0:0,0:0:0:0:
83,312,82603,1,8,0:0:0:0:
83,312,82770,1,8,0:0:0:0:
174,219,82936,6,0,P|169:246|167:274,1,48,2|0,0:0|0:0,0:0:0:0:
0,384,83270,2,0,P|4:356|7:329,1,48,0|8,0:0|0:0,0:0:0:0:
57,232,83603,2,0,P|54:255|50:279,1,48,0|0,0:0|0:0,0:0:0:0:
206,384,83936,2,0,P|208:360|212:336,1,48,8|0,0:0|0:0,0:0:0:0:
328,241,84270,1,2,0:0:0:0:
328,241,84436,2,0,P|325:264|321:288,1,48,0|0,0:0|0:0,0:0:0:0:
332,160,84770,2,0,P|335:113|344:59,1,96,10|0,0:0|0:0,0:0:0:0:
399,20,85270,1,8,0:0:0:0:
399,20,85436,1,8,0:0:0:0:
251,106,85603,5,6,0:0:0:0:
251,106,85770,2,0,P|221:109|191:117,1,48,2|0,0:0|0:0,0:0:0:0:
48,83,86103,2,0,P|92:81|146:67,1,96,10|2,0:0|0:0,0:0:0:0:
186,11,86603,1,8,0:0:0:0:
121,204,86770,6,0,P|118:176|113:148,1,48,2|0,0:0|0:0,0:0:0:0:
266,15,87103,2,0,P|269:43|274:71,1,48,2|8,0:0|0:0,0:0:0:0:
203,113,87436,1,8,0:0:0:0:
351,206,87603,2,0,B|301:204|316:178|258:180,1,96,2|8,0:0|0:0,0:0:0:0:
260,180,88103,1,8,0:0:0:0:
408,142,88270,5,2,0:0:0:0:
455,276,88436,2,0,P|457:253|464:223,1,48,2|0,0:0|0:0,0:0:0:0:
341,378,88770,2,0,P|355:333|360:283,1,96,10|0,0:0|0:0,0:0:0:0:
512,384,89270,2,0,P|506:360|504:336,1,48,10|0,0:0|0:0,0:0:0:0:
430,363,89603,5,2,0:0:0:0:
430,363,89770,1,2,0:0:0:0:
264,290,89936,2,0,P|310:290|372:281,1,96,2|0,0:0|0:0,0:0:0:0:
204,331,90436,1,0,0:0:0:0:
157,265,90603,1,10,0:0:0:0:
156,265,90770,2,0,P|159:241|161:218,1,48,8|0,0:0|0:0,0:0:0:0:
63,124,91103,5,0,0:0:0:0:
166,53,91270,2,0,P|163:76|162:100,1,48,0|8,0:0|0:0,0:0:0:0:
308,182,91603,2,0,P|264:172|206:166,1,96,2|8,0:0|0:0,0:0:0:0:
161,218,92103,1,0,0:0:0:0:
385,143,92270,2,0,P|408:150|443:153,1,48,2|0,0:0|0:0,0:0:0:0:
487,104,92603,1,0,0:0:0:0:
314,277,92770,2,0,P|312:225|307:176,1,96,10|0,0:0|0:0,0:0:0:0:
274,117,93270,1,8,0:0:0:0:
274,117,93436,1,8,0:0:0:0:
439,297,93603,6,0,P|414:298|386:304,1,48,2|0,0:0|0:0,0:0:0:0:
183,367,93936,2,0,P|208:366|236:360,1,48,0|8,0:0|0:0,0:0:0:0:
309,326,94270,1,2,0:0:0:0:
309,326,94436,1,0,0:0:0:0:
145,278,94603,1,10,0:0:0:0:
11,382,94770,1,2,0:0:0:0:
175,40,96270,6,0,P|171:76|169:120,1,71.9999978027344,4|0,1:0|0:0,0:0:0:0:
210,174,96603,1,2,0:0:0:0:
14,212,96770,2,0,B|102:188|81:244|169:223,1,143.999995605469,0|0,1:0|0:0,0:0:0:0:
211,275,97270,2,0,P|207:312|206:347,1,71.9999978027344,10|0,0:0|0:0,0:0:0:0:
356,177,97603,6,0,P|359:139|361:105,1,71.9999978027344,2|0,1:2|0:0,0:0:0:0:
310,53,97936,1,0,0:0:0:0:
503,35,98103,2,0,P|442:46|367:2,1,143.999995605469,0|0,1:0|0:0,0:0:0:0:
435,174,98603,1,10,0:0:0:0:
435,174,98770,1,8,0:0:0:0:
356,177,98936,6,0,P|350:213|347:250,1,71.9999978027344,0|0,1:0|0:0,0:0:0:0:
395,306,99270,1,0,0:0:0:0:
188,340,99436,2,0,P|259:347|330:359,1,143.999995605469,0|0,1:0|0:0,0:0:0:0:
188,340,99936,1,8,0:0:0:0:
34,370,100270,6,0,P|28:337|27:297,1,71.9999978027344,0|0,1:0|0:0,0:0:0:0:
121,81,100603,2,0,P|126:113|128:154,1,71.9999978027344,2|0,0:0|1:0,0:0:0:0:
81,225,100936,1,2,0:0:0:0:
81,225,101103,1,0,0:0:0:0:
283,103,101270,2,0,P|247:101|211:95,1,71.9999978027344,10|10,0:0|0:0,0:0:0:0:
395,306,101603,6,0,P|430:307|466:313,1,71.9999978027344,2|0,1:2|0:0,0:0:0:0:
511,257,101936,1,2,0:0:0:0:
307,369,102103,2,0,B|290:274|344:309|325:217,1,143.999995605469,0|2,1:0|0:0,0:0:0:0:
411,155,102603,2,0,P|406:190|404:231,1,71.9999978027344,8|0,0:0|0:0,0:0:0:0:
195,99,102936,6,0,P|199:63|202:23,1,71.9999978027344,2|0,1:2|0:0,0:0:0:0:
260,153,103270,1,0,0:0:0:0:
53,199,103436,2,0,B|136:175|124:224|199:197,1,143.999995605469,0|0,1:0|0:0,0:0:0:0:
97,94,103936,1,10,0:0:0:0:
97,94,104103,1,8,0:0:0:0:
24,336,104270,6,0,P|22:300|16:264,1,71.9999978027344,2|0,1:2|0:0,0:0:0:0:
53,199,104603,1,0,0:0:0:0:
237,327,104770,2,0,P|192:292|109:300,1,143.999995605469,0|0,1:0|0:0,0:0:0:0:
237,327,105270,1,8,0:0:0:0:
336,261,105436,1,0,0:0:0:0:
450,379,105603,6,0,P|451:345|458:307,1,71.9999978027344,2|0,1:2|0:0,0:0:0:0:
355,62,105936,2,0,P|353:95|347:134,1,71.9999978027344,2|0,0:0|1:0,0:0:0:0:
408,216,106270,1,2,0:0:0:0:
268,64,106436,1,0,0:0:0:0:
155,233,106603,1,10,0:0:0:0:
289,190,106770,1,10,0:0:0:0:
99,100,106936,6,0,P|103:135|104:171,1,71.9999978027344,2|0,1:3|0:0,0:0:0:0:
59,230,107270,1,0,0:0:0:0:
237,347,107436,2,0,B|154:359|182:308|90:324,1,143.999995605469,2|0,1:3|0:0,0:0:0:0:
24,384,107936,2,0,P|24:348|14:313,1,71.9999978027344,10|2,0:0|0:0,0:0:0:0:
208,114,108270,6,0,P|207:149|217:184,1,71.9999978027344,2|0,1:3|0:0,0:0:0:0:
279,224,108603,1,0,0:0:0:0:
486,217,108770,2,0,P|419:220|340:185,1,143.999995605469,2|2,1:3|0:0,0:0:0:0:
220,299,109270,1,8,0:0:0:0:
220,299,109436,1,8,0:0:0:0:
350,384,109603,6,0,P|344:352|340:307,1,71.9999978027344,2|2,1:2|0:0,0:0:0:0:
392,262,109936,1,0,0:0:0:0:
210,173,110103,2,0,B|293:153|275:210|360:189,1,143.999995605469,2|2,1:2|0:0,0:0:0:0:
400,139,110603,2,0,P|402:103|406:68,1,71.9999978027344,8|2,0:0|0:0,0:0:0:0:
137,204,110936,6,0,P|134:240|131:275,1,71.9999978027344,0|2,1:0|0:0,0:0:0:0:
76,327,111270,1,0,0:0:0:0:
289,356,111436,2,0,P|221:363|139:377,1,143.999995605469,2|2,1:2|0:0,0:0:0:0:
249,251,111936,1,8,0:0:0:0:
249,251,112103,1,10,0:0:0:0:
132,132,112270,6,0,P|135:167|136:203,1,71.9999978027344,0|0,1:0|0:0,0:0:0:0:
97,263,112603,1,0,0:0:0:0:
236,103,112770,2,0,B|323:100|293:143|370:147,1,143.999995605469,2|2,1:2|0:0,0:0:0:0:
429,109,113270,1,8,0:0:0:0:
429,109,113603,6,0,P|429:73|434:36,1,71.9999978027344,0|0,1:0|0:0,0:0:0:0:
371,0,113936,1,0,0:0:0:0:
508,198,114103,2,0,P|464:191|389:259,1,143.999995605469,2|2,1:2|0:0,0:0:0:0:
438,347,114603,1,8,0:0:0:0:
438,347,114770,1,8,0:0:0:0:
258,285,114936,6,0,P|295:287|339:298,1,71.9999978027344,0|0,1:0|0:0,0:0:0:0:
391,250,115270,1,0,0:0:0:0:
190,332,115436,2,0,P|119:327|38:306,1,143.999995605469,2|2,1:2|0:0,0:0:0:0:
11,248,115936,1,8,0:0:0:0:
11,248,116270,1,2,0:0:0:0:
479,133,117270,5,8,0:0:0:0:
479,133,117436,1,10,0:0:0:0:
324,234,117603,6,0,P|323:186|318:143,1,83.9999974365235,4|2,1:0|0:0,0:0:0:0:
368,94,117936,1,2,0:0:0:0:
152,79,118103,2,0,B|249:90|219:25|324:45,1,167.999994873047,0|0,1:0|0:0,0:0:0:0:
109,205,118603,2,0,P|67:208|26:218,1,83.9999974365235,10|0,0:0|0:0,0:0:0:0:
187,162,118936,5,0,1:0:0:0:
187,162,119103,1,2,0:0:0:0:
273,292,119270,1,2,0:0:0:0:
113,363,119436,1,0,1:0:0:0:
102,287,119603,6,0,P|141:296|192:306,1,83.9999974365235,2|0,0:0|0:0,0:0:0:0:
427,367,119936,1,8,0:0:0:0:
427,367,120103,2,0,P|388:358|337:348,1,83.9999974365235,8|0,0:0|1:0,0:0:0:0:
267,374,120436,6,0,B|247:272|306:303|278:205,1,167.999994873047,2|0,0:0|1:0,0:0:0:0:
382,113,120936,2,0,P|376:156|374:202,1,83.9999974365235,2|0,0:0|0:0,0:0:0:0:
169,71,121270,2,0,P|174:114|177:160,1,83.9999974365235,8|0,0:0|0:0,0:0:0:0:
247,366,121603,6,0,L|254:278,1,83.9999974365235,2|0,1:2|0:0,0:0:0:0:
279,210,121936,1,0,0:0:0:0:
6,295,122103,2,0,B|107:265|79:332|170:307,1,167.999994873047,0|0,1:0|0:0,0:0:0:0:
368,365,122603,1,8,0:0:0:0:
368,365,122770,1,8,0:0:0:0:
479,197,122936,6,0,P|473:239|471:286,1,83.9999974365235,0|2,1:0|0:0,0:0:0:0:
500,348,123270,1,2,0:0:0:0:
290,164,123436,2,0,B|388:171|351:109|461:125,1,167.999994873047,0|0,1:0|0:0,0:0:0:0:
217,246,123936,2,0,P|175:249|133:255,1,83.9999974365235,8|0,0:0|0:0,0:0:0:0:
339,44,124270,6,0,P|380:37|422:34,1,83.9999974365235,2|0,1:2|0:0,0:0:0:0:
491,63,124603,1,0,0:0:0:0:
467,289,124770,2,0,P|461:205|446:122,1,167.999994873047,2|2,1:2|0:0,0:0:0:0:
296,319,125270,2,0,P|340:325|387:338,1,83.9999974365235,8|8,0:0|0:0,0:0:0:0:
222,117,125603,6,0,P|178:111|131:98,1,83.9999974365235,0|2,1:0|0:0,0:0:0:0:
75,138,125936,1,2,0:0:0:0:
297,4,126103,2,0,B|278:103|339:76|316:171,1,167.999994873047,0|0,1:0|0:0,0:0:0:0:
147,323,126603,2,0,P|105:331|63:345,1,83.9999974365235,8|0,0:0|0:0,0:0:0:0:
338,255,126936,6,0,P|380:247|422:233,1,83.9999974365235,0|2,1:0|0:0,0:0:0:0:
481,272,127270,1,2,0:0:0:0:
219,215,127436,2,0,P|264:278|243:378,1,167.999994873047,2|2,1:2|0:0,0:0:0:0:
322,170,127936,1,8,0:0:0:0:
322,170,128103,1,8,0:0:0:0:
116,240,128270,6,0,P|74:231|27:225,1,83.9999974365235,0|0,1:0|0:0,0:0:0:0:
14,155,128603,1,2,0:0:0:0:
233,382,128770,2,0,P|222:301|219:211,1,167.999994873047,2|0,1:2|0:0,0:0:0:0:
146,22,129270,2,0,P|151:61|154:117,1,83.9999974365235,12|0,0:2|0:0,0:0:0:0:
300,243,129603,5,2,1:2:0:0:
398,93,129770,1,0,0:0:0:0:
250,121,129936,1,2,0:0:0:0:
310,165,130103,2,0,B|418:159|375:227|483:223,1,167.999994873047,2|0,1:2|0:0,0:0:0:0:
246,384,130603,2,0,P|246:343|241:291,1,83.9999974365235,10|0,0:0|0:0,0:0:0:0:
150,21,130936,5,2,1:2:0:0:
150,21,131103,2,0,P|150:62|155:114,1,83.9999974365235,2|0,0:0|0:0,0:0:0:0:
0,270,131436,2,0,B|96:282|63:219|166:237,1,167.999994873047,0|0,1:0|0:0,0:0:0:0:
408,324,131936,2,0,P|366:329|325:343,1,83.9999974365235,8|0,0:0|0:0,0:0:0:0:
72,123,132270,6,0,P|113:117|155:104,1,83.9999974365235,2|0,1:2|0:0,0:0:0:0:
203,53,132603,1,0,0:0:0:0:
418,141,132770,2,0,P|339:115|249:108,1,167.999994873047,2|0,1:2|0:0,0:0:0:0:
464,44,133270,1,8,0:0:0:0:
464,44,133436,1,8,0:0:0:0:
490,271,133603,6,0,P|493:228|503:183,1,83.9999974365235,0|2,1:0|0:0,0:0:0:0:
266,24,133936,2,0,P|262:66|253:112,1,83.9999974365235,2|0,0:0|1:0,0:0:0:0:
361,190,134270,1,2,0:0:0:0:
361,190,134436,1,0,0:0:0:0:
197,333,134603,2,0,P|238:324|280:321,1,83.9999974365235,8|0,0:0|0:0,0:0:0:0:
512,357,134936,6,0,P|470:365|428:368,1,83.9999974365235,2|0,1:2|0:0,0:0:0:0:
370,326,135270,1,0,0:0:0:0:
473,107,135436,2,0,B|495:196|432:168|455:269,1,167.999994873047,2|0,1:2|0:0,0:0:0:0:
300,80,135936,2,0,P|341:77|386:67,1,83.9999974365235,8|8,0:0|0:0,0:0:0:0:
194,285,136270,6,0,P|153:288|108:298,1,83.9999974365235,2|2,1:2|0:0,0:0:0:0:
51,256,136603,1,0,0:0:0:0:
287,384,136770,2,0,P|320:325|295:228,1,167.999994873047,0|0,1:0|0:0,0:0:0:0:
234,173,137270,1,8,0:0:0:0:
412,5,137603,6,0,P|405:46|402:93,1,83.9999974365235,2|0,1:2|0:0,0:0:0:0:
442,152,137936,1,0,0:0:0:0:
230,250,138103,2,0,P|315:239|415:230,1,167.999994873047,2|0,1:2|0:0,0:0:0:0:
464,281,138603,1,8,0:0:0:0:
464,281,138770,1,8,0:0:0:0:
261,72,138936,6,0,P|268:116|269:160,1,83.9999974365235,0|2,1:0|0:0,0:0:0:0:
313,15,139270,1,0,0:0:0:0:
125,223,139436,2,0,B|230:201|200:261|295:242,1,167.999994873047,0|0,1:0|0:0,0:0:0:0:
512,164,139936,2,0,B|407:142|437:202|342:183,1,167.999994873047,12|0,0:0|1:0,0:0:0:0:
291,134,140436,6,0,P|291:93|285:45,1,83.9999974365235,2|0,0:0|0:0,0:0:0:0:
56,177,140770,2,0,P|55:266|68:353,1,167.999994873047,0|0,1:0|0:0,0:0:0:0:
27,110,141270,2,0,P|27:65|22:24,1,83.9999974365235,10|0,0:0|0:0,0:0:0:0:
230,250,141603,6,0,P|229:291|234:333,1,83.9999974365235,0|2,1:0|0:0,0:0:0:0:
175,192,141936,1,0,0:0:0:0:
413,155,142103,2,0,P|341:170|260:114,1,167.999994873047,0|0,1:0|0:0,0:0:0:0:
314,35,142603,1,8,0:0:0:0:
464,288,142936,6,0,P|468:247|474:204,1,83.9999974365235,0|0,1:0|0:0,0:0:0:0:
413,155,143270,1,0,0:0:0:0:
230,250,143436,2,0,B|334:222|306:287|398:264,1,167.999994873047,0|0,1:0|0:0,0:0:0:0:
191,333,143936,1,8,0:0:0:0:
191,333,144103,1,8,0:0:0:0:
100,156,144270,6,0,P|98:202|93:241,1,83.9999974365235,0|2,1:0|0:0,0:0:0:0:
47,96,144603,1,0,0:0:0:0:
268,76,144770,2,0,B|176:80|212:21|108:32,1,167.999994873047,0|0,1:0|0:0,0:0:0:0:
316,208,145270,2,0,B|408:212|372:153|476:164,1,167.999994873047,12|0,0:0|1:0,0:0:0:0:
511,227,145770,6,0,P|504:265|499:314,1,83.9999974365235,2|0,0:0|0:0,0:0:0:0:
220,384,146103,2,0,P|237:309|243:215,1,167.999994873047,0|0,1:0|0:0,0:0:0:0:
111,31,146603,2,0,P|104:69|102:114,1,83.9999974365235,10|0,0:0|0:0,0:0:0:0:
397,83,146936,6,0,P|355:81|313:74,1,83.9999974365235,0|2,1:0|0:0,0:0:0:0:
254,119,147270,1,0,0:0:0:0:
365,336,147436,2,0,P|334:270|342:164,1,167.999994873047,0|0,1:0|0:0,0:0:0:0:
397,83,147936,1,8,0:0:0:0:
120,273,148270,5,0,1:0:0:0:
273,360,148436,1,2,0:0:0:0:
273,360,148603,2,0,L|181:375,1,83.9999974365235,0|0,0:0|1:0,0:0:0:0:
33,338,148936,2,0,L|125:353,1,83.9999974365235,2|0,0:0|0:0,0:0:0:0:
278,278,149270,1,10,0:0:0:0:
278,278,149436,1,10,0:0:0:0:
403,363,149603,5,0,0:0:0:0:
