osu file format v14

[General]
AudioFilename: audio.mp3
AudioLeadIn: 0
PreviewTime: 43437
Countdown: 0
SampleSet: Normal
StackLeniency: 0.7
Mode: 1
LetterboxInBreaks: 0
WidescreenStoryboard: 1

[Editor]
Bookmarks: 12383,22761,33140,43518,59086,64275,77248
DistanceSpacing: 2
BeatDivisor: 4
GridSize: 32
TimelineZoom: 0.6999996

[Metadata]
Title:Shiokara Splash
TitleUnicode:シオカラスプラッシュ
Artist:beatMARIO
ArtistUnicode:ビートまりお
Creator:Issuko
Version:Kantan
Source:Splatoon
Tags:kamaboko117 YaniFR videogame Instrumental Splatoon Marie Callie シオカラ節 しおからぶし shiokara-bushi Squid Sisters Song シオカラーズ ホタル アオリ nintendo スプラトゥーン スプラビート! Splabeat! COOL&CREATE cccd40 white-collar
BeatmapID:3014565
BeatmapSetID:1411134

[Difficulty]
HPDrainRate:8
CircleSize:3
OverallDifficulty:3
ApproachRate:9
SliderMultiplier:1.4
SliderTickRate:1

[Events]
//Background and Video events
0,0,"872135.jpg",0,0
//Break Periods
//Storyboard Layer 0 (Background)
//Storyboard Layer 1 (Fail)
//Storyboard Layer 2 (Pass)
//Storyboard Layer 3 (Foreground)
//Storyboard Layer 4 (Overlay)
//Storyboard Sound Samples

[TimingPoints]
2005,324.324324324324,4,1,0,70,1,0
12383,-100,4,1,0,90,0,1
22761,-100,4,1,0,90,0,0
43518,-100,4,1,0,90,0,1
77248,-100,4,1,0,90,0,0

[HitObjects]
256,192,2005,5,4,0:0:0:0:
256,192,3302,1,8,0:0:0:0:
256,192,3950,1,8,0:0:0:0:
256,192,4599,1,0,0:0:0:0:
256,192,5896,1,8,0:0:0:0:
256,192,6545,1,8,0:0:0:0:
256,192,7194,1,0,0:0:0:0:
256,192,7842,1,0,0:0:0:0:
256,192,8491,1,8,0:0:0:0:
256,192,9788,1,0,0:0:0:0:
256,192,10437,1,0,0:0:0:0:
256,192,11086,1,12,0:0:0:0:
256,192,11734,1,0,0:0:0:0:
261,193,12383,1,0,0:0:0:0:
261,193,13032,1,8,0:0:0:0:
261,193,13680,1,0,0:0:0:0:
261,193,14004,1,0,0:0:0:0:
261,193,14329,1,8,0:0:0:0:
261,193,14977,1,0,0:0:0:0:
261,193,15626,1,8,0:0:0:0:
261,193,16275,1,8,0:0:0:0:
261,193,17572,1,0,0:0:0:0:
261,193,18221,1,0,0:0:0:0:
261,193,18545,1,0,0:0:0:0:
257,195,18869,1,8,0:0:0:0:
257,195,19518,1,8,0:0:0:0:
257,195,19842,1,0,0:0:0:0:
257,195,20167,1,8,0:0:0:0:
257,195,20815,1,0,0:0:0:0:
257,195,21464,1,8,0:0:0:0:
257,195,22113,1,8,0:0:0:0:
257,195,22437,1,8,0:0:0:0:
257,195,22761,1,0,0:0:0:0:
256,193,23410,1,0,0:0:0:0:
256,193,24707,1,0,0:0:0:0:
256,193,25356,1,8,0:0:0:0:
256,193,25680,1,8,0:0:0:0:
256,193,26004,1,0,0:0:0:0:
256,193,26653,1,0,0:0:0:0:
256,193,27950,1,8,0:0:0:0:
256,193,28599,1,0,0:0:0:0:
256,193,29248,1,0,0:0:0:0:
256,193,29896,1,0,0:0:0:0:
256,193,30221,1,0,0:0:0:0:
256,193,30869,1,8,0:0:0:0:
256,192,31194,1,8,0:0:0:0:
256,192,31842,1,0,0:0:0:0:
256,192,32491,1,0,0:0:0:0:
241,182,32815,1,8,0:0:0:0:
256,192,33140,1,4,0:0:0:0:
256,202,33788,1,0,0:0:0:0:
256,202,35086,1,0,0:0:0:0:
256,202,35734,1,8,0:0:0:0:
256,202,36059,1,8,0:0:0:0:
256,202,36383,1,0,0:0:0:0:
256,202,37032,1,8,0:0:0:0:
256,202,38329,1,8,0:0:0:0:
256,202,38653,1,0,0:0:0:0:
256,202,38977,1,8,0:0:0:0:
256,202,39626,1,8,0:0:0:0:
256,202,40275,1,0,0:0:0:0:
256,202,40599,1,0,0:0:0:0:
256,202,41248,1,8,0:0:0:0:
256,202,41572,1,8,0:0:0:0:
256,192,42221,1,4,0:0:0:0:
257,191,42545,1,4,0:0:0:0:
256,192,42869,1,4,0:0:0:0:
256,192,43518,1,12,0:0:0:0:
256,192,44167,1,8,0:0:0:0:
256,192,44815,1,8,0:0:0:0:
224,160,45464,1,0,0:0:0:0:
224,160,45788,1,0,0:0:0:0:
224,160,46113,1,8,0:0:0:0:
256,192,46761,1,8,0:0:0:0:
256,192,47410,1,8,0:0:0:0:
256,192,48383,1,0,0:0:0:0:
256,192,48707,1,12,0:0:0:0:
256,192,49356,1,8,0:0:0:0:
256,192,50004,1,0,0:0:0:0:
256,192,50329,1,8,0:0:0:0:
256,192,50653,1,0,0:0:0:0:
256,192,50977,1,0,0:0:0:0:
256,192,51302,1,12,0:0:0:0:
256,192,51950,1,0,0:0:0:0:
256,192,52599,1,8,0:0:0:0:
256,192,53896,1,12,0:0:0:0:
256,192,54545,1,8,0:0:0:0:
256,192,55194,1,8,0:0:0:0:
256,192,55842,1,0,0:0:0:0:
256,192,56167,1,0,0:0:0:0:
259,190,56491,1,8,0:0:0:0:
259,190,57140,1,0,0:0:0:0:
259,190,57464,1,0,0:0:0:0:
259,190,57788,1,8,0:0:0:0:
259,190,59086,1,12,0:0:0:0:
259,190,59734,1,0,0:0:0:0:
256,191,60383,1,8,0:0:0:0:
259,190,60707,1,0,0:0:0:0:
256,191,61032,1,8,0:0:0:0:
256,191,61680,1,12,0:0:0:0:
256,191,62004,1,0,0:0:0:0:
256,191,62329,1,0,0:0:0:0:
260,195,62977,1,8,0:0:0:0:
256,191,63302,1,0,0:0:0:0:
260,195,63626,1,8,0:0:0:0:
254,192,64275,1,12,0:0:0:0:
254,192,64923,1,8,0:0:0:0:
254,192,65572,1,8,0:0:0:0:
254,192,66221,1,0,0:0:0:0:
254,192,66545,1,0,0:0:0:0:
254,192,66869,1,8,0:0:0:0:
257,193,68167,1,8,0:0:0:0:
253,193,69464,1,12,0:0:0:0:
253,193,70113,1,8,0:0:0:0:
253,193,70761,1,0,0:0:0:0:
253,193,71086,1,0,0:0:0:0:
253,193,71410,1,0,0:0:0:0:
253,187,72059,1,8,0:0:0:0:
253,193,72383,1,8,0:0:0:0:
253,187,72707,1,8,0:0:0:0:
253,187,73356,1,0,0:0:0:0:
253,187,73680,1,0,0:0:0:0:
253,187,74004,1,0,0:0:0:0:
253,187,74653,1,8,0:0:0:0:
253,187,74977,1,8,0:0:0:0:
253,187,75302,1,0,0:0:0:0:
253,187,75950,1,8,0:0:0:0:
253,187,76275,1,8,0:0:0:0:
253,187,76599,1,8,0:0:0:0:
253,187,76923,1,8,0:0:0:0:
256,196,77248,1,4,0:0:0:0:
254,195,78545,1,8,0:0:0:0:
254,195,79194,1,0,0:0:0:0:
249,192,79842,1,8,0:0:0:0:
247,187,81140,1,0,0:0:0:0:
247,187,81788,1,8,0:0:0:0:
247,187,82113,1,8,0:0:0:0:
259,190,82437,1,0,0:0:0:0:
259,190,83734,1,8,0:0:0:0:
259,190,84383,1,0,0:0:0:0:
262,190,85032,1,8,0:0:0:0:
259,195,86329,1,8,0:0:0:0:
259,195,86653,1,8,0:0:0:0:
252,191,86977,1,8,0:0:0:0:
254,190,87302,1,8,0:0:0:0:
256,192,87950,12,0,89896,0:0:0:0:
