osu file format v14

[General]
AudioFilename: audio.mp3
AudioLeadIn: 0
PreviewTime: 43437
Countdown: 0
SampleSet: Normal
StackLeniency: 0.7
Mode: 1
LetterboxInBreaks: 0
WidescreenStoryboard: 1

[Editor]
Bookmarks: 12383,22761,33140,43518,59086,64275,77248
DistanceSpacing: 2
BeatDivisor: 4
GridSize: 16
TimelineZoom: 3.499998

[Metadata]
Title:Shiokara Splash
TitleUnicode:シオカラスプラッシュ
Artist:beatMARIO
ArtistUnicode:ビートまりお
Creator:Issuko
Version:Inker Oni
Source:Splatoon
Tags:kamaboko117 YaniFR videogame Instrumental Splatoon Marie Callie シオカラ節 しおからぶし shiokara-bushi Squid Sisters Song シオカラーズ ホタル アオリ nintendo スプラトゥーン スプラビート! Splabeat! COOL&CREATE cccd40 white-collar
BeatmapID:2909129
BeatmapSetID:1411134

[Difficulty]
HPDrainRate:6
CircleSize:3
OverallDifficulty:6
ApproachRate:9
SliderMultiplier:1.4
SliderTickRate:1

[Events]
//Background and Video events
0,0,"872135.jpg",0,0
//Break Periods
//Storyboard Layer 0 (Background)
//Storyboard Layer 1 (Fail)
//Storyboard Layer 2 (Pass)
//Storyboard Layer 3 (Foreground)
//Storyboard Layer 4 (Overlay)
//Storyboard Sound Samples

[TimingPoints]
2005,324.324324324324,4,1,0,70,1,0
11248,-100,4,1,0,70,0,0
11329,-99.290780141844,4,1,0,70,0,0
11410,-98.5915492957747,4,1,0,70,0,0
11491,-97.9020979020979,4,1,0,70,0,0
11572,-97.2222222222222,4,1,0,70,0,0
11653,-96.551724137931,4,1,0,70,0,0
11734,-95.8904109589041,4,1,0,70,0,0
11815,-95.2380952380952,4,1,0,70,0,0
11896,-94.5945945945946,4,1,0,70,0,0
11977,-93.9597315436242,4,1,0,70,0,0
12059,-93.3333333333333,4,1,0,70,0,0
12140,-92.7152317880795,4,1,0,70,0,0
12221,-92.1052631578947,4,1,0,70,0,0
12302,-91.5032679738562,4,1,0,70,0,0
12383,-90.9090909090909,4,1,0,90,0,1
22761,-100,4,1,0,90,0,0
43032,-98.0392156862745,4,1,0,90,0,0
43113,-96.1538461538461,4,1,0,90,0,0
43194,-94.3396226415094,4,1,0,90,0,0
43259,-92.5925925925926,4,1,0,90,0,0
43323,-90.9090909090909,4,1,0,90,0,0
43388,-89.2857142857143,4,1,0,90,0,0
43453,-87.719298245614,4,1,0,90,0,0
43518,-86.9565217391304,4,1,0,90,0,1
77248,-86.9565217391304,4,1,0,90,0,0
77491,-100,4,1,0,90,0,0
86491,-99.009900990099,4,1,0,90,0,0
86572,-98.0392156862745,4,1,0,90,0,0
86653,-97.0873786407767,4,1,0,90,0,0
86734,-96.1538461538461,4,1,0,90,0,0
86815,-95.2380952380952,4,1,0,90,0,0
86896,-94.3396226415094,4,1,0,90,0,0
86977,-93.4579439252336,4,1,0,90,0,0
87059,-92.5925925925926,4,1,0,90,0,0
87140,-91.743119266055,4,1,0,90,0,0
87221,-90.9090909090909,4,1,0,90,0,0
87302,-90.0900900900901,4,1,0,90,0,0
87383,-89.2857142857143,4,1,0,90,0,0
87464,-88.4955752212389,4,1,0,90,0,0
87545,-87.719298245614,4,1,0,90,0,0
87950,-58.8235294117647,4,1,0,90,0,0

[HitObjects]
256,192,2005,5,4,0:0:0:0:
256,192,2248,1,0,0:0:0:0:
256,192,2491,1,0,0:0:0:0:
256,192,2653,1,8,0:0:0:0:
256,192,2896,1,8,0:0:0:0:
256,192,3140,1,8,0:0:0:0:
256,192,3464,1,0,0:0:0:0:
256,192,3626,1,8,0:0:0:0:
256,192,3788,1,0,0:0:0:0:
256,192,3950,1,8,0:0:0:0:
256,192,4194,1,8,0:0:0:0:
256,192,4437,1,8,0:0:0:0:
256,192,4599,1,0,0:0:0:0:
256,192,4842,1,0,0:0:0:0:
256,192,5086,1,0,0:0:0:0:
256,192,5248,1,8,0:0:0:0:
256,192,5491,1,8,0:0:0:0:
256,192,5734,1,8,0:0:0:0:
256,192,6059,1,0,0:0:0:0:
256,192,6221,1,8,0:0:0:0:
256,192,6383,1,0,0:0:0:0:
256,192,6545,1,8,0:0:0:0:
256,192,6626,1,8,0:0:0:0:
256,192,6788,1,8,0:0:0:0:
256,192,6869,1,0,0:0:0:0:
256,192,7032,1,8,0:0:0:0:
256,192,7194,1,0,0:0:0:0:
256,192,7437,5,0,0:0:0:0:
256,192,7680,1,0,0:0:0:0:
256,192,7842,1,8,0:0:0:0:
256,192,8086,1,8,0:0:0:0:
256,192,8329,1,8,0:0:0:0:
256,192,8653,1,0,0:0:0:0:
256,192,8815,1,0,0:0:0:0:
256,192,8977,1,0,0:0:0:0:
256,192,9140,1,8,0:0:0:0:
256,192,9383,1,8,0:0:0:0:
256,192,9626,1,8,0:0:0:0:
256,192,9788,1,0,0:0:0:0:
256,192,10032,1,0,0:0:0:0:
256,192,10275,1,0,0:0:0:0:
256,192,10437,1,8,0:0:0:0:
256,192,10680,1,8,0:0:0:0:
256,192,10923,1,8,0:0:0:0:
256,192,11086,1,0,0:0:0:0:
256,192,11248,1,0,0:0:0:0:
256,192,11329,1,0,0:0:0:0:
256,192,11410,1,8,0:0:0:0:
256,192,11491,1,8,0:0:0:0:
256,192,11572,1,0,0:0:0:0:
256,192,11653,1,0,0:0:0:0:
256,192,11734,1,8,0:0:0:0:
256,192,11815,1,8,0:0:0:0:
256,192,11896,1,0,0:0:0:0:
256,192,11977,1,8,0:0:0:0:
256,192,12059,1,8,0:0:0:0:
256,192,12140,1,0,0:0:0:0:
256,192,12221,1,8,0:0:0:0:
256,192,12302,1,8,0:0:0:0:
256,192,12383,1,0,0:0:0:0:
256,192,12545,1,0,0:0:0:0:
256,192,12626,1,8,0:0:0:0:
256,192,12707,1,0,0:0:0:0:
256,192,12869,1,0,0:0:0:0:
256,192,13032,1,8,0:0:0:0:
256,192,13113,1,8,0:0:0:0:
246,189,13194,1,0,0:0:0:0:
246,189,13275,1,0,0:0:0:0:
248,189,13356,1,8,0:0:0:0:
256,192,13518,1,8,0:0:0:0:
256,192,13680,1,0,0:0:0:0:
256,192,13842,1,0,0:0:0:0:
256,192,13923,1,8,0:0:0:0:
256,192,14004,1,0,0:0:0:0:
256,192,14167,1,8,0:0:0:0:
256,192,14329,1,8,0:0:0:0:
256,192,14410,1,0,0:0:0:0:
256,192,14491,1,0,0:0:0:0:
256,192,14572,1,0,0:0:0:0:
256,192,14653,1,8,0:0:0:0:
256,192,14815,1,8,0:0:0:0:
256,192,14977,1,0,0:0:0:0:
275,225,15059,1,0,0:0:0:0:
268,208,15140,1,8,0:0:0:0:
256,192,15221,1,8,0:0:0:0:
256,192,15302,1,0,0:0:0:0:
256,192,15464,1,0,0:0:0:0:
256,192,15626,1,8,0:0:0:0:
256,192,15707,1,8,0:0:0:0:
256,192,15788,1,0,0:0:0:0:
256,192,15869,1,0,0:0:0:0:
256,192,15950,1,8,0:0:0:0:
256,192,16113,1,8,0:0:0:0:
256,192,16275,1,0,0:0:0:0:
256,192,16437,1,0,0:0:0:0:
256,192,16518,1,0,0:0:0:0:
256,192,16599,1,8,0:0:0:0:
256,192,16761,1,0,0:0:0:0:
256,192,16923,1,8,0:0:0:0:
256,192,17004,1,8,0:0:0:0:
256,192,17167,1,8,0:0:0:0:
256,192,17248,1,0,0:0:0:0:
256,192,17410,1,8,0:0:0:0:
256,192,17572,1,8,0:0:0:0:
245,152,17653,1,8,0:0:0:0:
245,152,17734,1,0,0:0:0:0:
256,192,17815,1,0,0:0:0:0:
256,192,17896,1,8,0:0:0:0:
256,192,18059,1,0,0:0:0:0:
256,192,18221,1,0,0:0:0:0:
256,192,18302,1,8,0:0:0:0:
256,192,18383,1,0,0:0:0:0:
256,192,18464,1,0,0:0:0:0:
256,192,18545,1,8,0:0:0:0:
256,192,18707,1,8,0:0:0:0:
228,189,18869,1,0,0:0:0:0:
256,192,19032,1,0,0:0:0:0:
256,192,19113,1,0,0:0:0:0:
256,192,19194,1,8,0:0:0:0:
256,192,19356,1,8,0:0:0:0:
256,192,19518,1,0,0:0:0:0:
256,192,19599,1,8,0:0:0:0:
228,189,19680,1,8,0:0:0:0:
256,192,19761,1,8,0:0:0:0:
256,192,19842,1,0,0:0:0:0:
256,192,20004,1,8,0:0:0:0:
256,192,20167,1,0,0:0:0:0:
256,192,20248,1,8,0:0:0:0:
256,192,20329,1,0,0:0:0:0:
256,192,20410,1,0,0:0:0:0:
256,192,20491,1,8,0:0:0:0:
256,192,20653,1,0,0:0:0:0:
256,192,20815,1,8,0:0:0:0:
256,192,20896,1,8,0:0:0:0:
256,192,20977,1,0,0:0:0:0:
256,192,21059,1,8,0:0:0:0:
256,192,21140,1,0,0:0:0:0:
256,192,21302,1,8,0:0:0:0:
256,192,21464,1,0,0:0:0:0:
256,192,21626,1,8,0:0:0:0:
256,192,21707,1,0,0:0:0:0:
256,192,21788,1,0,0:0:0:0:
256,192,21869,1,0,0:0:0:0:
256,192,21950,1,8,0:0:0:0:
256,192,22113,1,8,0:0:0:0:
256,192,22194,1,8,0:0:0:0:
256,192,22275,1,0,0:0:0:0:
256,192,22356,1,0,0:0:0:0:
256,192,22437,1,8,0:0:0:0:
256,192,22518,1,0,0:0:0:0:
256,192,22599,1,8,0:0:0:0:
256,192,22761,1,4,0:0:0:0:
256,192,23086,1,8,0:0:0:0:
256,192,23248,1,8,0:0:0:0:
256,192,23410,1,0,0:0:0:0:
256,192,23572,1,8,0:0:0:0:
256,192,23653,1,8,0:0:0:0:
256,192,23734,1,0,0:0:0:0:
256,192,23896,1,8,0:0:0:0:
256,192,24059,1,0,0:0:0:0:
256,192,24221,1,8,0:0:0:0:
256,192,24302,1,0,0:0:0:0:
256,192,24383,1,8,0:0:0:0:
255,191,24545,1,0,0:0:0:0:
255,191,24707,1,8,0:0:0:0:
255,191,24869,1,0,0:0:0:0:
255,191,24950,1,0,0:0:0:0:
255,191,25032,1,8,0:0:0:0:
255,191,25194,1,8,0:0:0:0:
255,191,25356,1,8,0:0:0:0:
255,191,25518,1,0,0:0:0:0:
255,191,25599,1,0,0:0:0:0:
255,191,25680,1,8,0:0:0:0:
255,191,25842,1,8,0:0:0:0:
255,191,26004,1,0,0:0:0:0:
255,191,26167,1,0,0:0:0:0:
255,191,26248,1,8,0:0:0:0:
255,191,26329,1,0,0:0:0:0:
255,191,26491,1,8,0:0:0:0:
255,191,26653,1,8,0:0:0:0:
255,191,26815,1,8,0:0:0:0:
255,191,26896,1,0,0:0:0:0:
255,191,26977,1,8,0:0:0:0:
255,191,27140,1,0,0:0:0:0:
255,191,27302,1,8,0:0:0:0:
255,191,27626,1,0,0:0:0:0:
255,191,27788,1,0,0:0:0:0:
255,191,27950,1,8,0:0:0:0:
255,191,28113,1,8,0:0:0:0:
249,186,28194,1,8,0:0:0:0:
255,191,28275,1,0,0:0:0:0:
255,191,28437,1,0,0:0:0:0:
255,191,28599,1,8,0:0:0:0:
255,191,28761,1,0,0:0:0:0:
255,191,28842,1,0,0:0:0:0:
255,191,28923,1,0,0:0:0:0:
255,191,29086,1,0,0:0:0:0:
255,191,29248,1,8,0:0:0:0:
255,191,29410,1,0,0:0:0:0:
255,191,29491,1,0,0:0:0:0:
255,191,29572,1,8,0:0:0:0:
255,191,29734,1,8,0:0:0:0:
255,191,29896,1,0,0:0:0:0:
255,191,30059,1,8,0:0:0:0:
255,191,30140,1,0,0:0:0:0:
255,191,30221,1,8,0:0:0:0:
255,191,30383,1,8,0:0:0:0:
255,191,30545,1,0,0:0:0:0:
255,191,30869,1,8,0:0:0:0:
255,191,31032,1,0,0:0:0:0:
255,191,31194,1,8,0:0:0:0:
255,191,31356,1,8,0:0:0:0:
255,191,31518,1,0,0:0:0:0:
255,191,31680,1,8,0:0:0:0:
255,191,31842,1,0,0:0:0:0:
255,191,32167,1,8,0:0:0:0:
255,191,32491,1,8,0:0:0:0:
255,191,32653,1,8,0:0:0:0:
255,191,32734,1,0,0:0:0:0:
255,191,32815,1,8,0:0:0:0:
255,191,32977,1,0,0:0:0:0:
255,191,33140,1,4,0:0:0:0:
255,191,33383,1,0,0:0:0:0:
255,191,33464,1,8,0:0:0:0:
255,191,33626,1,0,0:0:0:0:
255,191,33788,1,8,0:0:0:0:
255,191,33950,1,8,0:0:0:0:
255,191,34032,1,8,0:0:0:0:
255,191,34113,1,0,0:0:0:0:
255,191,34275,1,8,0:0:0:0:
255,191,34437,1,0,0:0:0:0:
255,191,34599,1,8,0:0:0:0:
255,191,34680,1,0,0:0:0:0:
255,191,34761,1,8,0:0:0:0:
258,191,34923,1,0,0:0:0:0:
258,191,35086,1,8,0:0:0:0:
258,191,35248,1,0,0:0:0:0:
258,191,35329,1,0,0:0:0:0:
258,191,35410,1,8,0:0:0:0:
258,191,35572,1,0,0:0:0:0:
258,191,35734,1,8,0:0:0:0:
258,191,35896,1,0,0:0:0:0:
258,191,35977,1,0,0:0:0:0:
258,191,36059,1,8,0:0:0:0:
258,191,36221,1,8,0:0:0:0:
258,191,36383,1,0,0:0:0:0:
258,191,36545,1,8,0:0:0:0:
258,191,36626,1,8,0:0:0:0:
258,191,36707,1,0,0:0:0:0:
258,191,36869,1,0,0:0:0:0:
258,191,37032,1,8,0:0:0:0:
258,191,37194,1,8,0:0:0:0:
258,191,37275,1,0,0:0:0:0:
258,191,37356,1,8,0:0:0:0:
258,191,37518,1,0,0:0:0:0:
258,191,37680,1,8,0:0:0:0:
258,191,37923,1,0,0:0:0:0:
258,191,38004,1,8,0:0:0:0:
258,191,38167,1,0,0:0:0:0:
258,191,38329,1,8,0:0:0:0:
258,191,38491,1,8,0:0:0:0:
258,191,38572,1,8,0:0:0:0:
258,191,38653,1,0,0:0:0:0:
265,188,38815,1,0,0:0:0:0:
265,188,38977,1,8,0:0:0:0:
258,191,39140,1,8,0:0:0:0:
258,191,39221,1,8,0:0:0:0:
258,191,39302,1,8,0:0:0:0:
258,191,39464,1,0,0:0:0:0:
258,191,39626,1,8,0:0:0:0:
258,191,39788,1,8,0:0:0:0:
258,190,39869,1,0,0:0:0:0:
258,191,39950,1,8,0:0:0:0:
258,191,40113,1,0,0:0:0:0:
258,191,40275,1,8,0:0:0:0:
258,191,40518,1,0,0:0:0:0:
258,191,40599,1,0,0:0:0:0:
258,191,40761,1,8,0:0:0:0:
258,191,40923,1,0,0:0:0:0:
258,191,41086,1,0,0:0:0:0:
258,191,41167,1,0,0:0:0:0:
256,192,41248,5,8,0:0:0:0:
256,192,41410,1,0,0:0:0:0:
256,192,41572,1,8,0:0:0:0:
258,191,41734,1,8,0:0:0:0:
256,192,41815,1,0,0:0:0:0:
256,192,41896,1,8,0:0:0:0:
256,192,42059,1,0,0:0:0:0:
256,192,42221,1,4,0:0:0:0:
256,192,42545,1,4,0:0:0:0:
256,192,42869,1,4,0:0:0:0:
256,192,43032,1,8,0:0:0:0:
256,192,43113,1,8,0:0:0:0:
256,192,43194,1,0,0:0:0:0:
256,192,43259,1,0,0:0:0:0:
256,192,43323,1,8,0:0:0:0:
256,192,43388,1,8,0:0:0:0:
251,196,43453,1,8,0:0:0:0:
256,192,43518,5,0,0:0:0:0:
256,192,43680,1,0,0:0:0:0:
256,192,43761,1,0,0:0:0:0:
256,192,43842,1,8,0:0:0:0:
256,192,44004,1,0,0:0:0:0:
256,192,44167,1,0,0:0:0:0:
256,192,44329,1,8,0:0:0:0:
256,192,44410,1,8,0:0:0:0:
256,192,44491,1,8,0:0:0:0:
256,192,44653,1,0,0:0:0:0:
256,192,44815,1,0,0:0:0:0:
256,192,44977,1,0,0:0:0:0:
256,192,45059,1,0,0:0:0:0:
256,192,45140,1,8,0:0:0:0:
256,192,45302,1,0,0:0:0:0:
256,192,45464,1,8,0:0:0:0:
256,192,45626,1,0,0:0:0:0:
256,192,45707,1,8,0:0:0:0:
256,192,45788,1,0,0:0:0:0:
256,192,45950,1,0,0:0:0:0:
256,192,46113,1,8,0:0:0:0:
256,192,46275,1,8,0:0:0:0:
256,192,46356,1,8,0:0:0:0:
256,192,46437,1,0,0:0:0:0:
256,192,46599,1,0,0:0:0:0:
256,192,46761,1,8,0:0:0:0:
256,192,46923,1,0,0:0:0:0:
256,192,47004,1,0,0:0:0:0:
256,192,47086,1,8,0:0:0:0:
256,192,47248,1,0,0:0:0:0:
256,192,47410,1,8,0:0:0:0:
256,192,47572,1,0,0:0:0:0:
256,192,47653,1,0,0:0:0:0:
256,192,47734,1,8,0:0:0:0:
256,192,47896,1,8,0:0:0:0:
256,192,48059,1,0,0:0:0:0:
256,192,48383,1,8,0:0:0:0:
256,192,48545,1,0,0:0:0:0:
256,192,48707,1,12,0:0:0:0:
256,192,48869,1,0,0:0:0:0:
256,192,48950,1,0,0:0:0:0:
256,192,49032,1,0,0:0:0:0:
256,192,49194,1,0,0:0:0:0:
256,192,49356,1,8,0:0:0:0:
256,192,49518,1,8,0:0:0:0:
256,192,49599,1,8,0:0:0:0:
256,192,49680,1,0,0:0:0:0:
256,192,49842,1,0,0:0:0:0:
256,192,50004,1,8,0:0:0:0:
256,192,50167,1,8,0:0:0:0:
256,192,50329,1,0,0:0:0:0:
256,192,50410,1,0,0:0:0:0:
256,192,50491,1,8,0:0:0:0:
256,192,50653,1,8,0:0:0:0:
256,192,50815,1,8,0:0:0:0:
256,192,50896,1,8,0:0:0:0:
256,192,50977,1,8,0:0:0:0:
256,192,51140,1,0,0:0:0:0:
256,192,51302,1,8,0:0:0:0:
256,192,51464,1,0,0:0:0:0:
256,192,51545,1,0,0:0:0:0:
256,192,51626,1,8,0:0:0:0:
256,192,51707,1,8,0:0:0:0:
256,192,51788,1,0,0:0:0:0:
256,192,51950,1,8,0:0:0:0:
256,192,52113,1,0,0:0:0:0:
256,192,52194,1,0,0:0:0:0:
256,192,52275,1,8,0:0:0:0:
256,192,52437,1,0,0:0:0:0:
256,192,52599,1,0,0:0:0:0:
256,192,52761,1,0,0:0:0:0:
256,192,52842,1,8,0:0:0:0:
256,192,52923,1,8,0:0:0:0:
256,192,53086,1,0,0:0:0:0:
256,192,53248,1,8,0:0:0:0:
256,192,53410,1,8,0:0:0:0:
256,192,53464,1,8,0:0:0:0:
256,192,53518,1,8,0:0:0:0:
256,192,53572,1,0,0:0:0:0:
256,192,53734,1,0,0:0:0:0:
256,192,53896,1,12,0:0:0:0:
256,192,54059,1,0,0:0:0:0:
256,192,54140,1,8,0:0:0:0:
256,192,54221,1,0,0:0:0:0:
256,192,54383,1,0,0:0:0:0:
256,192,54545,1,8,0:0:0:0:
256,192,54626,1,8,0:0:0:0:
256,192,54707,1,0,0:0:0:0:
256,192,54788,1,0,0:0:0:0:
256,192,54869,1,8,0:0:0:0:
256,192,55032,1,0,0:0:0:0:
256,192,55194,1,0,0:0:0:0:
256,192,55356,1,8,0:0:0:0:
256,192,55437,1,8,0:0:0:0:
256,192,55518,1,0,0:0:0:0:
256,192,55680,1,0,0:0:0:0:
256,192,55761,1,0,0:0:0:0:
256,192,55842,1,8,0:0:0:0:
256,192,56004,1,8,0:0:0:0:
256,192,56059,1,8,0:0:0:0:
256,192,56113,1,8,0:0:0:0:
256,192,56167,1,0,0:0:0:0:
256,192,56329,1,0,0:0:0:0:
256,192,56491,1,8,0:0:0:0:
256,192,56734,1,8,0:0:0:0:
256,192,56815,1,0,0:0:0:0:
256,192,56977,1,0,0:0:0:0:
256,192,57140,1,8,0:0:0:0:
256,192,57302,1,8,0:0:0:0:
256,192,57356,1,8,0:0:0:0:
256,192,57410,1,8,0:0:0:0:
256,192,57464,1,0,0:0:0:0:
256,192,57626,1,0,0:0:0:0:
256,192,57788,1,8,0:0:0:0:
256,192,58032,1,8,0:0:0:0:
256,192,58113,1,0,0:0:0:0:
256,192,58275,1,8,0:0:0:0:
256,192,58437,1,0,0:0:0:0:
256,192,58599,1,8,0:0:0:0:
256,192,58680,1,8,0:0:0:0:
256,192,58761,1,8,0:0:0:0:
256,192,58923,1,0,0:0:0:0:
256,192,59086,1,12,0:0:0:0:
256,192,59329,1,8,0:0:0:0:
256,192,59410,1,8,0:0:0:0:
256,192,59572,1,0,0:0:0:0:
256,192,59734,1,8,0:0:0:0:
256,192,59896,1,0,0:0:0:0:
256,192,59977,1,0,0:0:0:0:
256,192,60059,1,8,0:0:0:0:
256,192,60221,1,0,0:0:0:0:
256,192,60383,1,12,0:0:0:0:
256,192,60545,1,8,0:0:0:0:
256,192,60599,1,8,0:0:0:0:
256,192,60653,1,8,0:0:0:0:
256,192,60707,1,0,0:0:0:0:
256,192,60788,1,0,0:0:0:0:
256,192,60869,1,8,0:0:0:0:
256,192,61032,1,0,0:0:0:0:
256,192,61194,1,0,0:0:0:0:
256,192,61275,1,0,0:0:0:0:
256,192,61356,1,8,0:0:0:0:
256,192,61518,1,0,0:0:0:0:
256,192,61680,1,12,0:0:0:0:
256,192,61842,1,0,0:0:0:0:
256,192,61923,1,0,0:0:0:0:
256,192,62004,1,8,0:0:0:0:
256,192,62167,1,0,0:0:0:0:
256,192,62329,1,12,0:0:0:0:
256,192,62491,1,0,0:0:0:0:
256,192,62572,1,8,0:0:0:0:
256,192,62653,1,0,0:0:0:0:
256,192,62815,1,0,0:0:0:0:
256,192,62977,1,12,0:0:0:0:
256,192,63140,1,0,0:0:0:0:
256,192,63221,1,0,0:0:0:0:
256,192,63302,1,8,0:0:0:0:
256,192,63464,1,0,0:0:0:0:
256,192,63626,1,8,0:0:0:0:
256,192,63788,1,8,0:0:0:0:
256,192,63842,1,8,0:0:0:0:
256,192,63896,1,8,0:0:0:0:
256,192,63950,1,0,0:0:0:0:
256,192,64113,1,0,0:0:0:0:
256,192,64275,1,12,0:0:0:0:
256,192,64437,1,0,0:0:0:0:
256,192,64518,1,8,0:0:0:0:
256,192,64599,1,8,0:0:0:0:
256,192,64761,1,0,0:0:0:0:
256,192,64923,1,0,0:0:0:0:
256,192,65004,1,0,0:0:0:0:
256,192,65086,1,8,0:0:0:0:
256,192,65167,1,0,0:0:0:0:
256,192,65248,1,8,0:0:0:0:
256,192,65410,1,0,0:0:0:0:
256,192,65572,1,8,0:0:0:0:
256,192,65734,1,0,0:0:0:0:
256,192,65815,1,0,0:0:0:0:
256,192,65896,1,8,0:0:0:0:
256,192,66059,1,8,0:0:0:0:
256,192,66221,1,0,0:0:0:0:
256,192,66383,1,8,0:0:0:0:
256,192,66437,1,8,0:0:0:0:
256,192,66491,1,8,0:0:0:0:
256,192,66545,1,0,0:0:0:0:
256,192,66707,1,8,0:0:0:0:
257,198,66788,1,8,0:0:0:0:
256,192,66869,1,0,0:0:0:0:
256,192,67032,1,0,0:0:0:0:
256,192,67113,1,0,0:0:0:0:
256,192,67194,1,8,0:0:0:0:
256,192,67356,1,0,0:0:0:0:
256,192,67437,1,8,0:0:0:0:
256,192,67518,1,0,0:0:0:0:
256,192,67680,1,8,0:0:0:0:
256,192,67842,1,0,0:0:0:0:
256,192,68004,1,8,0:0:0:0:
256,192,68167,1,0,0:0:0:0:
256,192,68248,1,8,0:0:0:0:
256,192,68410,1,8,0:0:0:0:
256,192,68491,1,0,0:0:0:0:
256,192,68653,1,8,0:0:0:0:
256,192,68815,1,8,0:0:0:0:
256,192,68977,1,0,0:0:0:0:
256,192,69059,1,0,0:0:0:0:
256,192,69140,1,8,0:0:0:0:
256,192,69302,1,0,0:0:0:0:
256,192,69464,1,12,0:0:0:0:
256,192,69626,1,8,0:0:0:0:
256,192,69707,1,8,0:0:0:0:
256,192,69788,1,8,0:0:0:0:
256,192,69950,1,0,0:0:0:0:
256,192,70113,1,8,0:0:0:0:
256,192,70194,1,0,0:0:0:0:
256,192,70275,1,0,0:0:0:0:
256,192,70356,1,0,0:0:0:0:
256,192,70437,1,8,0:0:0:0:
256,192,70599,1,0,0:0:0:0:
256,192,70761,1,12,0:0:0:0:
256,192,70923,1,0,0:0:0:0:
256,192,71004,1,8,0:0:0:0:
256,192,71086,1,0,0:0:0:0:
256,192,71248,1,0,0:0:0:0:
256,192,71410,1,8,0:0:0:0:
256,192,71572,1,8,0:0:0:0:
256,192,71653,1,8,0:0:0:0:
256,192,71734,1,0,0:0:0:0:
256,192,71896,1,8,0:0:0:0:
256,192,72059,1,12,0:0:0:0:
256,192,72221,1,0,0:0:0:0:
256,192,72302,1,0,0:0:0:0:
256,192,72383,1,8,0:0:0:0:
256,192,72545,1,8,0:0:0:0:
256,192,72707,1,0,0:0:0:0:
256,192,72869,1,8,0:0:0:0:
256,192,72950,1,8,0:0:0:0:
256,192,73032,1,0,0:0:0:0:
256,192,73194,1,8,0:0:0:0:
256,192,73356,1,12,0:0:0:0:
256,192,73680,1,8,0:0:0:0:
256,192,73761,1,8,0:0:0:0:
256,192,73842,1,0,0:0:0:0:
256,192,74004,1,0,0:0:0:0:
256,192,74248,1,0,0:0:0:0:
256,192,74329,1,8,0:0:0:0:
256,192,74491,1,0,0:0:0:0:
256,192,74653,1,12,0:0:0:0:
256,192,74977,1,8,0:0:0:0:
256,192,75140,1,8,0:0:0:0:
256,192,75302,1,0,0:0:0:0:
256,192,75464,1,0,0:0:0:0:
256,192,75545,1,0,0:0:0:0:
256,192,75626,1,8,0:0:0:0:
256,192,75788,1,0,0:0:0:0:
256,192,75950,1,8,0:0:0:0:
256,192,76113,1,8,0:0:0:0:
256,192,76194,1,8,0:0:0:0:
256,192,76275,1,8,0:0:0:0:
256,192,76437,1,0,0:0:0:0:
256,192,76599,1,8,0:0:0:0:
256,192,76680,1,0,0:0:0:0:
256,192,76761,1,8,0:0:0:0:
256,192,76815,1,0,0:0:0:0:
256,192,76869,1,0,0:0:0:0:
256,192,76923,1,8,0:0:0:0:
256,192,77086,1,8,0:0:0:0:
256,192,77248,1,4,0:0:0:0:
256,192,77491,1,8,0:0:0:0:
256,192,77572,1,0,0:0:0:0:
256,192,77734,1,8,0:0:0:0:
256,192,77896,1,8,0:0:0:0:
256,192,78059,1,0,0:0:0:0:
256,192,78140,1,8,0:0:0:0:
256,192,78302,1,0,0:0:0:0:
256,192,78383,1,8,0:0:0:0:
256,192,78545,1,0,0:0:0:0:
256,192,78707,1,8,0:0:0:0:
256,192,78788,1,0,0:0:0:0:
256,192,78869,1,8,0:0:0:0:
256,192,79032,1,0,0:0:0:0:
256,192,79194,1,8,0:0:0:0:
256,192,79356,1,8,0:0:0:0:
256,192,79437,1,0,0:0:0:0:
256,192,79599,1,0,0:0:0:0:
256,192,79680,1,8,0:0:0:0:
256,192,79842,1,0,0:0:0:0:
256,192,80004,1,8,0:0:0:0:
256,192,80086,1,0,0:0:0:0:
256,192,80248,1,0,0:0:0:0:
256,192,80329,1,8,0:0:0:0:
256,192,80491,1,8,0:0:0:0:
256,192,80653,1,0,0:0:0:0:
256,192,80734,1,8,0:0:0:0:
256,192,80896,1,0,0:0:0:0:
256,192,80977,1,8,0:0:0:0:
256,192,81302,1,8,0:0:0:0:
256,192,81464,1,0,0:0:0:0:
256,192,81545,1,0,0:0:0:0:
256,192,81626,1,8,0:0:0:0:
256,192,81788,1,8,0:0:0:0:
256,192,81869,1,0,0:0:0:0:
256,192,82032,1,0,0:0:0:0:
256,192,82113,1,8,0:0:0:0:
256,192,82275,1,8,0:0:0:0:
256,192,82437,1,8,0:0:0:0:
256,192,82518,1,0,0:0:0:0:
256,192,82680,1,8,0:0:0:0:
256,192,82761,1,0,0:0:0:0:
256,192,82923,1,0,0:0:0:0:
256,192,83086,1,8,0:0:0:0:
256,192,83167,1,8,0:0:0:0:
256,192,83329,1,0,0:0:0:0:
256,192,83410,1,8,0:0:0:0:
256,192,83572,1,8,0:0:0:0:
252,197,83896,1,0,0:0:0:0:
252,197,83977,1,0,0:0:0:0:
252,197,84059,1,8,0:0:0:0:
252,197,84221,1,8,0:0:0:0:
252,197,84383,1,0,0:0:0:0:
248,197,84464,1,8,0:0:0:0:
256,192,84626,1,0,0:0:0:0:
252,197,84707,1,0,0:0:0:0:
252,197,84869,1,8,0:0:0:0:
252,197,85032,1,8,0:0:0:0:
252,197,85194,1,0,0:0:0:0:
252,197,85275,1,8,0:0:0:0:
252,197,85437,1,0,0:0:0:0:
254,196,85518,1,0,0:0:0:0:
252,197,85680,1,8,0:0:0:0:
252,197,85842,1,8,0:0:0:0:
252,197,85923,1,8,0:0:0:0:
246,194,86086,1,0,0:0:0:0:
252,197,86167,1,8,0:0:0:0:
254,196,86491,1,8,0:0:0:0:
252,197,86572,1,0,0:0:0:0:
252,197,86653,1,8,0:0:0:0:
252,197,86734,1,8,0:0:0:0:
252,197,86815,1,0,0:0:0:0:
252,197,86896,1,0,0:0:0:0:
252,197,86977,1,8,0:0:0:0:
252,197,87059,1,0,0:0:0:0:
252,197,87140,1,0,0:0:0:0:
252,197,87221,1,8,0:0:0:0:
252,197,87302,1,0,0:0:0:0:
252,197,87383,1,0,0:0:0:0:
254,196,87464,1,8,0:0:0:0:
252,197,87545,1,8,0:0:0:0:
252,197,87950,1,12,0:0:0:0:
256,192,88275,12,0,89896,0:0:0:0:
