osu file format v14

[General]
AudioFilename: audio.mp3
AudioLeadIn: 0
PreviewTime: 43437
Countdown: 0
SampleSet: Normal
StackLeniency: 0.7
Mode: 1
LetterboxInBreaks: 0
WidescreenStoryboard: 1

[Editor]
Bookmarks: 12383,22761,33140,43518,59086,64275,77248
DistanceSpacing: 2
BeatDivisor: 4
GridSize: 32
TimelineZoom: 2.899999

[Metadata]
Title:Shiokara Splash
TitleUnicode:シオカラスプラッシュ
Artist:beatMARIO
ArtistUnicode:ビートまりお
Creator:Issuko
Version:Futsuu
Source:Splatoon
Tags:kamaboko117 YaniFR videogame Instrumental Splatoon Marie Callie シオカラ節 しおからぶし shiokara-bushi Squid Sisters Song シオカラーズ ホタル アオリ nintendo スプラトゥーン スプラビート! Splabeat! COOL&CREATE cccd40 white-collar
BeatmapID:3029610
BeatmapSetID:1411134

[Difficulty]
HPDrainRate:7
CircleSize:3
OverallDifficulty:4
ApproachRate:9
SliderMultiplier:1.4
SliderTickRate:1

[Events]
//Background and Video events
0,0,"872135.jpg",0,0
//Break Periods
//Storyboard Layer 0 (Background)
//Storyboard Layer 1 (Fail)
//Storyboard Layer 2 (Pass)
//Storyboard Layer 3 (Foreground)
//Storyboard Layer 4 (Overlay)
//Storyboard Sound Samples

[TimingPoints]
2005,324.324324324324,4,1,0,70,1,0
12383,-100,4,1,0,90,0,1
22761,-100,4,1,0,90,0,0
43518,-100,4,1,0,90,0,1
77248,-100,4,1,0,90,0,0

[HitObjects]
256,192,2005,5,4,0:0:0:0:
256,192,2653,1,2,0:0:0:0:
256,192,2896,1,0,0:0:0:0:
256,192,3140,1,2,0:0:0:0:
74,342,3626,1,0,0:0:0:0:
256,192,3950,1,8,0:0:0:0:
256,192,4599,1,0,0:0:0:0:
256,192,5248,1,2,0:0:0:0:
256,192,5491,1,0,0:0:0:0:
256,192,5734,1,2,0:0:0:0:
256,192,6221,1,0,0:0:0:0:
256,192,6545,1,2,0:0:0:0:
256,192,6869,1,2,0:0:0:0:
256,192,7194,1,0,0:0:0:0:
256,192,7842,1,2,0:0:0:0:
256,192,8086,1,0,0:0:0:0:
256,192,8329,1,2,0:0:0:0:
256,192,8815,1,0,0:0:0:0:
256,192,9140,1,2,0:0:0:0:
256,192,9464,1,2,0:0:0:0:
256,192,9788,1,0,0:0:0:0:
256,192,10437,1,2,0:0:0:0:
256,192,10680,1,0,0:0:0:0:
256,192,10923,1,2,0:0:0:0:
256,192,11410,1,2,0:0:0:0:
256,192,11572,1,2,0:0:0:0:
256,192,11734,1,2,0:0:0:0:
256,192,12059,1,2,0:0:0:0:
256,192,12383,1,4,0:0:0:0:
250,197,13032,1,8,0:0:0:0:
250,197,13275,1,8,0:0:0:0:
250,197,13518,1,8,0:0:0:0:
250,197,13842,1,0,0:0:0:0:
250,197,14004,1,0,0:0:0:0:
250,197,14329,1,8,0:0:0:0:
250,197,14572,1,8,0:0:0:0:
250,197,14815,1,8,0:0:0:0:
250,197,14977,5,0,0:0:0:0:
250,197,15302,1,8,0:0:0:0:
250,197,15464,1,0,0:0:0:0:
250,197,15626,1,8,0:0:0:0:
250,197,15869,1,8,0:0:0:0:
250,197,16113,1,8,0:0:0:0:
250,197,16437,1,0,0:0:0:0:
250,197,16599,1,0,0:0:0:0:
250,197,16761,1,0,0:0:0:0:
250,197,16923,1,8,0:0:0:0:
250,197,17248,1,8,0:0:0:0:
250,197,17572,1,0,0:0:0:0:
250,197,18221,1,8,0:0:0:0:
250,197,18464,1,8,0:0:0:0:
250,197,18707,1,8,0:0:0:0:
250,197,19032,1,0,0:0:0:0:
250,197,19194,1,0,0:0:0:0:
250,197,19518,1,8,0:0:0:0:
241,185,19761,1,8,0:0:0:0:
250,197,20004,1,0,0:0:0:0:
250,197,20167,1,0,0:0:0:0:
250,197,20410,1,8,0:0:0:0:
241,185,20653,1,0,0:0:0:0:
256,192,20815,1,8,0:0:0:0:
250,197,21059,1,8,0:0:0:0:
241,185,21302,1,8,0:0:0:0:
256,192,21464,1,8,0:0:0:0:
256,192,21707,1,0,0:0:0:0:
250,197,21950,1,0,0:0:0:0:
250,197,22113,1,8,0:0:0:0:
256,192,22437,1,8,0:0:0:0:
256,192,22761,1,4,0:0:0:0:
250,197,23086,1,0,0:0:0:0:
250,197,23248,1,0,0:0:0:0:
256,192,23410,1,8,0:0:0:0:
257,194,24707,1,0,0:0:0:0:
257,194,25032,1,0,0:0:0:0:
257,194,25356,1,8,0:0:0:0:
257,194,25680,1,8,0:0:0:0:
257,194,25842,1,8,0:0:0:0:
257,194,26004,1,0,0:0:0:0:
257,194,26653,1,0,0:0:0:0:
257,194,26977,1,8,0:0:0:0:
257,194,27302,1,0,0:0:0:0:
257,194,27950,1,8,0:0:0:0:
257,194,28275,1,8,0:0:0:0:
257,194,28437,1,8,0:0:0:0:
257,194,28599,1,0,0:0:0:0:
257,194,29248,1,0,0:0:0:0:
257,194,29572,5,0,0:0:0:0:
257,194,29896,1,8,0:0:0:0:
257,194,30221,1,0,0:0:0:0:
257,194,30383,1,8,0:0:0:0:
257,194,30869,1,8,0:0:0:0:
257,194,31194,1,8,0:0:0:0:
257,194,31518,1,8,0:0:0:0:
257,194,31842,1,0,0:0:0:0:
257,194,32167,1,0,0:0:0:0:
257,194,32491,1,8,0:0:0:0:
257,194,32653,1,8,0:0:0:0:
257,194,32815,1,8,0:0:0:0:
277,195,33140,1,4,0:0:0:0:
257,194,33464,1,0,0:0:0:0:
257,194,33788,1,8,0:0:0:0:
257,193,35086,1,0,0:0:0:0:
257,193,35410,1,0,0:0:0:0:
257,193,35734,1,8,0:0:0:0:
257,193,36059,1,8,0:0:0:0:
257,193,36221,1,8,0:0:0:0:
257,193,36383,1,0,0:0:0:0:
257,193,37032,1,8,0:0:0:0:
257,193,37194,1,0,0:0:0:0:
257,193,37356,1,0,0:0:0:0:
257,193,37680,1,8,0:0:0:0:
257,193,38329,1,0,0:0:0:0:
257,193,38653,1,0,0:0:0:0:
257,193,38977,1,8,0:0:0:0:
257,193,39626,1,0,0:0:0:0:
257,193,39950,1,8,0:0:0:0:
257,193,40275,1,8,0:0:0:0:
257,193,40599,1,0,0:0:0:0:
257,193,40761,1,8,0:0:0:0:
257,193,41248,1,8,0:0:0:0:
257,193,41410,1,0,0:0:0:0:
257,193,41572,1,8,0:0:0:0:
257,193,41896,1,8,0:0:0:0:
257,193,42221,1,4,0:0:0:0:
257,193,42545,1,4,0:0:0:0:
257,193,42869,1,4,0:0:0:0:
257,193,43518,1,12,0:0:0:0:
239,195,44004,1,0,0:0:0:0:
257,193,44167,1,8,0:0:0:0:
239,195,44653,1,0,0:0:0:0:
257,193,44815,1,8,0:0:0:0:
257,193,45302,1,0,0:0:0:0:
257,193,45464,1,8,0:0:0:0:
257,193,45788,1,0,0:0:0:0:
257,193,45950,1,0,0:0:0:0:
257,193,46113,1,8,0:0:0:0:
257,193,46599,1,0,0:0:0:0:
257,193,46761,1,8,0:0:0:0:
257,193,47248,1,0,0:0:0:0:
257,193,47410,1,8,0:0:0:0:
257,193,47734,1,8,0:0:0:0:
257,193,47896,1,8,0:0:0:0:
257,193,48059,1,0,0:0:0:0:
257,193,48707,1,12,0:0:0:0:
257,193,49194,1,0,0:0:0:0:
257,193,49356,1,8,0:0:0:0:
257,193,49842,1,0,0:0:0:0:
257,193,50004,1,8,0:0:0:0:
257,193,50329,1,0,0:0:0:0:
257,193,50491,1,0,0:0:0:0:
257,193,50653,1,8,0:0:0:0:
257,193,50977,1,0,0:0:0:0:
257,193,51302,1,12,0:0:0:0:
257,193,51626,1,0,0:0:0:0:
257,193,51788,1,0,0:0:0:0:
257,193,51950,1,0,0:0:0:0:
257,193,52275,1,0,0:0:0:0:
257,193,52599,1,8,0:0:0:0:
257,193,52923,1,8,0:0:0:0:
257,193,53086,1,8,0:0:0:0:
257,193,53248,1,0,0:0:0:0:
257,193,53572,1,0,0:0:0:0:
257,193,53734,1,0,0:0:0:0:
257,193,53896,1,12,0:0:0:0:
257,193,54383,1,0,0:0:0:0:
257,193,54545,1,8,0:0:0:0:
257,193,55032,1,0,0:0:0:0:
257,193,55194,1,8,0:0:0:0:
257,193,55680,1,0,0:0:0:0:
257,193,55842,1,8,0:0:0:0:
257,193,56167,1,0,0:0:0:0:
257,193,56491,1,8,0:0:0:0:
257,193,57140,1,8,0:0:0:0:
268,196,57464,1,0,0:0:0:0:
257,193,57788,1,8,0:0:0:0:
264,193,58113,1,8,0:0:0:0:
268,196,58275,1,8,0:0:0:0:
257,193,58437,1,0,0:0:0:0:
257,193,59086,1,12,0:0:0:0:
257,193,59410,1,8,0:0:0:0:
257,193,59734,1,0,0:0:0:0:
257,193,60059,1,0,0:0:0:0:
257,193,60221,1,0,0:0:0:0:
257,193,60383,1,8,0:0:0:0:
257,193,60707,1,0,0:0:0:0:
257,193,61032,1,8,0:0:0:0:
257,193,61356,1,0,0:0:0:0:
257,193,61680,1,8,0:0:0:0:
257,193,62004,1,0,0:0:0:0:
257,193,62167,1,0,0:0:0:0:
257,193,62329,1,8,0:0:0:0:
257,193,62653,1,0,0:0:0:0:
257,193,62815,1,0,0:0:0:0:
257,193,62977,1,8,0:0:0:0:
257,193,63302,1,8,0:0:0:0:
257,193,63464,1,0,0:0:0:0:
257,193,63626,1,0,0:0:0:0:
257,193,63950,1,0,0:0:0:0:
257,193,64275,1,12,0:0:0:0:
257,193,64761,1,0,0:0:0:0:
257,193,64923,1,8,0:0:0:0:
256,186,65410,1,0,0:0:0:0:
257,193,65572,1,8,0:0:0:0:
256,186,66059,1,0,0:0:0:0:
257,193,66221,1,8,0:0:0:0:
257,193,66545,1,0,0:0:0:0:
257,193,66869,1,8,0:0:0:0:
258,185,67194,1,0,0:0:0:0:
257,193,67518,1,8,0:0:0:0:
257,193,67842,1,0,0:0:0:0:
263,200,68004,1,0,0:0:0:0:
257,193,68167,1,8,0:0:0:0:
257,193,68491,1,8,0:0:0:0:
257,193,68815,1,8,0:0:0:0:
257,193,69464,1,12,0:0:0:0:
256,204,69950,1,0,0:0:0:0:
257,193,70113,1,8,0:0:0:0:
256,204,70599,1,0,0:0:0:0:
257,193,70761,1,8,0:0:0:0:
250,200,71086,1,0,0:0:0:0:
257,193,71410,1,8,0:0:0:0:
257,193,72059,1,8,0:0:0:0:
251,208,72383,1,8,0:0:0:0:
257,193,72707,1,0,0:0:0:0:
251,208,73032,1,0,0:0:0:0:
251,208,73194,1,0,0:0:0:0:
257,193,73356,1,8,0:0:0:0:
251,208,73680,1,8,0:0:0:0:
251,208,74004,1,8,0:0:0:0:
251,208,74329,1,0,0:0:0:0:
251,208,74491,1,0,0:0:0:0:
257,193,74653,1,8,0:0:0:0:
251,208,74977,1,8,0:0:0:0:
257,193,75302,1,0,0:0:0:0:
257,193,75950,1,0,0:0:0:0:
257,193,76275,1,8,0:0:0:0:
257,193,76599,1,8,0:0:0:0:
257,193,76923,1,0,0:0:0:0:
257,193,77248,1,12,0:0:0:0:
257,193,77572,1,0,0:0:0:0:
257,193,77734,1,0,0:0:0:0:
257,193,77896,1,8,0:0:0:0:
257,193,78221,1,0,0:0:0:0:
257,193,78383,1,8,0:0:0:0:
257,193,78869,1,8,0:0:0:0:
257,193,79194,1,8,0:0:0:0:
257,193,79518,1,0,0:0:0:0:
257,193,79680,1,8,0:0:0:0:
281,184,79842,1,0,0:0:0:0:
257,193,80167,1,0,0:0:0:0:
257,193,80329,1,0,0:0:0:0:
257,193,80491,1,8,0:0:0:0:
257,193,80815,1,8,0:0:0:0:
257,193,80977,1,8,0:0:0:0:
257,193,81302,1,0,0:0:0:0:
257,193,81464,1,0,0:0:0:0:
249,177,81788,1,8,0:0:0:0:
257,193,82113,1,0,0:0:0:0:
257,193,82275,1,8,0:0:0:0:
257,193,82437,1,0,0:0:0:0:
257,193,82761,1,0,0:0:0:0:
257,193,82923,1,0,0:0:0:0:
257,193,83086,1,8,0:0:0:0:
257,193,83410,1,8,0:0:0:0:
257,193,83572,1,8,0:0:0:0:
257,193,83896,1,0,0:0:0:0:
257,193,84059,1,0,0:0:0:0:
257,193,84221,1,8,0:0:0:0:
257,193,84383,1,8,0:0:0:0:
257,193,84707,1,0,0:0:0:0:
257,193,84869,1,8,0:0:0:0:
257,193,85032,1,0,0:0:0:0:
257,193,85356,1,0,0:0:0:0:
257,193,85518,1,0,0:0:0:0:
257,193,85680,1,8,0:0:0:0:
257,193,86004,1,0,0:0:0:0:
257,193,86167,5,8,0:0:0:0:
257,193,86491,1,8,0:0:0:0:
257,193,86653,1,0,0:0:0:0:
257,193,86977,1,0,0:0:0:0:
257,193,87140,1,0,0:0:0:0:
257,193,87302,1,8,0:0:0:0:
257,193,87464,1,8,0:0:0:0:
253,187,87950,1,4,0:0:0:0:
