osu file format v14

[General]
AudioFilename: audio-1.mp3
AudioLeadIn: 0
PreviewTime: 39027
Countdown: 0
SampleSet: Normal
StackLeniency: 0.7
Mode: 0
LetterboxInBreaks: 0
WidescreenStoryboard: 0

[Editor]
DistanceSpacing: 1
BeatDivisor: 4
GridSize: 16
TimelineZoom: 2.5

[Metadata]
Title:Saishoukichiku Imouto Flandre S
TitleUnicode:最終鬼畜妹フランドール・S (short ver.)
Artist:beatMARIO
ArtistUnicode:ビートまりお
Creator:JosephK
Version:Insane
Source:東方紅魔郷 ~ the Embodiment of Scarlet Devil
Tags:touhou 6 flandre scarlet embodiment of scarlet devil cool&create cut version short ver cut
BeatmapID:1791367
BeatmapSetID:857388

[Difficulty]
HPDrainRate:5
CircleSize:4
OverallDifficulty:6
ApproachRate:9
SliderMultiplier:1.4
SliderTickRate:1

[Events]
//Background and Video events
0,0,"1471140090181.jpg",0,0
//Break Periods
//Storyboard Layer 0 (Background)
//Storyboard Layer 1 (Fail)
//Storyboard Layer 2 (Pass)
//Storyboard Layer 3 (Foreground)
//Storyboard Sound Samples

[TimingPoints]
640.561652245455,300,4,1,0,70,1,0
39039,-100,4,1,0,70,0,0
45790,-66.6666666666667,4,1,0,70,0,0
47440,-66.6666666666667,4,1,0,70,0,0
48640,-100,4,1,0,70,0,1
50440,-66.6666666666667,4,1,0,70,0,1
57170,-66.6666666666667,4,1,0,70,0,1
58240,-100,4,1,0,70,0,1
67840,-100,4,1,0,70,0,1
87565,-181.818181818182,4,1,0,70,0,0

[Colours]
Combo1 : 159,0,0
Combo2 : 164,0,0
Combo3 : 202,0,0
Combo4 : 255,0,0

[HitObjects]
256,192,640,12,0,2739,0:0:0:0:
256,192,3040,12,0,5139,0:0:0:0:
256,192,5440,12,0,7540,0:0:0:0:
256,192,7840,12,0,8739,0:0:0:0:
69,100,9040,5,0,0:0:0:0:
62,125,9115,1,0,0:0:0:0:
63,151,9190,1,0,0:0:0:0:
71,176,9265,1,0,0:0:0:0:
86,197,9340,1,0,0:0:0:0:
106,214,9415,1,0,0:0:0:0:
130,223,9490,1,0,0:0:0:0:
156,226,9565,1,0,0:0:0:0:
182,221,9640,1,0,0:0:0:0:
204,220,9715,2,0,L|266:223,7,35,0|0|0|0|0|0|0|2,0:0|0:0|0:0|0:0|0:0|0:0|0:0|0:0,0:0:0:0:
355,130,10540,5,0,0:0:0:0:
334,204,10840,2,0,L|201:268,1,140
117,283,11290,1,0,0:0:0:0:
129,192,11590,2,0,L|199:162,1,70
264,157,12040,1,0,0:0:0:0:
374,164,12340,1,0,0:0:0:0:
53,94,12640,6,0,L|132:120,1,70,0|2,0:1|0:1,0:1:0:0:
256,104,12940,2,0,L|208:178,1,70,0|2,0:1|0:1,0:1:0:0:
178,238,13240,2,0,L|273:246,1,70,0|2,0:1|0:1,0:1:0:0:
349,249,13540,2,0,L|348:163,1,70,0|2,0:1|0:1,0:1:0:0:
255,157,13840,6,0,L|158:145,1,70,0|2,0:1|0:1,0:1:0:0:
76,151,14140,2,0,L|80:242,1,70,0|2,0:1|0:1,0:1:0:0:
171,248,14440,2,0,L|265:265,1,70,0|2,0:1|0:1,0:1:0:0:
357,260,14740,2,0,L|347:163,1,70,0|2,0:1|0:1,0:1:0:0:
252,119,15040,5,2,0:0:0:0:
168,126,15340,2,0,L|123:264,1,140
250,266,15940,1,0,0:0:0:0:
380,268,16090,1,0,0:0:0:0:
394,189,16390,2,0,L|306:146,1,70
256,142,16840,1,0,0:0:0:0:
132,136,17140,1,0,0:0:0:0:
88,289,17440,6,0,L|187:288,1,70,0|2,0:1|0:1,0:1:0:0:
253,284,17740,2,0,L|326:263,1,70,0|2,0:1|0:1,0:1:0:0:
419,246,18040,2,0,L|351:196,1,70,0|2,0:1|0:1,0:1:0:0:
268,188,18340,2,0,L|194:155,1,70,0|2,0:1|0:1,0:1:0:0:
107,249,18790,5,0,0:0:0:0:
184,288,18940,1,0,0:0:0:0:
270,302,19240,2,0,P|344:308|394:238,1,140
57,102,19840,5,0,0:0:0:0:
137,110,20140,2,0,L|255:186,1,140,8|0,0:0|0:0,0:0:0:0:
384,198,20740,1,8,0:0:0:0:
268,304,20890,1,0,0:0:0:0:
104,240,21190,2,0,L|160:168,1,70,0|8,0:0|0:0,0:0:0:0:
256,116,21640,1,0,0:0:0:0:
392,168,21940,1,8,0:0:0:0:
363,236,22240,6,0,L|318:313,1,70,0|2,0:0|0:0,0:0:0:0:
236,306,22540,2,0,L|148:303,1,70,0|2,0:0|0:0,0:0:0:0:
57,231,22840,2,0,L|125:180,1,70,0|2,0:0|0:0,0:0:0:0:
187,178,23140,2,0,L|265:180,1,70,0|2,0:0|0:0,0:0:0:0:
381,191,23440,6,0,L|322:137,1,70,0|2,0:0|0:0,0:0:0:0:
230,122,23740,2,0,L|142:157,1,70,0|2,0:0|0:0,0:0:0:0:
100,208,24040,2,0,L|176:240,1,70,0|2,0:0|0:0,0:0:0:0:
240,305,24340,2,0,L|165:326,1,70,0|2,0:0|0:0,0:0:0:0:
71,80,24640,5,0,0:0:0:0:
146,130,24940,2,0,P|240:152|266:189,1,140,8|0,0:0|0:0,0:0:0:0:
268,269,25540,1,8,0:0:0:0:
361,255,25690,1,0,0:0:0:0:
384,176,25990,2,0,L|303:135,1,70,0|8,0:0|0:0,0:0:0:0:
240,128,26440,1,0,0:0:0:0:
96,128,26740,1,8,0:0:0:0:
81,282,27040,6,0,L|171:282,1,70,0|2,0:0|0:1,0:0:0:0:
259,269,27340,2,0,L|198:206,1,70,0|2,0:0|0:0,0:0:0:0:
252,156,27640,2,0,L|319:125,1,70,0|2,0:0|0:0,0:0:0:0:
361,222,27940,2,0,L|415:279,1,70,0|2,0:0|0:0,0:0:0:0:
301,300,28240,38,0,L|210:299,1,70,0|2,0:0|0:0,0:0:0:0:
132,268,28540,2,0,L|70:197,1,70,0|2,0:0|0:0,0:0:0:0:
142,146,28840,2,0,L|221:106,1,70,0|2,0:0|0:0,0:0:0:0:
268,151,29140,2,0,L|338:196,1,70,0|2,0:0|0:0,0:0:0:0:
64,192,29440,5,0,0:0:0:0:
160,200,29740,2,0,L|300:235,1,140,8|0,0:0|0:0,0:0:0:0:
412,323,30340,2,0,L|408:236,1,70,8|0,0:0|0:0,0:0:0:0:
291,231,30790,1,0,0:0:0:0:
207,228,30940,2,0,L|68:209,1,140,8|0,0:0|0:0,0:0:0:0:
263,99,31540,1,8,0:0:0:0:
37,275,31840,6,0,L|123:228,1,70,0|2,0:0|0:0,0:0:0:0:
173,251,32140,2,0,L|236:298,1,70,0|2,0:0|0:0,0:0:0:0:
322,247,32440,2,0,L|352:321,1,70,0|2,0:0|0:0,0:0:0:0:
472,310,32740,2,0,L|428:256,1,70,0|2,0:0|0:0,0:0:0:0:
354,177,33040,6,0,L|262:135,1,70,0|2,0:0|0:0,0:0:0:0:
143,159,33340,2,0,L|84:211,1,70,0|2,0:0|0:0,0:0:0:0:
112,297,33640,2,0,L|203:313,1,70,0|2,0:0|0:0,0:0:0:0:
274,309,33940,2,0,L|354:252,1,70,0|2,0:0|0:0,0:0:0:0:
83,90,34240,5,0,0:0:0:0:
141,148,34540,2,0,L|268:211,1,140,8|0,0:0|0:0,0:0:0:0:
401,240,35139,2,0,L|397:158,1,70,8|0,0:0|0:0,0:0:0:0:
297,168,35589,1,0,0:0:0:0:
210,177,35739,1,8,0:0:0:0:
132,188,36039,2,0,P|83:222|102:301,1,140,0|8,0:0|0:0,0:0:0:0:
257,304,36640,6,0,L|222:219,1,70,0|2,0:0|0:0,0:0:0:0:
211,153,36940,2,0,L|278:102,1,70,0|2,0:0|0:0,0:0:0:0:
214,62,37240,2,0,L|129:41,1,70,0|2,0:0|0:0,0:0:0:0:
86,118,37540,2,0,L|38:187,1,70,0|2,0:0|0:0,0:0:0:0:
57,289,37840,6,0,L|142:237,1,70,0|2,0:0|0:0,0:0:0:0:
178,215,38139,2,0,L|215:148,1,70,0|2,0:0|0:0,0:0:0:0:
392,58,38439,5,2,0:2:0:0:
415,78,38514,1,2,0:2:0:0:
428,108,38589,1,2,0:2:0:0:
428,139,38664,1,2,0:2:0:0:
414,168,38739,1,2,0:2:0:0:
390,188,38814,1,2,0:2:0:0:
359,196,38889,1,2,0:2:0:0:
80,96,39039,5,2,0:0:0:0:
157,168,39339,1,0,0:0:0:0:
252,172,39640,6,0,P|276:135|375:108,1,140
404,208,40089,1,0,0:0:0:0:
395,298,40389,2,0,L|320:298,1,70,0|0,0:0|0:0,0:0:0:0:
240,304,40689,1,0,0:0:0:0:
176,208,40839,5,0,0:0:0:0:
236,157,41139,2,0,L|360:77,1,140
394,170,41589,5,0,0:0:0:0:
368,246,41740,2,0,L|289:266,1,70
208,256,42039,1,0,0:0:0:0:
94,258,42189,1,0,0:0:0:0:
94,258,42264,1,0,0:0:0:0:
94,258,42339,1,0,0:0:0:0:
87,131,42489,5,0,0:0:0:0:
326,74,42640,2,0,L|330:154,1,70
323,140,42939,2,0,L|224:141,1,70,0|0,0:0|0:0,0:0:0:0:
240,144,43240,2,0,P|182:148|100:215,1,140
35,64,43839,5,2,0:0:0:0:
111,111,44140,2,0,P|164:110|248:138,1,140
316,191,44739,1,0,0:0:0:0:
270,271,44889,2,0,L|199:293,1,70,0|2,0:0|0:0,0:0:0:0:
166,230,45189,6,0,L|135:154,1,70,0|0,0:0|0:0,0:0:0:0:
223,134,45489,2,0,L|302:117,1,70,0|0,0:0|0:0,0:0:0:0:
403,157,45939,2,0,L|320:240,1,105.000004005432,2|0,0:0|0:0,0:0:0:0:
245,251,46239,1,2,0:0:0:0:
107,251,46389,1,0,0:0:0:0:
109,165,46540,2,0,L|106:72,1,78.7500030040742
210,96,46839,5,2,0:0:0:0:
290,97,46989,1,0,0:0:0:0:
290,97,47064,1,2,0:0:0:0:
290,97,47139,1,0,0:0:0:0:
288,192,47289,1,2,0:0:0:0:
256,192,47439,12,0,48640,0:0:0:0:
44,77,48939,5,8,0:0:0:0:
96,144,49239,1,0,0:0:0:0:
143,209,49539,2,0,L|211:246,1,70,8|0,0:0|0:0,0:0:0:0:
256,176,49989,1,0,0:0:0:0:
336,176,50139,1,8,0:0:0:0:
323,255,50290,6,0,L|250:296,1,70
389,195,50739,1,2,0:0:0:0:
392,273,51039,6,0,L|279:300,1,105.000004005432,0|0,0:0|0:0,0:0:0:0:
289,297,51339,2,0,L|216:209,1,105.000004005432,8|0,0:0|0:0,0:0:0:0:
184,146,51639,1,0,0:0:0:0:
59,99,51789,1,0,0:0:0:0:
59,99,51864,1,0,0:0:0:0:
59,99,51939,1,8,0:0:0:0:
153,86,52089,1,0,0:0:0:0:
229,122,52240,6,0,L|317:183,1,105.000004005432
315,181,52540,2,0,L|219:253,1,105.000004005432
232,244,52840,2,0,L|455:323,1,210.000008010865
42,91,53439,5,0,0:0:0:0:
132,149,53739,1,8,0:0:0:0:
208,192,54040,1,0,0:0:0:0:
295,219,54339,2,0,L|203:311,1,105.000004005432,8|0,0:0|0:0,0:0:0:0:
204,314,54790,2,0,L|112:254,1,105.000004005432,0|8,0:0|0:0,0:0:0:0:
144,160,55090,1,0,0:0:0:0:
240,144,55240,1,0,0:0:0:0:
320,144,55390,2,0,P|330:178|268:251,1,105.000004005432,0|2,0:0|0:0,0:0:0:0:
229,284,55840,6,0,L|114:226,1,105.000004005432,2|0,0:0|0:0,0:0:0:0:
126,143,56140,1,8,0:0:0:0:
206,108,56290,2,0,L|317:106,1,105.000004005432,0|2,0:0|0:0,0:0:0:0:
412,120,56590,1,0,0:0:0:0:
412,120,56665,1,0,0:0:0:0:
412,120,56740,1,8,0:0:0:0:
412,222,56890,1,0,0:0:0:0:
256,192,57189,12,0,58239,0:0:0:0:
67,86,58539,5,8,0:0:0:0:
141,151,58840,2,0,P|170:147|281:176,1,140,0|8,0:0|0:0,0:0:0:0:
176,257,59289,1,0,0:0:0:0:
276,173,59589,2,0,L|204:127,1,70,0|8,0:0|0:0,0:0:0:0:
226,140,59889,2,0,L|303:100,1,70
415,123,60339,1,8,0:0:0:0:
417,206,60640,6,0,L|335:216,1,70
262,231,60939,2,0,L|200:178,1,70,8|0,0:0|0:0,0:0:0:0:
67,77,61240,1,0,0:0:0:0:
158,82,61389,1,0,0:0:0:0:
158,82,61464,1,0,0:0:0:0:
158,82,61539,1,8,0:0:0:0:
254,78,61690,1,0,0:0:0:0:
370,174,61840,6,2,L|301:222,1,70
312,213,62139,2,0,L|367:272,1,70,8|0,0:0|0:0,0:0:0:0:
359,265,62439,2,2,L|216:319,1,140
78,97,63039,5,0,0:0:0:0:
153,177,63339,2,0,P|191:121|271:97,1,140,8|0,0:0|0:0,0:0:0:0:
324,205,63940,2,0,L|406:225,1,70,8|0,0:0|0:0,0:0:0:0:
391,314,64389,6,0,L|288:313,1,70,0|8,0:0|0:0,0:0:0:0:
321,313,64689,2,0,L|321:221,1,70
321,243,64990,2,0,L|226:227,1,70,0|2,0:0|0:0,0:0:0:0:
131,243,65439,6,0,L|133:159,1,70
226,146,65739,1,0,0:0:0:0:
307,162,65890,2,0,L|308:256,1,70
235,281,66189,1,0,0:0:0:0:
235,281,66264,1,0,0:0:0:0:
235,281,66339,1,0,0:0:0:0:
316,296,66489,1,0,0:0:0:0:
52,124,66639,6,0,B|245:22|245:22|243:29,2,210
66,116,67839,6,0,L|123:169,2,70
194,150,68290,2,0,L|193:231,2,70
285,154,68739,2,0,L|373:150,1,70
256,64,69039,5,0,0:0:0:0:
96,256,69489,1,0,0:0:0:0:
400,272,69939,1,0,0:0:0:0:
64,97,70239,6,0,L|85:172,2,70
262,97,70689,2,0,L|214:153,2,70
194,254,71139,2,0,L|291:253,1,70
253,325,71439,5,0,0:0:0:0:
48,80,71889,1,0,0:0:0:0:
368,96,72339,1,0,0:0:0:0:
254,83,72639,6,0,L|185:131,2,70
176,202,73089,2,0,L|254:221,2,70
247,290,73540,2,0,L|172:293,1,70
61,87,73839,5,0,0:0:0:0:
448,320,74289,1,0,0:0:0:0:
432,80,74739,1,0,0:0:0:0:
196,122,75039,6,0,L|254:83,2,70
182,214,75489,2,0,L|113:197,2,70
177,292,75939,2,0,L|247:290,1,70
48,320,76239,5,0,0:0:0:0:
432,48,76689,1,0,0:0:0:0:
432,288,77139,1,0,0:0:0:0:
268,71,77440,6,0,L|201:135,2,70
272,192,77890,2,0,L|348:248,2,70
261,265,78340,2,0,L|170:269,2,70
256,336,79090,5,0,0:0:0:0:
416,192,79539,1,0,0:0:0:0:
262,125,79839,6,0,L|319:85,2,70
176,202,80289,2,0,L|254:221,2,70
175,290,80739,2,0,L|245:288,1,70
256,96,81039,5,0,0:0:0:0:
80,320,81489,1,0,0:0:0:0:
416,320,81939,1,0,0:0:0:0:
254,83,82239,6,0,L|185:131,2,70
176,202,82689,2,0,L|254:221,2,70
247,290,83140,2,0,L|172:293,1,70
61,87,83439,5,0,0:0:0:0:
448,320,83889,1,0,0:0:0:0:
432,80,84339,1,0,0:0:0:0:
253,83,84639,6,0,L|184:131,2,70
176,202,85089,2,0,L|254:221,2,70
247,290,85540,2,0,L|172:293,1,70
256,64,85840,5,0,0:0:0:0:
448,320,86289,1,0,0:0:0:0:
48,320,86739,1,0,0:0:0:0:
344,31,87565,6,0,B|144:32|144:192|400:192|400:320|97:320,1,558.250017036439
