osu file format v14

[General]
AudioFilename: audio.mp3
AudioLeadIn: 0
PreviewTime: 52461
Countdown: 0
SampleSet: Normal
StackLeniency: 1
Mode: 1
LetterboxInBreaks: 0
WidescreenStoryboard: 0

[Editor]
Bookmarks: 17883,143666
DistanceSpacing: 0.6
BeatDivisor: 3
GridSize: 32
TimelineZoom: 1

[Metadata]
Title:Ningen ga Daisuki na Kowareta Youkai no Uta
TitleUnicode:人間が大好きなこわれた妖怪の唄
Artist:beatMARIO
ArtistUnicode:ビートまりお
Creator:Vulkin
Version:Spiritual Trascendance
Source:東方風神録 ~ Mountain of Faith
Tags:CCCD-0014 Super Shutter Girl スーパーシャッターガール 博麗神社例大祭 Hakurei Shrine Jinja Reitaisai 5 COOL&CREATE myu314 芥川龍之介の河童 ~ Candid Friend Akutagawa Ryuunosuke Ryuunosuke's no "Kappa" Stage 3 河城 にとり Kawashiro Nitori Kappa Wind God Chronicles Fuujinroku 東方Project Touhou Team Shanghai Alice Fantasy Band Gengakudan 上海アリス幻樂団 ZUN The Song of a Broken Youkai Who Loved a Human
BeatmapID:1813882
BeatmapSetID:867715

[Difficulty]
HPDrainRate:5
CircleSize:7
OverallDifficulty:6
ApproachRate:10
SliderMultiplier:1.4
SliderTickRate:1

[Events]
//Background and Video events
0,0,"Kawashiro.Nitori.full.186112.jpg",0,100
//Break Periods
//Storyboard Layer 0 (Background)
//Storyboard Layer 1 (Fail)
//Storyboard Layer 2 (Pass)
//Storyboard Layer 3 (Foreground)
//Storyboard Sound Samples

[TimingPoints]
534,361.44578313253,3,1,0,40,1,0
91618,-100,3,1,0,60,0,0
178003,-100,3,1,0,30,0,0
212943,-100,3,1,0,40,0,0
230052,-100,3,1,0,70,0,0
276678,-100,3,1,0,20,0,0

[HitObjects]
256,192,534,5,0,0:0:0:0:
256,192,895,1,8,0:0:0:0:
256,192,1979,1,8,0:0:0:0:
256,192,2943,1,0,0:0:0:0:
256,192,3064,1,8,0:0:0:0:
256,192,3666,1,8,0:0:0:0:
256,192,3787,1,8,0:0:0:0:
256,192,4148,1,8,0:0:0:0:
256,192,4871,1,0,0:0:0:0:
256,192,5232,1,8,0:0:0:0:
256,192,6317,1,8,0:0:0:0:
256,192,7040,1,0,0:0:0:0:
256,192,7401,1,8,0:0:0:0:
256,192,7762,1,8,0:0:0:0:
256,192,8124,1,0,0:0:0:0:
256,192,9208,1,0,0:0:0:0:
256,192,9570,1,8,0:0:0:0:
256,192,10654,1,8,0:0:0:0:
256,192,11618,1,0,0:0:0:0:
256,192,11738,1,8,0:0:0:0:
256,192,12341,1,8,0:0:0:0:
256,192,12461,1,8,0:0:0:0:
256,192,12823,1,0,0:0:0:0:
256,192,13546,1,0,0:0:0:0:
256,192,13907,1,8,0:0:0:0:
256,192,14991,1,8,0:0:0:0:
256,192,15955,1,0,0:0:0:0:
256,192,16076,1,8,0:0:0:0:
256,192,16437,1,0,0:0:0:0:
256,192,16799,1,8,0:0:0:0:
256,192,17160,1,8,0:0:0:0:
256,192,17883,1,0,0:0:0:0:
256,192,18244,1,8,0:0:0:0:
256,192,18847,1,0,0:0:0:0:
256,192,18967,1,0,0:0:0:0:
256,192,19329,1,8,0:0:0:0:
256,192,20052,1,0,0:0:0:0:
256,192,20413,1,8,0:0:0:0:
256,192,21015,1,8,0:0:0:0:
256,192,21136,1,0,0:0:0:0:
256,192,21497,1,8,0:0:0:0:
256,192,21738,1,0,0:0:0:0:
256,192,22100,1,0,0:0:0:0:
256,192,22220,1,0,0:0:0:0:
256,192,22582,1,8,0:0:0:0:
256,192,23184,1,8,0:0:0:0:
256,192,23305,1,0,0:0:0:0:
256,192,23666,1,8,0:0:0:0:
256,192,24027,1,8,0:0:0:0:
256,192,24389,1,0,0:0:0:0:
256,192,24750,1,8,0:0:0:0:
256,192,25112,1,8,0:0:0:0:
256,192,25473,1,0,0:0:0:0:
256,192,25835,1,8,0:0:0:0:
256,192,26558,1,0,0:0:0:0:
256,192,26919,1,8,0:0:0:0:
256,192,27522,1,0,0:0:0:0:
256,192,27642,1,0,0:0:0:0:
256,192,28004,1,8,0:0:0:0:
256,192,28727,1,0,0:0:0:0:
256,192,29088,1,8,0:0:0:0:
256,192,29690,1,8,0:0:0:0:
256,192,29811,1,0,0:0:0:0:
256,192,30172,1,8,0:0:0:0:
256,192,30413,1,0,0:0:0:0:
256,192,30775,1,0,0:0:0:0:
256,192,30895,1,0,0:0:0:0:
256,192,31257,1,8,0:0:0:0:
256,192,31859,1,8,0:0:0:0:
256,192,31980,1,0,0:0:0:0:
256,192,32341,1,8,0:0:0:0:
256,192,32702,1,8,0:0:0:0:
256,192,33064,1,0,0:0:0:0:
256,192,33425,1,8,0:0:0:0:
256,192,33787,1,8,0:0:0:0:
256,192,34148,1,0,0:0:0:0:
256,192,34510,1,8,0:0:0:0:
256,192,35232,1,0,0:0:0:0:
256,192,35955,1,0,0:0:0:0:
256,192,36317,1,8,0:0:0:0:
256,192,37401,1,0,0:0:0:0:
256,192,38124,1,0,0:0:0:0:
256,192,38485,1,8,0:0:0:0:
256,192,38847,1,0,0:0:0:0:
256,192,39208,1,8,0:0:0:0:
256,192,39570,1,0,0:0:0:0:
256,192,40293,1,0,0:0:0:0:
256,192,40654,1,8,0:0:0:0:
256,192,41738,1,0,0:0:0:0:
256,192,42461,1,0,0:0:0:0:
256,192,42823,1,8,0:0:0:0:
256,192,43184,1,8,0:0:0:0:
256,192,43546,1,8,0:0:0:0:
256,192,43907,1,0,0:0:0:0:
256,192,44991,1,8,0:0:0:0:
256,192,46076,1,0,0:0:0:0:
256,192,46437,1,8,0:0:0:0:
256,192,47160,1,0,0:0:0:0:
256,192,47521,1,8,0:0:0:0:
256,192,47883,1,8,0:0:0:0:
256,192,48244,1,0,0:0:0:0:
256,192,48606,1,8,0:0:0:0:
256,192,49329,1,0,0:0:0:0:
256,192,49690,1,8,0:0:0:0:
256,192,50413,1,0,0:0:0:0:
256,192,50774,1,0,0:0:0:0:
256,192,51015,1,8,0:0:0:0:
256,192,51136,1,0,0:0:0:0:
256,192,51497,1,12,0:0:0:0:
256,192,51859,1,12,0:0:0:0:
256,192,52582,1,0,0:0:0:0:
256,192,52943,1,8,0:0:0:0:
256,192,53546,1,0,0:0:0:0:
256,192,53666,1,0,0:0:0:0:
256,192,54027,1,8,0:0:0:0:
256,192,54630,1,8,0:0:0:0:
256,192,54750,1,0,0:0:0:0:
256,192,55112,1,8,0:0:0:0:
256,192,55353,1,0,0:0:0:0:
256,192,55714,1,0,0:0:0:0:
256,192,55835,1,0,0:0:0:0:
256,192,56076,1,0,0:0:0:0:
256,192,56196,1,8,0:0:0:0:
256,192,56558,1,8,0:0:0:0:
256,192,56799,1,8,0:0:0:0:
256,192,56919,1,0,0:0:0:0:
256,192,57280,1,8,0:0:0:0:
256,192,57883,1,8,0:0:0:0:
256,192,58003,1,0,0:0:0:0:
256,192,58365,1,8,0:0:0:0:
256,192,58967,1,0,0:0:0:0:
256,192,59088,1,0,0:0:0:0:
256,192,59449,1,8,0:0:0:0:
256,192,60052,1,8,0:0:0:0:
256,192,60172,1,0,0:0:0:0:
256,192,60533,1,8,0:0:0:0:
256,192,60654,1,0,0:0:0:0:
256,192,60774,1,0,0:0:0:0:
256,192,60895,1,8,0:0:0:0:
256,192,61256,1,0,0:0:0:0:
256,192,61618,1,8,0:0:0:0:
256,192,61859,1,8,0:0:0:0:
256,192,62220,1,8,0:0:0:0:
256,192,62341,1,0,0:0:0:0:
256,192,62702,1,8,0:0:0:0:
256,192,63064,1,8,0:0:0:0:
256,192,63425,1,0,0:0:0:0:
256,192,63787,1,8,0:0:0:0:
256,192,64027,1,0,0:0:0:0:
256,192,64389,1,8,0:0:0:0:
256,192,64509,1,0,0:0:0:0:
256,192,64750,1,0,0:0:0:0:
256,192,64871,1,8,0:0:0:0:
256,192,65232,1,8,0:0:0:0:
256,192,65594,1,0,0:0:0:0:
256,192,65955,1,8,0:0:0:0:
256,192,66558,1,8,0:0:0:0:
256,192,66678,1,0,0:0:0:0:
256,192,67040,1,8,0:0:0:0:
256,192,67401,1,8,0:0:0:0:
256,192,67762,1,0,0:0:0:0:
256,192,68485,1,8,0:0:0:0:
256,192,68847,1,0,0:0:0:0:
256,192,69931,1,0,0:0:0:0:
256,192,70293,1,8,0:0:0:0:
256,192,70533,1,0,0:0:0:0:
256,192,70654,1,8,0:0:0:0:
256,192,71015,1,0,0:0:0:0:
256,192,71377,1,8,0:0:0:0:
256,192,71618,1,8,0:0:0:0:
256,192,71738,1,8,0:0:0:0:
256,192,71979,1,0,0:0:0:0:
256,192,72100,1,8,0:0:0:0:
256,192,72461,1,0,0:0:0:0:
256,192,72702,1,8,0:0:0:0:
256,192,73064,1,0,0:0:0:0:
256,192,73184,1,8,0:0:0:0:
256,192,73546,1,8,0:0:0:0:
256,192,73787,1,0,0:0:0:0:
256,192,73907,1,8,0:0:0:0:
256,192,74148,1,8,0:0:0:0:
256,192,74268,1,0,0:0:0:0:
256,192,74630,1,8,0:0:0:0:
256,192,74871,1,0,0:0:0:0:
256,192,75232,1,8,0:0:0:0:
256,192,75353,1,0,0:0:0:0:
256,192,75594,1,0,0:0:0:0:
256,192,75714,1,8,0:0:0:0:
256,192,75955,1,8,0:0:0:0:
256,192,76076,1,0,0:0:0:0:
256,192,76317,1,0,0:0:0:0:
256,192,76437,1,8,0:0:0:0:
256,192,76799,1,0,0:0:0:0:
256,192,77160,1,8,0:0:0:0:
256,192,77401,1,8,0:0:0:0:
256,192,77521,1,0,0:0:0:0:
256,192,77762,1,0,0:0:0:0:
256,192,77883,1,8,0:0:0:0:
256,192,78244,1,0,0:0:0:0:
256,192,78606,1,8,0:0:0:0:
256,192,78967,1,0,0:0:0:0:
256,192,79208,1,0,0:0:0:0:
256,192,79570,1,0,0:0:0:0:
256,192,79690,1,8,0:0:0:0:
256,192,80052,1,0,0:0:0:0:
256,192,80413,1,8,0:0:0:0:
256,192,80774,1,0,0:0:0:0:
256,192,81136,1,0,0:0:0:0:
256,192,81497,1,8,0:0:0:0:
256,192,81738,1,0,0:0:0:0:
256,192,81859,1,8,0:0:0:0:
256,192,82100,1,8,0:0:0:0:
256,192,82220,1,0,0:0:0:0:
256,192,82943,1,8,0:0:0:0:
256,192,83305,1,0,0:0:0:0:
256,192,83546,1,0,0:0:0:0:
256,192,83666,1,8,0:0:0:0:
256,192,84027,1,8,0:0:0:0:
256,192,84389,1,0,0:0:0:0:
256,192,84750,1,8,0:0:0:0:
256,192,85112,1,0,0:0:0:0:
256,192,85835,1,8,0:0:0:0:
256,192,86196,1,0,0:0:0:0:
256,192,87280,1,0,0:0:0:0:
256,192,88365,1,8,0:0:0:0:
256,192,89449,1,0,0:0:0:0:
256,192,90533,1,0,0:0:0:0:
256,192,91618,1,0,0:0:0:0:
256,192,91979,1,8,0:0:0:0:
256,192,92582,1,8,0:0:0:0:
256,192,92702,1,0,0:0:0:0:
256,192,93064,1,8,0:0:0:0:
256,192,93666,1,0,0:0:0:0:
256,192,93787,1,0,0:0:0:0:
256,192,94148,1,8,0:0:0:0:
256,192,94509,1,8,0:0:0:0:
256,192,94871,1,0,0:0:0:0:
256,192,95955,1,0,0:0:0:0:
256,192,96317,1,8,0:0:0:0:
256,192,96919,1,0,0:0:0:0:
256,192,97040,1,0,0:0:0:0:
256,192,97401,1,8,0:0:0:0:
256,192,98003,1,8,0:0:0:0:
256,192,98124,1,0,0:0:0:0:
256,192,98485,1,8,0:0:0:0:
256,192,98847,1,8,0:0:0:0:
256,192,99208,1,0,0:0:0:0:
256,192,100172,1,8,0:0:0:0:
256,192,100293,1,0,0:0:0:0:
256,192,100654,1,8,0:0:0:0:
256,192,101256,1,0,0:0:0:0:
256,192,101377,1,0,0:0:0:0:
256,192,101738,1,8,0:0:0:0:
256,192,102341,1,8,0:0:0:0:
256,192,102461,1,0,0:0:0:0:
256,192,102823,1,8,0:0:0:0:
256,192,103425,1,0,0:0:0:0:
256,192,103546,1,0,0:0:0:0:
256,192,103787,1,0,0:0:0:0:
256,192,103907,1,8,0:0:0:0:
256,192,104268,1,8,0:0:0:0:
256,192,104630,1,0,0:0:0:0:
256,192,104991,1,8,0:0:0:0:
256,192,105594,1,8,0:0:0:0:
256,192,105714,1,0,0:0:0:0:
256,192,106076,1,8,0:0:0:0:
256,192,106678,1,0,0:0:0:0:
256,192,106799,1,0,0:0:0:0:
256,192,107040,1,8,0:0:0:0:
256,192,107160,1,0,0:0:0:0:
256,192,107401,1,0,0:0:0:0:
256,192,107521,1,8,0:0:0:0:
256,192,107883,1,0,0:0:0:0:
256,192,108124,1,0,0:0:0:0:
256,192,108244,1,8,0:0:0:0:
256,192,108606,1,8,0:0:0:0:
256,192,108967,1,4,0:0:0:0:
256,192,109329,1,8,0:0:0:0:
256,192,109931,1,0,0:0:0:0:
256,192,110052,1,0,0:0:0:0:
256,192,110413,1,8,0:0:0:0:
256,192,111136,1,0,0:0:0:0:
256,192,111497,1,8,0:0:0:0:
256,192,112100,1,8,0:0:0:0:
256,192,112220,1,0,0:0:0:0:
256,192,112582,1,0,0:0:0:0:
256,192,113305,1,0,0:0:0:0:
256,192,113666,1,8,0:0:0:0:
256,192,114268,1,0,0:0:0:0:
256,192,114389,1,0,0:0:0:0:
256,192,114750,1,8,0:0:0:0:
256,192,115473,1,0,0:0:0:0:
256,192,115835,1,8,0:0:0:0:
256,192,116437,1,8,0:0:0:0:
256,192,116558,1,0,0:0:0:0:
256,192,116799,1,0,0:0:0:0:
256,192,116919,1,8,0:0:0:0:
256,192,117280,1,8,0:0:0:0:
256,192,117642,1,0,0:0:0:0:
256,192,118003,1,8,0:0:0:0:
256,192,118606,1,0,0:0:0:0:
256,192,118726,1,0,0:0:0:0:
256,192,119088,1,8,0:0:0:0:
256,192,119811,1,0,0:0:0:0:
256,192,120172,1,8,0:0:0:0:
256,192,120774,1,8,0:0:0:0:
256,192,120895,1,0,0:0:0:0:
256,192,121256,1,8,0:0:0:0:
256,192,121618,1,8,0:0:0:0:
256,192,121979,1,0,0:0:0:0:
256,192,122341,1,8,0:0:0:0:
256,192,122943,1,0,0:0:0:0:
256,192,123064,1,0,0:0:0:0:
256,192,123425,1,8,0:0:0:0:
256,192,124148,1,0,0:0:0:0:
256,192,124509,1,8,0:0:0:0:
256,192,125112,1,8,0:0:0:0:
256,192,125232,1,0,0:0:0:0:
256,192,125473,1,0,0:0:0:0:
256,192,125594,1,8,0:0:0:0:
256,192,125835,1,8,0:0:0:0:
256,192,125955,1,8,0:0:0:0:
256,192,126076,1,0,0:0:0:0:
256,192,126196,1,8,0:0:0:0:
256,192,126317,1,0,0:0:0:0:
256,192,127040,1,0,0:0:0:0:
256,192,127401,1,8,0:0:0:0:
256,192,128124,1,8,0:0:0:0:
256,192,128485,1,0,0:0:0:0:
256,192,129570,1,8,0:0:0:0:
256,192,130654,1,0,0:0:0:0:
256,192,131377,1,0,0:0:0:0:
256,192,131738,1,8,0:0:0:0:
256,192,132461,1,8,0:0:0:0:
256,192,132823,1,0,0:0:0:0:
256,192,133064,1,8,0:0:0:0:
256,192,133546,1,0,0:0:0:0:
256,192,133907,1,8,0:0:0:0:
256,192,134268,1,0,0:0:0:0:
256,192,134389,1,8,0:0:0:0:
256,192,134509,1,8,0:0:0:0:
256,192,134630,1,0,0:0:0:0:
256,192,134991,1,0,0:0:0:0:
256,192,135353,1,8,0:0:0:0:
256,192,136076,1,8,0:0:0:0:
256,192,136437,1,0,0:0:0:0:
256,192,137160,1,0,0:0:0:0:
256,192,138244,1,8,0:0:0:0:
256,192,139329,1,0,0:0:0:0:
256,192,139690,1,8,0:0:0:0:
256,192,140413,1,8,0:0:0:0:
256,192,140774,1,0,0:0:0:0:
256,192,141136,1,8,0:0:0:0:
256,192,141497,1,0,0:0:0:0:
256,192,141859,1,0,0:0:0:0:
256,192,142100,1,8,0:0:0:0:
256,192,142220,1,8,0:0:0:0:
256,192,142341,1,0,0:0:0:0:
256,192,142461,1,0,0:0:0:0:
256,192,142582,1,12,0:0:0:0:
256,192,142943,1,12,0:0:0:0:
256,192,143666,1,4,0:0:0:0:
256,192,144027,1,8,0:0:0:0:
256,192,144268,1,0,0:0:0:0:
256,192,144389,1,8,0:0:0:0:
256,192,144750,1,0,0:0:0:0:
256,192,145112,1,8,0:0:0:0:
256,192,145353,1,8,0:0:0:0:
256,192,145473,1,8,0:0:0:0:
256,192,145714,1,0,0:0:0:0:
256,192,145835,1,8,0:0:0:0:
256,192,146196,1,8,0:0:0:0:
256,192,146437,1,0,0:0:0:0:
256,192,146799,1,8,0:0:0:0:
256,192,146919,1,0,0:0:0:0:
256,192,147280,1,8,0:0:0:0:
256,192,147521,1,0,0:0:0:0:
256,192,147642,1,8,0:0:0:0:
256,192,147883,1,8,0:0:0:0:
256,192,148003,1,0,0:0:0:0:
256,192,148365,1,8,0:0:0:0:
256,192,148606,1,8,0:0:0:0:
256,192,148967,1,8,0:0:0:0:
256,192,149088,1,0,0:0:0:0:
256,192,149449,1,8,0:0:0:0:
256,192,149811,1,8,0:0:0:0:
256,192,150052,1,8,0:0:0:0:
256,192,150172,1,0,0:0:0:0:
256,192,150533,1,8,0:0:0:0:
256,192,151136,1,8,0:0:0:0:
256,192,151256,1,0,0:0:0:0:
256,192,151497,1,0,0:0:0:0:
256,192,151618,1,8,0:0:0:0:
256,192,151738,1,0,0:0:0:0:
256,192,151859,1,0,0:0:0:0:
256,192,151979,1,8,0:0:0:0:
256,192,152341,1,0,0:0:0:0:
256,192,152702,1,8,0:0:0:0:
256,192,152943,1,0,0:0:0:0:
256,192,153305,1,0,0:0:0:0:
256,192,153425,1,8,0:0:0:0:
256,192,153787,1,0,0:0:0:0:
256,192,154148,1,8,0:0:0:0:
256,192,154509,1,0,0:0:0:0:
256,192,154871,1,8,0:0:0:0:
256,192,155112,1,0,0:0:0:0:
256,192,155473,1,8,0:0:0:0:
256,192,155594,1,0,0:0:0:0:
256,192,155835,1,0,0:0:0:0:
256,192,155955,1,8,0:0:0:0:
256,192,156196,1,8,0:0:0:0:
256,192,156317,1,8,0:0:0:0:
256,192,156437,1,0,0:0:0:0:
256,192,156558,1,0,0:0:0:0:
256,192,156678,1,8,0:0:0:0:
256,192,157040,1,8,0:0:0:0:
256,192,157642,1,8,0:0:0:0:
256,192,157762,1,0,0:0:0:0:
256,192,158124,1,8,0:0:0:0:
256,192,158726,1,0,0:0:0:0:
256,192,158847,1,8,0:0:0:0:
256,192,159570,1,0,0:0:0:0:
256,192,159931,1,8,0:0:0:0:
256,192,160172,1,0,0:0:0:0:
256,192,160533,1,0,0:0:0:0:
256,192,160654,1,8,0:0:0:0:
256,192,160774,1,0,0:0:0:0:
256,192,160895,1,0,0:0:0:0:
256,192,161015,1,8,0:0:0:0:
256,192,161377,1,0,0:0:0:0:
256,192,161618,1,8,0:0:0:0:
256,192,161738,1,8,0:0:0:0:
256,192,162100,1,8,0:0:0:0:
256,192,162461,1,0,0:0:0:0:
256,192,162702,1,8,0:0:0:0:
256,192,162823,1,8,0:0:0:0:
256,192,163184,1,8,0:0:0:0:
256,192,163546,1,0,0:0:0:0:
256,192,163787,1,0,0:0:0:0:
256,192,164148,1,0,0:0:0:0:
256,192,164268,1,8,0:0:0:0:
256,192,164630,1,8,0:0:0:0:
256,192,164871,1,0,0:0:0:0:
256,192,164991,1,8,0:0:0:0:
256,192,165232,1,0,0:0:0:0:
256,192,165353,1,8,0:0:0:0:
256,192,165714,1,8,0:0:0:0:
256,192,165955,1,0,0:0:0:0:
256,192,166317,1,0,0:0:0:0:
256,192,166437,1,8,0:0:0:0:
256,192,166799,1,8,0:0:0:0:
256,192,167160,1,0,0:0:0:0:
256,192,167521,1,8,0:0:0:0:
256,192,167762,1,0,0:0:0:0:
256,192,167883,1,0,0:0:0:0:
256,192,168244,1,0,0:0:0:0:
256,192,168485,1,0,0:0:0:0:
256,192,168606,1,8,0:0:0:0:
256,192,168847,1,0,0:0:0:0:
256,192,168967,1,8,0:0:0:0:
256,192,169088,1,0,0:0:0:0:
256,192,169208,1,0,0:0:0:0:
256,192,169329,1,8,0:0:0:0:
256,192,169690,1,8,0:0:0:0:
256,192,170052,1,8,0:0:0:0:
256,192,170293,1,0,0:0:0:0:
256,192,170654,1,0,0:0:0:0:
256,192,170774,1,8,0:0:0:0:
256,192,171136,1,0,0:0:0:0:
256,192,171497,1,8,0:0:0:0:
256,192,171859,1,0,0:0:0:0:
256,192,172220,1,8,0:0:0:0:
256,192,172461,1,0,0:0:0:0:
256,192,172823,1,0,0:0:0:0:
256,192,172943,1,8,0:0:0:0:
256,192,173184,1,8,0:0:0:0:
256,192,173305,1,0,0:0:0:0:
256,192,173546,1,0,0:0:0:0:
256,192,173666,1,8,0:0:0:0:
256,192,173787,1,8,0:0:0:0:
256,192,173907,1,8,0:0:0:0:
256,192,174027,1,0,0:0:0:0:
256,192,174389,1,8,0:0:0:0:
256,192,174991,1,8,0:0:0:0:
256,192,175112,1,0,0:0:0:0:
256,192,175473,1,8,0:0:0:0:
256,192,175835,1,8,0:0:0:0:
256,192,176196,1,0,0:0:0:0:
256,192,176919,1,0,0:0:0:0:
256,192,177280,1,8,0:0:0:0:
256,192,178365,1,0,0:0:0:0:
256,192,180533,1,0,0:0:0:0:
256,192,181618,1,8,0:0:0:0:
256,192,182702,1,0,0:0:0:0:
256,192,184871,1,8,0:0:0:0:
256,192,187040,1,0,0:0:0:0:
256,192,189208,1,0,0:0:0:0:
256,192,190293,1,8,0:0:0:0:
256,192,191377,1,0,0:0:0:0:
256,192,193546,1,0,0:0:0:0:
256,192,194630,1,0,0:0:0:0:
256,192,195714,1,0,0:0:0:0:
256,192,196799,1,8,0:0:0:0:
256,192,200052,1,0,0:0:0:0:
256,192,201136,1,0,0:0:0:0:
256,192,202220,1,8,0:0:0:0:
256,192,203305,1,0,0:0:0:0:
256,192,204389,1,8,0:0:0:0:
256,192,205473,1,0,0:0:0:0:
256,192,206558,1,8,0:0:0:0:
256,192,207642,1,0,0:0:0:0:
256,192,208726,1,0,0:0:0:0:
256,192,210895,1,0,0:0:0:0:
256,192,211979,1,8,0:0:0:0:
256,192,212341,1,0,0:0:0:0:
256,192,212702,1,0,0:0:0:0:
256,192,213064,1,8,0:0:0:0:
256,192,213425,1,8,0:0:0:0:
256,192,214027,1,0,0:0:0:0:
256,192,214148,1,0,0:0:0:0:
256,192,214509,1,8,0:0:0:0:
256,192,215232,1,0,0:0:0:0:
256,192,215594,1,8,0:0:0:0:
256,192,216196,1,0,0:0:0:0:
256,192,216317,1,0,0:0:0:0:
256,192,216678,1,8,0:0:0:0:
256,192,217040,1,8,0:0:0:0:
256,192,217401,1,0,0:0:0:0:
256,192,217762,1,8,0:0:0:0:
256,192,218365,1,0,0:0:0:0:
256,192,218485,1,0,0:0:0:0:
256,192,218847,1,8,0:0:0:0:
256,192,219570,1,0,0:0:0:0:
256,192,219931,1,8,0:0:0:0:
256,192,220293,1,8,0:0:0:0:
256,192,220654,1,0,0:0:0:0:
256,192,220774,1,0,0:0:0:0:
256,192,220895,1,8,0:0:0:0:
256,192,221015,1,8,0:0:0:0:
256,192,221256,1,8,0:0:0:0:
256,192,221377,1,0,0:0:0:0:
256,192,221618,1,0,0:0:0:0:
256,192,221738,1,8,0:0:0:0:
256,192,222100,1,8,0:0:0:0:
256,192,222702,1,0,0:0:0:0:
256,192,222823,1,0,0:0:0:0:
256,192,223184,1,8,0:0:0:0:
256,192,223787,1,8,0:0:0:0:
256,192,223907,1,0,0:0:0:0:
256,192,224268,1,8,0:0:0:0:
256,192,224991,1,0,0:0:0:0:
256,192,225353,1,8,0:0:0:0:
256,192,225714,1,8,0:0:0:0:
256,192,226076,1,0,0:0:0:0:
256,192,226437,1,8,0:0:0:0:
256,192,227040,1,0,0:0:0:0:
256,192,227160,1,0,0:0:0:0:
256,192,227401,1,8,0:0:0:0:
256,192,227521,1,0,0:0:0:0:
256,192,227762,1,0,0:0:0:0:
256,192,227883,1,8,0:0:0:0:
256,192,228003,1,8,0:0:0:0:
256,192,228124,1,8,0:0:0:0:
256,192,228244,1,0,0:0:0:0:
256,192,228606,1,0,0:0:0:0:
256,192,228847,1,8,0:0:0:0:
256,192,228967,1,0,0:0:0:0:
256,192,229208,1,0,0:0:0:0:
256,192,229329,1,12,0:0:0:0:
256,192,229690,1,12,0:0:0:0:
256,192,230413,1,4,0:0:0:0:
256,192,231497,1,12,0:0:0:0:
256,192,232582,1,4,0:0:0:0:
256,192,233666,1,12,0:0:0:0:
256,192,234027,1,12,0:0:0:0:
256,192,234750,1,0,0:0:0:0:
256,192,235112,1,8,0:0:0:0:
256,192,235353,1,0,0:0:0:0:
256,192,235714,1,0,0:0:0:0:
256,192,235835,1,8,0:0:0:0:
256,192,236196,1,0,0:0:0:0:
256,192,236437,1,8,0:0:0:0:
256,192,236558,1,0,0:0:0:0:
256,192,236799,1,0,0:0:0:0:
256,192,236919,1,8,0:0:0:0:
256,192,237280,1,0,0:0:0:0:
256,192,237521,1,8,0:0:0:0:
256,192,237642,1,8,0:0:0:0:
256,192,237883,1,8,0:0:0:0:
256,192,238003,1,0,0:0:0:0:
256,192,238124,1,0,0:0:0:0:
256,192,238244,1,0,0:0:0:0:
256,192,238365,1,8,0:0:0:0:
256,192,238726,1,8,0:0:0:0:
256,192,239088,1,0,0:0:0:0:
256,192,239449,1,8,0:0:0:0:
256,192,239690,1,8,0:0:0:0:
256,192,239811,1,0,0:0:0:0:
256,192,240052,1,0,0:0:0:0:
256,192,240172,1,8,0:0:0:0:
256,192,240533,1,0,0:0:0:0:
256,192,240774,1,8,0:0:0:0:
256,192,240895,1,0,0:0:0:0:
256,192,241136,1,0,0:0:0:0:
256,192,241256,1,8,0:0:0:0:
256,192,241618,1,0,0:0:0:0:
256,192,241859,1,8,0:0:0:0:
256,192,241979,1,8,0:0:0:0:
256,192,242220,1,0,0:0:0:0:
256,192,242341,1,8,0:0:0:0:
256,192,242582,1,8,0:0:0:0:
256,192,242702,1,0,0:0:0:0:
256,192,243064,1,8,0:0:0:0:
256,192,243184,1,8,0:0:0:0:
256,192,243305,1,8,0:0:0:0:
256,192,243425,1,0,0:0:0:0:
256,192,243787,1,0,0:0:0:0:
256,192,244027,1,8,0:0:0:0:
256,192,244148,1,8,0:0:0:0:
256,192,244389,1,0,0:0:0:0:
256,192,244509,1,8,0:0:0:0:
256,192,244871,1,0,0:0:0:0:
256,192,245112,1,8,0:0:0:0:
256,192,245232,1,8,0:0:0:0:
256,192,245473,1,8,0:0:0:0:
256,192,245594,1,0,0:0:0:0:
256,192,245955,1,0,0:0:0:0:
256,192,246196,1,8,0:0:0:0:
256,192,246317,1,0,0:0:0:0:
256,192,246437,1,0,0:0:0:0:
256,192,246558,1,0,0:0:0:0:
256,192,246678,1,8,0:0:0:0:
256,192,246919,1,8,0:0:0:0:
256,192,247040,1,0,0:0:0:0:
256,192,247280,1,0,0:0:0:0:
256,192,247401,1,8,0:0:0:0:
256,192,247762,1,0,0:0:0:0:
256,192,248124,1,8,0:0:0:0:
256,192,248365,1,0,0:0:0:0:
256,192,248485,1,8,0:0:0:0:
256,192,248847,1,0,0:0:0:0:
256,192,249208,1,8,0:0:0:0:
256,192,249449,1,8,0:0:0:0:
256,192,249570,1,8,0:0:0:0:
256,192,249931,1,0,0:0:0:0:
256,192,250293,1,8,0:0:0:0:
256,192,250533,1,0,0:0:0:0:
256,192,250895,1,0,0:0:0:0:
256,192,251015,1,8,0:0:0:0:
256,192,251377,1,0,0:0:0:0:
256,192,251618,1,8,0:0:0:0:
256,192,251738,1,8,0:0:0:0:
256,192,251979,1,8,0:0:0:0:
256,192,252100,1,0,0:0:0:0:
256,192,252461,1,0,0:0:0:0:
256,192,252702,1,8,0:0:0:0:
256,192,253064,1,8,0:0:0:0:
256,192,253184,1,0,0:0:0:0:
256,192,253425,1,0,0:0:0:0:
256,192,253546,1,8,0:0:0:0:
256,192,253787,1,8,0:0:0:0:
256,192,253907,1,8,0:0:0:0:
256,192,254148,1,8,0:0:0:0:
256,192,254268,1,0,0:0:0:0:
256,192,254630,1,0,0:0:0:0:
256,192,254871,1,8,0:0:0:0:
256,192,254991,1,8,0:0:0:0:
256,192,255232,1,8,0:0:0:0:
256,192,255353,1,0,0:0:0:0:
256,192,255473,1,0,0:0:0:0:
256,192,255594,1,0,0:0:0:0:
256,192,255714,1,8,0:0:0:0:
256,192,255835,1,8,0:0:0:0:
256,192,255955,1,0,0:0:0:0:
256,192,256076,1,8,0:0:0:0:
256,192,256799,1,4,0:0:0:0:
256,192,257160,1,8,0:0:0:0:
256,192,257401,1,8,0:0:0:0:
256,192,257521,1,0,0:0:0:0:
256,192,257883,1,8,0:0:0:0:
256,192,258244,1,0,0:0:0:0:
256,192,258485,1,0,0:0:0:0:
256,192,258606,1,8,0:0:0:0:
256,192,258967,1,0,0:0:0:0:
256,192,259329,1,8,0:0:0:0:
256,192,259449,1,0,0:0:0:0:
256,192,259570,1,0,0:0:0:0:
256,192,259690,1,8,0:0:0:0:
256,192,259931,1,8,0:0:0:0:
256,192,260052,1,0,0:0:0:0:
256,192,260293,1,0,0:0:0:0:
256,192,260413,1,8,0:0:0:0:
256,192,260533,1,0,0:0:0:0:
256,192,260654,1,0,0:0:0:0:
256,192,260774,1,12,0:0:0:0:
256,192,261136,1,0,0:0:0:0:
256,192,261377,1,8,0:0:0:0:
256,192,261497,1,8,0:0:0:0:
256,192,261859,1,0,0:0:0:0:
256,192,262220,1,8,0:0:0:0:
256,192,262461,1,0,0:0:0:0:
256,192,262582,1,8,0:0:0:0:
256,192,262943,1,0,0:0:0:0:
256,192,263666,1,0,0:0:0:0:
256,192,264027,1,8,0:0:0:0:
256,192,265112,1,0,0:0:0:0:
256,192,267280,1,8,0:0:0:0:
256,192,268003,1,0,0:0:0:0:
256,192,268365,1,8,0:0:0:0:
256,192,268907,12,0,272702,0:0:0:0:
256,192,277040,5,8,0:0:0:0:
256,192,278124,1,8,0:0:0:0:
256,192,278847,1,0,0:0:0:0:
256,192,279208,1,8,0:0:0:0:
256,192,279931,1,8,0:0:0:0:
256,192,280293,1,0,0:0:0:0:
256,192,281377,1,8,0:0:0:0:
256,192,282461,1,8,0:0:0:0:
256,192,283184,1,0,0:0:0:0:
256,192,283546,1,8,0:0:0:0:
256,192,283907,1,8,0:0:0:0:
256,192,284268,1,0,0:0:0:0:
256,192,284630,1,8,0:0:0:0:
256,192,285714,1,8,0:0:0:0:
256,192,286799,1,8,0:0:0:0:
256,192,287521,1,0,0:0:0:0:
256,192,287883,1,8,0:0:0:0:
256,192,288606,1,8,0:0:0:0:
256,192,288967,1,0,0:0:0:0:
256,192,290052,1,8,0:0:0:0:
256,192,291136,1,8,0:0:0:0:
256,192,291859,1,8,0:0:0:0:
256,192,292220,1,0,0:0:0:0:
256,192,292943,1,0,0:0:0:0:
256,192,293305,1,8,0:0:0:0:
