osu file format v14

[General]
AudioFilename: Feline Groove - (Cranky Remix).mp3
AudioLeadIn: 0
PreviewTime: 22329
Countdown: 0
SampleSet: Soft
StackLeniency: 0.7
Mode: 3
LetterboxInBreaks: 0
EpilepsyWarning: 1
SpecialStyle: 0
WidescreenStoryboard: 1

[Editor]
Bookmarks: 22996,44329,65662,88329,109662,130996,141652,152329,162986,173662,197662,218996
DistanceSpacing: 2.2
BeatDivisor: 4
GridSize: 8
TimelineZoom: 1

[Metadata]
Title:Night of Knights (Cranky Remix)
TitleUnicode:ナイト・オブ・ナイツ (Cranky Remix)
Artist:beatMARIO
ArtistUnicode:ビートまりお
Creator:FAMoss
Version:Easy
Source:東方花映塚 ~ Phantasmagoria of Flower View.
Tags:Affirmation ZUN Touhou toho project フラワリングナイト オールナイトオブナイツ Feline Groove coaster eosd sakuya izayoi Kaeidzuka 十六夜咲夜 フ th09 上海アリス幻樂団 Team Shanghai Alice 花詠束 -hanataba- Unionest.NET U.N.オーエンは彼女なのか? owen wa kanojona no ka is her COOL&CREATE cccd50 月時計 ~ ルナ・ダイアル tsuki tokei flowering night moon clock luna dial video game instrumental eurobeat maimai dx CHUNITHM AMAZON
BeatmapID:2446747
BeatmapSetID:1173144

[Difficulty]
HPDrainRate:7
CircleSize:4
OverallDifficulty:7
ApproachRate:5
SliderMultiplier:1.4
SliderTickRate:1

[Events]
//Background and Video events
0,0,"BG.jpg",0,0
//Break Periods
//Storyboard Layer 0 (Background)
//Storyboard Layer 1 (Fail)
//Storyboard Layer 2 (Pass)
//Storyboard Layer 3 (Foreground)
//Storyboard Layer 4 (Overlay)
//Storyboard Sound Samples
Sample,22986,0,"L95A1.wav",100
Sample,34652,0,"wou_.wav",40
Sample,37319,0,"wou_.wav",40
Sample,39986,0,"wou_.wav",40
Sample,41319,0,"wou_.wav",40
Sample,42652,0,"wou_.wav",40
Sample,43986,0,"wou_.wav",40
Sample,88319,0,"L95A1.wav",100
Sample,99986,0,"wou_.wav",40
Sample,102652,0,"wou_.wav",40
Sample,105319,0,"wou_.wav",40
Sample,106652,0,"wou_.wav",40
Sample,107986,0,"wou_.wav",40
Sample,109319,0,"wou_.wav",40
Sample,141652,0,"L95A1.wav",100
Sample,197652,0,"L95A1.wav",100
Sample,209319,0,"wou_.wav",40
Sample,211986,0,"wou_.wav",40
Sample,214652,0,"wou_.wav",40
Sample,217319,0,"wou_.wav",40
Sample,218652,0,"wou_.wav",40

[TimingPoints]
1653,333.333333333333,4,2,1,70,1,0
22986,-100,4,2,1,70,0,1
44319,-100,4,2,1,70,0,0
88319,-100,4,2,1,70,0,1
109652,-100,4,2,1,70,0,0
141652,-100,4,2,1,70,0,1
152319,-100,4,2,1,70,0,0
197652,-100,4,2,1,70,0,1
217652,-100,4,2,1,70,0,0

[HitObjects]
320,192,1653,5,2,0:0:0:0:
448,192,1653,1,4,0:0:0:0:
192,192,1986,1,2,0:0:0:0:
448,192,2319,1,2,0:0:0:0:
64,192,2652,1,2,0:0:0:0:
192,192,2819,1,0,0:0:0:0:
320,192,2986,1,2,0:0:0:0:
192,192,3319,1,2,0:0:0:0:
448,192,3652,1,2,0:0:0:0:
320,192,3986,1,2,0:0:0:0:
64,192,4319,1,2,0:0:0:0:
320,192,4652,1,2,0:0:0:0:
64,192,4986,1,2,0:0:0:0:
448,192,5319,1,2,0:0:0:0:
320,192,5486,1,0,0:0:0:0:
192,192,5652,1,2,0:0:0:0:
320,192,5986,1,2,0:0:0:0:
64,192,6319,1,2,0:0:0:0:
192,192,6652,1,2,0:0:0:0:
448,192,6986,1,2,0:0:0:0:
192,192,7319,1,2,0:0:0:0:
448,192,7652,1,2,0:0:0:0:
64,192,7986,1,2,0:0:0:0:
192,192,8152,1,0,0:0:0:0:
320,192,8319,1,2,0:0:0:0:
192,192,8652,1,2,0:0:0:0:
448,192,8986,1,2,0:0:0:0:
320,192,9319,1,2,0:0:0:0:
64,192,9652,1,2,0:0:0:0:
320,192,9986,1,2,0:0:0:0:
64,192,10319,1,2,0:0:0:0:
448,192,10652,1,2,0:0:0:0:
320,192,10819,1,0,0:0:0:0:
64,192,10986,1,2,0:0:0:0:
192,192,10986,1,4,0:0:0:0:
320,192,11319,1,0,0:0:0:0:
64,192,11652,1,0,0:0:0:0:
192,192,11819,1,0,0:0:0:0:
320,192,11986,1,0,0:0:0:100:VEC4 Snares 133.wav
64,192,12319,1,4,0:0:0:0:
448,192,12319,1,2,0:0:0:0:
192,192,12652,1,2,0:0:0:0:
448,192,12986,1,2,0:0:0:0:
64,192,13319,1,2,0:0:0:0:
192,192,13486,1,0,0:0:0:0:
320,192,13652,1,2,0:0:0:0:
192,192,13986,1,2,0:0:0:0:
448,192,14319,1,2,0:0:0:0:
320,192,14652,1,2,0:0:0:0:
64,192,14986,1,2,0:0:0:0:
320,192,15319,1,2,0:0:0:0:
64,192,15652,1,2,0:0:0:0:
448,192,15986,1,2,0:0:0:0:
320,192,16152,1,0,0:0:0:0:
192,192,16319,1,2,0:0:0:0:
320,192,16652,1,2,0:0:0:0:
64,192,16986,1,2,0:0:0:0:
192,192,17319,1,2,0:0:0:0:
320,192,17486,1,2,0:0:0:0:
448,192,17652,1,6,0:0:0:0:
192,192,17986,1,2,0:0:0:0:
448,192,18319,1,2,0:0:0:0:
64,192,18652,1,6,0:0:0:0:
192,192,18819,1,6,0:0:0:0:
320,192,18986,1,6,0:0:0:0:
192,192,19319,1,2,0:0:0:0:
448,192,19652,1,2,0:0:0:0:
320,192,19986,1,2,0:0:0:0:
192,192,20152,1,6,0:0:0:0:
64,192,20319,1,6,0:0:0:0:
320,192,20652,1,6,0:0:0:0:
448,192,20652,1,0,0:0:0:100:VEC4 Snares 133.wav
64,192,20986,1,2,0:0:0:0:
192,192,21152,1,6,0:0:0:0:
448,192,21319,1,6,0:0:0:0:
320,192,21486,1,6,0:0:0:0:
64,192,21652,1,4,0:0:0:0:
192,192,21652,1,0,0:0:0:100:VEC4 Snares 133.wav
192,192,21986,1,0,0:0:0:70:LR_Tom Hit.wav
448,192,22319,1,0,0:0:0:70:LR_Tom Hit 2.wav
320,192,22486,1,0,0:0:0:70:LR_Tom Hit 3.wav
192,192,22652,1,0,0:0:0:100:VEC4 Snares 133.wav
64,192,22986,1,6,0:0:0:0:
448,192,22986,1,0,0:0:0:80:Catch.wav
320,192,23319,1,8,0:0:0:0:
192,192,23486,1,0,0:0:0:0:
64,192,23652,1,2,0:0:0:0:
448,192,23652,1,0,0:0:0:0:
192,192,23986,1,8,0:0:0:0:
320,192,24152,1,0,0:0:0:0:
448,192,24319,1,2,0:0:0:0:
64,192,24652,1,8,0:0:0:0:
192,192,24819,1,0,0:0:0:0:
320,192,24986,1,2,0:0:0:0:
448,192,24986,1,0,0:0:0:0:
192,192,25319,1,8,0:0:0:0:
448,192,25652,1,2,0:0:0:0:
320,192,25986,1,8,0:0:0:0:
192,192,26152,1,0,0:0:0:0:
64,192,26319,1,2,0:0:0:0:
448,192,26319,1,0,0:0:0:0:
192,192,26652,1,8,0:0:0:0:
320,192,26819,1,0,0:0:0:0:
448,192,26986,1,2,0:0:0:0:
64,192,27319,1,8,0:0:0:0:
192,192,27486,1,0,0:0:0:0:
320,192,27652,1,2,0:0:0:0:
448,192,27652,1,0,0:0:0:0:
192,192,27986,1,8,0:0:0:0:
448,192,28319,1,2,0:0:0:0:
320,192,28652,1,8,0:0:0:0:
192,192,28819,1,0,0:0:0:0:
64,192,28986,1,2,0:0:0:0:
448,192,28986,1,0,0:0:0:0:
192,192,29319,1,8,0:0:0:0:
320,192,29486,1,0,0:0:0:0:
448,192,29652,1,2,0:0:0:0:
64,192,29986,1,8,0:0:0:0:
192,192,30152,1,0,0:0:0:0:
320,192,30319,1,2,0:0:0:0:
448,192,30319,1,0,0:0:0:0:
192,192,30486,1,0,0:0:0:0:
64,192,30652,1,8,0:0:0:0:
320,192,30986,1,2,0:0:0:0:
448,192,30986,1,4,0:0:0:0:
192,192,31319,1,12,0:0:0:0:
320,192,31486,1,2,0:0:0:0:
64,192,31652,1,2,0:0:0:0:
448,192,31652,1,4,0:0:0:0:
320,192,31986,1,12,0:0:0:0:
192,192,32152,1,2,0:0:0:0:
64,192,32319,1,2,0:0:0:0:
448,192,32319,1,4,0:0:0:0:
64,192,32652,1,12,0:0:0:0:
192,192,32819,1,6,0:0:0:0:
320,192,32986,1,2,0:0:0:0:
448,192,32986,1,4,0:0:0:0:
320,192,33319,1,0,0:0:0:100:VEC4 Snares 133.wav
64,192,33652,1,2,0:0:0:0:
448,192,33652,1,4,0:0:0:0:
192,192,33986,1,8,0:0:0:0:
320,192,34152,1,0,0:0:0:0:
64,192,34319,1,2,0:0:0:0:
448,192,34319,1,0,0:0:0:0:
320,192,34652,1,8,0:0:0:0:
192,192,34819,1,0,0:0:0:0:
64,192,34986,1,6,0:0:0:0:
448,192,35319,1,8,0:0:0:0:
320,192,35486,1,0,0:0:0:0:
64,192,35652,1,2,0:0:0:0:
192,192,35652,1,0,0:0:0:0:
320,192,35986,1,8,0:0:0:0:
448,192,35986,1,0,0:0:0:40:wou_.wav
64,192,36319,1,6,0:0:0:0:
192,192,36652,1,8,0:0:0:0:
320,192,36819,1,0,0:0:0:0:
64,192,36986,1,2,0:0:0:0:
448,192,36986,1,0,0:0:0:0:
320,192,37319,1,8,0:0:0:0:
192,192,37486,1,0,0:0:0:0:
64,192,37652,1,6,0:0:0:0:
448,192,37986,1,8,0:0:0:0:
320,192,38152,1,0,0:0:0:0:
64,192,38319,1,2,0:0:0:0:
192,192,38319,1,4,0:0:0:0:
320,192,38652,1,12,0:0:0:0:
448,192,38652,1,0,0:0:0:40:wou_.wav
64,192,38986,1,6,0:0:0:0:
192,192,39319,1,8,0:0:0:0:
320,192,39486,1,0,0:0:0:0:
64,192,39652,1,2,0:0:0:0:
448,192,39652,1,0,0:0:0:0:
320,192,39986,1,8,0:0:0:0:
192,192,40152,1,0,0:0:0:0:
64,192,40319,1,6,0:0:0:0:
448,192,40652,1,8,0:0:0:0:
320,192,40819,1,0,0:0:0:0:
64,192,40986,1,2,0:0:0:0:
192,192,40986,1,0,0:0:0:0:
320,192,41152,1,0,0:0:0:0:
448,192,41319,1,8,0:0:0:0:
64,192,41652,1,2,0:0:0:0:
192,192,41652,1,4,0:0:0:0:
320,192,41986,1,12,0:0:0:0:
192,192,42152,1,0,0:0:0:0:
448,192,42319,1,6,0:0:0:0:
64,192,42652,1,4,0:0:0:0:
192,192,42819,1,0,0:0:0:0:
320,192,42986,1,2,0:0:0:0:
448,192,42986,1,4,0:0:0:0:
192,192,43319,1,0,0:0:0:70:LR_Tom Hit.wav
320,192,43486,1,6,0:0:0:0:
64,192,43652,1,0,0:0:0:70:LR_Tom Hit 3.wav
320,192,43986,1,4,0:0:0:0:
192,192,44152,1,0,0:0:0:70:LR_Tom Hit 3.wav
64,192,44319,1,2,0:0:0:0:
448,192,44319,1,4,0:0:0:0:
192,192,44652,1,8,0:0:0:0:
320,192,44819,1,0,0:0:0:0:
448,192,44986,1,2,0:0:0:0:
64,192,45319,1,8,0:0:0:0:
192,192,45486,1,0,0:0:0:0:
320,192,45652,1,2,0:0:0:0:
448,192,45652,1,0,0:0:0:0:
448,192,45986,1,8,0:0:0:0:
320,192,46152,1,0,0:0:0:0:
192,192,46319,1,2,0:0:0:0:
192,192,46652,1,8,0:0:0:0:
320,192,46819,1,0,0:0:0:0:
64,192,46986,1,2,0:0:0:0:
448,192,46986,1,0,0:0:0:0:
320,192,47319,1,8,0:0:0:0:
192,192,47486,1,0,0:0:0:0:
64,192,47652,1,2,0:0:0:0:
448,192,47986,1,8,0:0:0:0:
320,192,48152,1,0,0:0:0:0:
64,192,48319,1,2,0:0:0:0:
192,192,48319,1,0,0:0:0:0:
64,192,48652,1,8,0:0:0:0:
192,192,48819,1,0,0:0:0:0:
320,192,48986,1,2,0:0:0:0:
192,192,49319,1,8,0:0:0:0:
320,192,49486,1,0,0:0:0:0:
64,192,49652,1,4,0:0:0:0:
448,192,49652,1,2,0:0:0:0:
192,192,49986,1,8,0:0:0:0:
320,192,50152,1,0,0:0:0:0:
448,192,50319,1,2,0:0:0:0:
320,192,50652,1,8,0:0:0:0:
192,192,50819,1,0,0:0:0:0:
64,192,50986,1,2,0:0:0:0:
448,192,50986,1,0,0:0:0:0:
320,192,51319,1,8,0:0:0:0:
192,192,51486,1,0,0:0:0:0:
64,192,51652,1,2,0:0:0:0:
192,192,51986,1,8,0:0:0:0:
320,192,52152,1,0,0:0:0:0:
64,192,52319,1,4,0:0:0:0:
448,192,52319,1,2,0:0:0:0:
64,192,52652,1,8,0:0:0:0:
192,192,52819,1,0,0:0:0:0:
320,192,52986,1,2,0:0:0:0:
192,192,53319,1,8,0:0:0:0:
320,192,53486,1,0,0:0:0:0:
64,192,53652,1,4,0:0:0:0:
448,192,53652,1,2,0:0:0:0:
448,192,53986,1,8,0:0:0:0:
320,192,54152,1,4,0:0:0:0:
64,192,54319,1,2,0:0:0:0:
192,192,54319,1,0,0:0:0:0:
320,192,54652,1,12,0:0:0:0:
192,192,54819,1,0,0:0:0:100:LR_Tom Hit.wav
64,192,54986,1,2,0:0:0:0:
448,192,54986,1,4,0:0:0:0:
320,192,55319,1,8,0:0:0:0:
192,192,55486,1,0,0:0:0:0:
64,192,55652,1,2,0:0:0:0:
448,192,55986,1,8,0:0:0:0:
320,192,56152,1,0,0:0:0:0:
64,192,56319,1,2,0:0:0:0:
192,192,56319,1,0,0:0:0:0:
64,192,56652,1,8,0:0:0:0:
192,192,56819,1,0,0:0:0:0:
320,192,56986,1,2,0:0:0:0:
320,192,57319,1,8,0:0:0:0:
192,192,57486,1,0,0:0:0:0:
64,192,57652,1,2,0:0:0:0:
448,192,57652,1,0,0:0:0:0:
192,192,57986,1,8,0:0:0:0:
320,192,58152,1,0,0:0:0:0:
448,192,58319,1,2,0:0:0:0:
64,192,58652,1,8,0:0:0:0:
192,192,58819,1,0,0:0:0:0:
320,192,58986,1,2,0:0:0:0:
448,192,58986,1,0,0:0:0:0:
448,192,59319,1,8,0:0:0:0:
320,192,59486,1,0,0:0:0:0:
192,192,59652,1,2,0:0:0:0:
320,192,59986,1,8,0:0:0:0:
192,192,60152,1,0,0:0:0:0:
64,192,60319,1,4,0:0:0:0:
448,192,60319,1,2,0:0:0:0:
320,192,60652,1,8,0:0:0:0:
192,192,60819,1,0,0:0:0:0:
64,192,60986,1,2,0:0:0:0:
192,192,61319,1,8,0:0:0:0:
320,192,61486,1,0,0:0:0:0:
64,192,61652,1,2,0:0:0:0:
448,192,61652,1,0,0:0:0:0:
192,192,61986,1,8,0:0:0:0:
320,192,62152,1,0,0:0:0:0:
448,192,62319,1,2,0:0:0:0:
320,192,62652,1,8,0:0:0:0:
192,192,62819,1,0,0:0:0:0:
64,192,62986,1,4,0:0:0:0:
448,192,62986,1,2,0:0:0:0:
448,192,63319,1,8,0:0:0:0:
320,192,63486,1,0,0:0:0:0:
192,192,63652,1,2,0:0:0:0:
320,192,63986,1,8,0:0:0:0:
192,192,64152,1,0,0:0:0:0:
64,192,64319,1,4,0:0:0:0:
448,192,64319,1,2,0:0:0:0:
64,192,64652,1,0,0:0:0:70:LR_Tom Hit.wav
192,192,64819,1,6,0:0:0:0:
320,192,64986,1,0,0:0:0:70:LR_Tom Hit 2.wav
320,192,65319,1,4,0:0:0:0:
192,192,65486,1,0,0:0:0:70:LR_Tom Hit 3.wav
64,192,65652,1,2,0:0:0:0:
448,192,65652,1,4,0:0:0:0:
320,192,65986,1,0,0:0:0:0:
192,192,66319,1,8,0:0:0:0:
448,192,66652,1,0,0:0:0:0:
320,192,66819,1,0,0:0:0:0:
64,192,67152,1,2,0:0:0:0:
192,192,67319,1,2,0:0:0:0:
320,192,67652,1,8,0:0:0:0:
64,192,67986,1,0,0:0:0:0:
448,192,68319,1,2,0:0:0:0:
192,192,68652,1,0,0:0:0:0:
320,192,68986,1,8,0:0:0:0:
64,192,69319,1,0,0:0:0:0:
192,192,69486,1,0,0:0:0:0:
448,192,69819,1,2,0:0:0:0:
320,192,69986,1,0,0:0:0:0:
192,192,70319,1,8,0:0:0:0:
448,192,70652,1,0,0:0:0:0:
320,192,70819,1,0,0:0:0:0:
64,192,70986,1,4,0:0:0:0:
192,192,70986,1,2,0:0:0:0:
320,192,71319,1,0,0:0:0:0:
192,192,71652,1,8,0:0:0:0:
448,192,71986,1,0,0:0:0:0:
320,192,72152,1,0,0:0:0:0:
64,192,72486,1,2,0:0:0:0:
192,192,72652,1,2,0:0:0:0:
320,192,72986,1,8,0:0:0:0:
64,192,73319,1,0,0:0:0:0:
192,192,73486,1,0,0:0:0:0:
448,192,73652,1,2,0:0:0:0:
192,192,73986,1,0,0:0:0:0:
320,192,74319,1,8,0:0:0:0:
64,192,74652,1,0,0:0:0:0:
320,192,74819,1,0,0:0:0:0:
448,192,75152,1,2,0:0:0:0:
192,192,75319,1,0,0:0:0:0:
320,192,75652,1,8,0:0:0:0:
192,192,75986,1,0,0:0:0:70:LR_Tom Hit 2.wav
320,192,76152,1,0,0:0:0:70:LR_Tom Hit 3.wav
64,192,76319,1,2,0:0:0:0:
448,192,76319,1,4,0:0:0:0:
192,192,76652,1,8,0:0:0:0:
320,192,76986,1,2,0:0:0:0:
448,192,76986,1,0,0:0:0:0:
64,192,77319,1,8,0:0:0:0:
192,192,77319,1,0,0:0:0:0:
320,192,77652,1,2,0:0:0:0:
192,192,77819,1,2,0:0:0:0:
64,192,77986,1,8,0:0:0:0:
192,192,78319,1,2,0:0:0:0:
320,192,78486,1,2,0:0:0:0:
64,192,78652,1,8,0:0:0:0:
448,192,78652,1,0,0:0:0:0:
192,192,78986,1,2,0:0:0:0:
320,192,79319,1,8,0:0:0:0:
448,192,79652,1,0,0:0:0:0:
64,192,79652,1,2,0:0:0:0:
192,192,79819,1,2,0:0:0:0:
320,192,79986,1,8,0:0:0:0:
192,192,80319,1,2,0:0:0:0:
320,192,80486,1,2,0:0:0:0:
448,192,80652,1,8,0:0:0:0:
320,192,80986,1,2,0:0:0:0:
192,192,81152,1,2,0:0:0:0:
64,192,81319,1,8,0:0:0:0:
448,192,81319,1,0,0:0:0:0:
320,192,81652,1,4,0:0:0:0:
448,192,81652,1,2,0:0:0:0:
192,192,81986,1,8,0:0:0:0:
448,192,82319,1,2,0:0:0:0:
320,192,82319,1,0,0:0:0:0:
64,192,82652,1,8,0:0:0:0:
192,192,82652,1,0,0:0:0:0:
320,192,82986,1,2,0:0:0:0:
192,192,83152,1,2,0:0:0:0:
448,192,83319,1,8,0:0:0:0:
64,192,83652,1,2,0:0:0:0:
192,192,83819,1,2,0:0:0:0:
320,192,83986,1,0,0:0:0:0:
448,192,83986,1,8,0:0:0:0:
192,192,84319,1,2,0:0:0:0:
320,192,84652,1,8,0:0:0:0:
64,192,84986,1,2,0:0:0:0:
448,192,84986,1,0,0:0:0:0:
192,192,85152,1,2,0:0:0:0:
320,192,85319,1,8,0:0:0:0:
192,192,85652,1,2,0:0:0:0:
320,192,85819,1,2,0:0:0:0:
64,192,85986,1,8,0:0:0:0:
320,192,86319,1,2,0:0:0:0:
192,192,86486,1,2,0:0:0:0:
64,192,86652,1,8,0:0:0:0:
448,192,86652,1,0,0:0:0:0:
448,192,86986,1,4,0:0:0:0:
320,192,87152,1,0,0:0:0:70:LR_Snare Drum.wav
192,192,87319,1,0,0:0:0:70:LR_Tom Hit.wav
64,192,87652,1,6,0:0:0:0:
192,192,87819,1,2,0:0:0:0:
320,192,87986,1,0,0:0:0:100:VEC4 Snares 133.wav
64,192,88319,1,6,0:0:0:0:
448,192,88319,1,0,0:0:0:80:Catch.wav
192,192,88652,1,8,0:0:0:0:
320,192,88819,1,0,0:0:0:0:
64,192,88986,1,2,0:0:0:0:
448,192,88986,1,0,0:0:0:0:
320,192,89319,1,8,0:0:0:0:
192,192,89486,1,0,0:0:0:0:
64,192,89652,1,2,0:0:0:0:
448,192,89986,1,8,0:0:0:0:
320,192,90152,1,0,0:0:0:0:
64,192,90319,1,2,0:0:0:0:
192,192,90319,1,0,0:0:0:0:
320,192,90652,1,8,0:0:0:0:
64,192,90986,1,2,0:0:0:0:
192,192,91319,1,8,0:0:0:0:
320,192,91486,1,0,0:0:0:0:
64,192,91652,1,2,0:0:0:0:
448,192,91652,1,0,0:0:0:0:
320,192,91986,1,8,0:0:0:0:
192,192,92152,1,0,0:0:0:0:
64,192,92319,1,2,0:0:0:0:
448,192,92652,1,8,0:0:0:0:
320,192,92819,1,0,0:0:0:0:
64,192,92986,1,2,0:0:0:0:
192,192,92986,1,0,0:0:0:0:
320,192,93319,1,8,0:0:0:0:
64,192,93652,1,2,0:0:0:0:
192,192,93986,1,8,0:0:0:0:
320,192,94152,1,0,0:0:0:0:
64,192,94319,1,2,0:0:0:0:
448,192,94319,1,0,0:0:0:0:
320,192,94652,1,8,0:0:0:0:
192,192,94819,1,0,0:0:0:0:
64,192,94986,1,2,0:0:0:0:
448,192,95319,1,8,0:0:0:0:
320,192,95486,1,0,0:0:0:0:
64,192,95652,1,2,0:0:0:0:
192,192,95652,1,0,0:0:0:0:
320,192,95819,1,0,0:0:0:0:
448,192,95986,1,8,0:0:0:0:
64,192,96319,1,2,0:0:0:0:
192,192,96319,1,4,0:0:0:0:
320,192,96652,1,12,0:0:0:0:
192,192,96819,1,2,0:0:0:0:
64,192,96986,1,2,0:0:0:0:
448,192,96986,1,4,0:0:0:0:
192,192,97319,1,12,0:0:0:0:
320,192,97486,1,2,0:0:0:0:
64,192,97652,1,2,0:0:0:0:
448,192,97652,1,4,0:0:0:0:
448,192,97986,1,12,0:0:0:0:
320,192,98152,1,6,0:0:0:0:
192,192,98319,1,2,0:0:0:0:
64,192,98319,1,4,0:0:0:0:
192,192,98652,1,0,0:0:0:100:VEC4 Snares 133.wav
64,192,98986,1,2,0:0:0:0:
448,192,98986,1,4,0:0:0:0:
320,192,99319,1,8,0:0:0:0:
192,192,99486,1,0,0:0:0:0:
64,192,99652,1,2,0:0:0:0:
448,192,99652,1,0,0:0:0:0:
192,192,99986,1,8,0:0:0:0:
320,192,100152,1,0,0:0:0:0:
448,192,100319,1,6,0:0:0:0:
64,192,100652,1,8,0:0:0:0:
192,192,100819,1,0,0:0:0:0:
320,192,100986,1,2,0:0:0:0:
448,192,100986,1,0,0:0:0:0:
64,192,101319,1,8,0:0:0:0:
192,192,101319,1,0,0:0:0:40:wou_.wav
448,192,101652,1,6,0:0:0:0:
320,192,101986,1,8,0:0:0:0:
192,192,102152,1,0,0:0:0:0:
64,192,102319,1,2,0:0:0:0:
448,192,102319,1,0,0:0:0:0:
192,192,102652,1,8,0:0:0:0:
320,192,102819,1,0,0:0:0:0:
448,192,102986,1,6,0:0:0:0:
64,192,103319,1,8,0:0:0:0:
192,192,103486,1,0,0:0:0:0:
320,192,103652,1,2,0:0:0:0:
448,192,103652,1,4,0:0:0:0:
64,192,103986,1,12,0:0:0:0:
192,192,103986,1,0,0:0:0:40:wou_.wav
448,192,104319,1,6,0:0:0:0:
320,192,104652,1,8,0:0:0:0:
192,192,104819,1,0,0:0:0:0:
64,192,104986,1,2,0:0:0:0:
448,192,104986,1,0,0:0:0:0:
192,192,105319,1,8,0:0:0:0:
320,192,105486,1,0,0:0:0:0:
448,192,105652,1,6,0:0:0:0:
64,192,105986,1,8,0:0:0:0:
192,192,106152,1,0,0:0:0:0:
320,192,106319,1,2,0:0:0:0:
448,192,106319,1,0,0:0:0:0:
192,192,106486,1,0,0:0:0:0:
64,192,106652,1,8,0:0:0:0:
320,192,106986,1,2,0:0:0:0:
448,192,106986,1,4,0:0:0:0:
192,192,107319,1,8,0:0:0:0:
320,192,107486,1,0,0:0:0:0:
64,192,107652,1,2,0:0:0:0:
448,192,107986,1,8,0:0:0:0:
320,192,108152,1,0,0:0:0:0:
64,192,108319,1,2,0:0:0:0:
192,192,108319,1,4,0:0:0:0:
320,192,108652,1,0,0:0:0:70:LR_Tom Hit.wav
192,192,108819,1,6,0:0:0:0:
448,192,108986,1,0,0:0:0:70:LR_Tom Hit 3.wav
320,192,109319,1,4,0:0:0:0:
192,192,109486,1,0,0:0:0:70:LR_Tom Hit 3.wav
64,192,109652,1,2,0:0:0:0:
448,192,109652,1,4,0:0:0:0:
320,192,109986,1,2,0:0:0:0:
64,192,110319,1,2,0:0:0:0:
448,192,110652,1,2,0:0:0:0:
320,192,110819,1,0,0:0:0:0:
192,192,110986,1,2,0:0:0:0:
320,192,111319,1,2,0:0:0:0:
64,192,111652,1,2,0:0:0:0:
192,192,111986,1,2,0:0:0:0:
448,192,112319,1,2,0:0:0:0:
192,192,112652,1,2,0:0:0:0:
448,192,112986,1,2,0:0:0:0:
64,192,113319,1,2,0:0:0:0:
192,192,113486,1,0,0:0:0:0:
320,192,113652,1,2,0:0:0:0:
192,192,113986,1,2,0:0:0:0:
448,192,114319,1,2,0:0:0:0:
320,192,114652,1,2,0:0:0:0:
64,192,114986,1,2,0:0:0:0:
320,192,115319,1,2,0:0:0:0:
64,192,115652,1,2,0:0:0:0:
448,192,115986,1,2,0:0:0:0:
320,192,116152,1,0,0:0:0:0:
192,192,116319,1,2,0:0:0:0:
320,192,116652,1,2,0:0:0:0:
64,192,116986,1,2,0:0:0:0:
192,192,117319,1,2,0:0:0:0:
448,192,117652,1,2,0:0:0:0:
192,192,117986,1,2,0:0:0:0:
448,192,118319,1,2,0:0:0:0:
64,192,118652,1,2,0:0:0:0:
192,192,118819,1,0,0:0:0:0:
320,192,118986,1,2,0:0:0:0:
448,192,118986,1,4,0:0:0:0:
192,192,119319,1,0,0:0:0:0:
448,192,119652,1,0,0:0:0:0:
320,192,119819,1,0,0:0:0:0:
192,192,119986,1,0,0:0:0:100:VEC4 Snares 133.wav
64,192,120319,1,4,0:0:0:0:
448,192,120319,1,2,0:0:0:0:
320,192,120652,1,2,0:0:0:0:
64,192,120986,1,2,0:0:0:0:
448,192,121319,1,2,0:0:0:0:
320,192,121486,1,0,0:0:0:0:
192,192,121652,1,2,0:0:0:0:
320,192,121986,1,2,0:0:0:0:
64,192,122319,1,2,0:0:0:0:
192,192,122652,1,2,0:0:0:0:
448,192,122986,1,2,0:0:0:0:
192,192,123319,1,2,0:0:0:0:
448,192,123652,1,2,0:0:0:0:
64,192,123986,1,2,0:0:0:0:
192,192,124152,1,0,0:0:0:0:
320,192,124319,1,2,0:0:0:0:
192,192,124652,1,2,0:0:0:0:
448,192,124986,1,2,0:0:0:0:
320,192,125319,1,2,0:0:0:0:
192,192,125486,1,2,0:0:0:0:
64,192,125652,1,6,0:0:0:0:
320,192,125986,1,2,0:0:0:0:
64,192,126319,1,2,0:0:0:0:
448,192,126652,1,6,0:0:0:0:
320,192,126819,1,6,0:0:0:0:
192,192,126986,1,6,0:0:0:0:
320,192,127319,1,2,0:0:0:0:
64,192,127652,1,2,0:0:0:0:
192,192,127986,1,2,0:0:0:0:
320,192,128152,1,6,0:0:0:0:
448,192,128319,1,6,0:0:0:0:
64,192,128652,1,6,0:0:0:0:
192,192,128652,1,0,0:0:0:100:VEC4 Snares 133.wav
448,192,128986,1,2,0:0:0:0:
320,192,129152,1,6,0:0:0:0:
64,192,129319,1,6,0:0:0:0:
192,192,129486,1,6,0:0:0:0:
320,192,129652,1,4,0:0:0:0:
448,192,129652,1,0,0:0:0:100:VEC3 Snares 018.wav
320,192,129986,1,0,0:0:0:70:LR_Tom Hit 2.wav
64,192,130319,1,6,0:0:0:0:
192,192,130486,1,0,0:0:0:70:LR_Tom Hit 3.wav
320,192,130652,1,4,0:0:0:0:
64,192,130986,1,2,0:0:0:0:
448,192,130986,1,4,0:0:0:0:
192,192,131319,1,0,0:0:0:0:
320,192,131486,1,0,0:0:0:0:
448,192,131652,1,0,0:0:0:0:
64,192,131986,1,0,0:0:0:0:
192,192,132152,1,0,0:0:0:0:
320,192,132319,1,0,0:0:0:0:
448,192,132652,1,0,0:0:0:0:
320,192,132819,1,0,0:0:0:0:
192,192,132986,1,0,0:0:0:0:
320,192,133319,1,0,0:0:0:0:
192,192,133486,1,6,0:0:0:0:
64,192,133652,1,2,0:0:0:0:
448,192,133652,1,4,0:0:0:0:
192,192,133986,1,0,0:0:0:0:
320,192,134152,1,0,0:0:0:0:
448,192,134319,1,0,0:0:0:0:
64,192,134652,1,0,0:0:0:0:
192,192,134819,1,0,0:0:0:0:
320,192,134986,1,0,0:0:0:0:
448,192,135319,1,0,0:0:0:0:
320,192,135486,1,0,0:0:0:0:
192,192,135652,1,0,0:0:0:0:
320,192,135986,1,6,0:0:0:0:
192,192,136152,1,0,0:0:0:0:
64,192,136319,1,2,0:0:0:0:
448,192,136319,1,4,0:0:0:0:
320,192,136652,1,0,0:0:0:0:
192,192,136819,1,0,0:0:0:0:
64,192,136986,1,0,0:0:0:0:
448,192,137319,1,0,0:0:0:0:
320,192,137486,1,6,0:0:0:0:
64,192,137652,1,2,0:0:0:0:
192,192,137652,1,4,0:0:0:0:
64,192,137986,1,0,0:0:0:0:
192,192,138152,1,0,0:0:0:0:
320,192,138319,1,0,0:0:0:0:
192,192,138652,1,0,0:0:0:0:
320,192,138819,1,6,0:0:0:0:
64,192,138986,1,2,0:0:0:0:
448,192,138986,1,4,0:0:0:0:
320,192,139319,1,0,0:0:0:0:
192,192,139486,1,0,0:0:0:0:
64,192,139652,1,6,0:0:0:0:
448,192,139986,1,0,0:0:0:0:
320,192,140152,1,0,0:0:0:0:
64,192,140319,1,6,0:0:0:0:
192,192,140319,1,0,0:0:0:70:VEC3 Snares 018.wav
192,192,140652,1,0,0:0:0:70:LR_Tom Hit 2.wav
320,192,140819,1,0,0:0:0:70:LR_Tom Hit 2.wav
448,192,140986,1,0,0:0:0:70:LR_Snare Drum 2.wav
192,192,141319,1,0,0:0:0:0:
64,192,141652,1,6,0:0:0:0:
448,192,141652,1,0,0:0:0:80:Catch.wav
192,192,141986,1,8,0:0:0:0:
320,192,142152,1,0,0:0:0:0:
448,192,142319,1,2,0:0:0:0:
64,192,142652,1,8,0:0:0:0:
192,192,142819,1,0,0:0:0:0:
320,192,142986,1,2,0:0:0:0:
448,192,142986,1,0,0:0:0:0:
448,192,143319,1,8,0:0:0:0:
320,192,143486,1,0,0:0:0:0:
192,192,143652,1,2,0:0:0:0:
192,192,143986,1,8,0:0:0:0:
320,192,144152,1,0,0:0:0:0:
64,192,144319,1,2,0:0:0:0:
448,192,144319,1,0,0:0:0:0:
320,192,144652,1,8,0:0:0:0:
192,192,144819,1,0,0:0:0:0:
64,192,144986,1,2,0:0:0:0:
448,192,145319,1,8,0:0:0:0:
320,192,145486,1,0,0:0:0:0:
64,192,145652,1,2,0:0:0:0:
192,192,145652,1,0,0:0:0:0:
64,192,145986,1,8,0:0:0:0:
192,192,146152,1,0,0:0:0:0:
320,192,146319,1,2,0:0:0:0:
192,192,146652,1,8,0:0:0:0:
320,192,146819,1,0,0:0:0:0:
64,192,146986,1,2,0:0:0:0:
448,192,146986,1,4,0:0:0:0:
192,192,147319,1,8,0:0:0:0:
320,192,147486,1,0,0:0:0:0:
448,192,147652,1,2,0:0:0:0:
320,192,147986,1,8,0:0:0:0:
192,192,148152,1,0,0:0:0:0:
64,192,148319,1,2,0:0:0:0:
448,192,148319,1,0,0:0:0:0:
320,192,148652,1,8,0:0:0:0:
192,192,148819,1,0,0:0:0:0:
64,192,148986,1,2,0:0:0:0:
192,192,149319,1,8,0:0:0:0:
320,192,149486,1,0,0:0:0:0:
64,192,149652,1,2,0:0:0:0:
448,192,149652,1,4,0:0:0:0:
64,192,149986,1,8,0:0:0:0:
192,192,150152,1,0,0:0:0:0:
320,192,150319,1,2,0:0:0:0:
192,192,150652,1,8,0:0:0:0:
320,192,150819,1,0,0:0:0:0:
64,192,150986,1,2,0:0:0:0:
448,192,150986,1,4,0:0:0:0:
448,192,151319,1,0,0:0:0:100:LR_Tom Hit.wav
320,192,151486,1,6,0:0:0:0:
192,192,151652,1,0,0:0:0:100:LR_Tom Hit 2.wav
192,192,151986,1,4,0:0:0:0:
320,192,152152,1,0,0:0:0:100:LR_Tom Hit 3.wav
64,192,152319,1,2,0:0:0:0:
448,192,152319,1,4,0:0:0:0:
192,192,152652,1,0,0:0:0:0:
320,192,152986,1,8,0:0:0:0:
64,192,153319,1,0,0:0:0:0:
192,192,153486,1,0,0:0:0:0:
448,192,153819,1,2,0:0:0:0:
320,192,153986,1,2,0:0:0:0:
192,192,154319,1,8,0:0:0:0:
448,192,154652,1,0,0:0:0:0:
64,192,154986,1,2,0:0:0:0:
320,192,155319,1,0,0:0:0:0:
192,192,155652,1,8,0:0:0:0:
448,192,155986,1,0,0:0:0:0:
320,192,156152,1,0,0:0:0:0:
64,192,156486,1,2,0:0:0:0:
192,192,156652,1,0,0:0:0:0:
320,192,156986,1,8,0:0:0:0:
64,192,157319,1,0,0:0:0:0:
192,192,157486,1,0,0:0:0:0:
320,192,157652,1,4,0:0:0:0:
448,192,157652,1,2,0:0:0:0:
192,192,157986,1,0,0:0:0:0:
320,192,158319,1,8,0:0:0:0:
64,192,158652,1,0,0:0:0:0:
192,192,158819,1,0,0:0:0:0:
448,192,159152,1,2,0:0:0:0:
320,192,159319,1,2,0:0:0:0:
192,192,159652,1,8,0:0:0:0:
448,192,159986,1,0,0:0:0:0:
320,192,160152,1,0,0:0:0:0:
64,192,160319,1,2,0:0:0:0:
320,192,160652,1,0,0:0:0:0:
192,192,160986,1,8,0:0:0:0:
448,192,161319,1,0,0:0:0:0:
192,192,161486,1,0,0:0:0:0:
64,192,161819,1,2,0:0:0:0:
448,192,161986,1,0,0:0:0:0:
320,192,162319,1,8,0:0:0:0:
192,192,162652,1,0,0:0:0:100:VEC4 Snares 133.wav
64,192,162986,1,2,0:0:0:0:
448,192,162986,1,4,0:0:0:0:
320,192,163319,1,0,0:0:0:0:
192,192,163652,1,8,0:0:0:0:
448,192,163986,1,0,0:0:0:0:
320,192,164152,1,0,0:0:0:0:
64,192,164486,1,2,0:0:0:0:
192,192,164652,1,2,0:0:0:0:
320,192,164986,1,8,0:0:0:0:
64,192,165319,1,0,0:0:0:0:
448,192,165652,1,2,0:0:0:0:
192,192,165986,1,0,0:0:0:0:
320,192,166319,1,8,0:0:0:0:
64,192,166652,1,0,0:0:0:0:
192,192,166819,1,0,0:0:0:0:
448,192,167152,1,2,0:0:0:0:
320,192,167319,1,0,0:0:0:0:
192,192,167652,1,8,0:0:0:0:
448,192,167986,1,0,0:0:0:0:
320,192,168152,1,0,0:0:0:0:
64,192,168319,1,4,0:0:0:0:
192,192,168319,1,2,0:0:0:0:
320,192,168652,1,0,0:0:0:0:
192,192,168986,1,8,0:0:0:0:
448,192,169319,1,0,0:0:0:0:
320,192,169486,1,0,0:0:0:0:
64,192,169819,1,2,0:0:0:0:
192,192,169986,1,2,0:0:0:0:
320,192,170319,1,8,0:0:0:0:
64,192,170652,1,0,0:0:0:0:
192,192,170819,1,0,0:0:0:0:
448,192,170986,1,2,0:0:0:0:
192,192,171319,1,0,0:0:0:0:
320,192,171652,1,8,0:0:0:0:
64,192,171986,1,0,0:0:0:0:
320,192,172152,1,2,0:0:0:0:
448,192,172486,1,0,0:0:0:70:LR_Snare Drum 2.wav
320,192,172652,1,0,0:0:0:70:LR_Snare Drum 3.wav
64,192,172819,1,6,0:0:0:0:
192,192,172986,1,8,0:0:0:0:
320,192,173319,1,0,0:0:0:100:VEC4 Snares 133.wav
64,192,173652,1,2,0:0:0:0:
448,192,173652,1,4,0:0:0:0:
192,192,173986,1,8,0:0:0:0:
448,192,174319,1,0,0:0:0:0:
320,192,174486,1,2,0:0:0:0:
64,192,174652,1,8,0:0:0:0:
192,192,174652,1,0,0:0:0:0:
448,192,174986,1,0,0:0:0:0:
320,192,175319,1,8,0:0:0:0:
64,192,175652,1,2,0:0:0:0:
192,192,175819,1,2,0:0:0:0:
320,192,175986,1,8,0:0:0:0:
448,192,175986,1,0,0:0:0:0:
192,192,176319,1,2,0:0:0:0:
320,192,176652,1,8,0:0:0:0:
192,192,176986,1,2,0:0:0:0:
320,192,177152,1,2,0:0:0:0:
64,192,177319,1,8,0:0:0:0:
448,192,177319,1,0,0:0:0:0:
320,192,177652,1,0,0:0:0:0:
192,192,177986,1,8,0:0:0:0:
320,192,178319,1,2,0:0:0:0:
192,192,178486,1,2,0:0:0:0:
64,192,178652,1,8,0:0:0:0:
448,192,178652,1,0,0:0:0:0:
64,192,178986,1,4,0:0:0:0:
192,192,178986,1,2,0:0:0:0:
320,192,179319,1,8,0:0:0:0:
64,192,179652,1,0,0:0:0:0:
192,192,179819,1,2,0:0:0:0:
320,192,179986,1,8,0:0:0:0:
448,192,179986,1,0,0:0:0:0:
64,192,180319,1,0,0:0:0:0:
192,192,180652,1,8,0:0:0:0:
448,192,180986,1,2,0:0:0:0:
320,192,181152,1,2,0:0:0:0:
64,192,181319,1,8,0:0:0:0:
192,192,181319,1,0,0:0:0:0:
320,192,181652,1,2,0:0:0:0:
192,192,181986,1,8,0:0:0:0:
320,192,182319,1,2,0:0:0:0:
192,192,182486,1,2,0:0:0:0:
64,192,182652,1,8,0:0:0:0:
448,192,182652,1,0,0:0:0:0:
320,192,182986,1,4,0:0:0:0:
192,192,183152,1,2,0:0:0:0:
64,192,183319,1,0,0:0:0:70:LR_Tom Hit.wav
192,192,183652,1,6,0:0:0:0:
320,192,183819,1,2,0:0:0:0:
448,192,183986,1,2,0:0:0:0:
64,192,184319,1,2,0:0:0:0:
192,192,184319,1,4,0:0:0:0:
448,192,184652,1,8,0:0:0:0:
192,192,184986,1,2,0:0:0:0:
320,192,185319,1,8,0:0:0:0:
448,192,185319,1,0,0:0:0:0:
64,192,185652,1,2,0:0:0:0:
448,192,185986,1,8,0:0:0:0:
320,192,186152,1,0,0:0:0:0:
192,192,186319,1,2,0:0:0:0:
64,192,186652,1,8,0:0:0:0:
448,192,186652,1,0,0:0:0:0:
320,192,186986,1,2,0:0:0:0:
192,192,187319,1,8,0:0:0:0:
64,192,187652,1,2,0:0:0:0:
192,192,187819,1,2,0:0:0:0:
320,192,187986,1,8,0:0:0:0:
448,192,187986,1,0,0:0:0:0:
64,192,188319,1,2,0:0:0:0:
192,192,188652,1,8,0:0:0:0:
448,192,188986,1,2,0:0:0:0:
320,192,189152,1,2,0:0:0:0:
192,192,189319,1,8,0:0:0:0:
320,192,189652,1,2,0:0:0:0:
448,192,189652,1,4,0:0:0:0:
64,192,189986,1,8,0:0:0:0:
320,192,190319,1,2,0:0:0:0:
64,192,190652,1,8,0:0:0:0:
192,192,190652,1,0,0:0:0:0:
448,192,190986,1,2,0:0:0:0:
64,192,191319,1,8,0:0:0:0:
192,192,191486,1,0,0:0:0:0:
320,192,191652,1,2,0:0:0:0:
64,192,191986,1,8,0:0:0:0:
448,192,191986,1,0,0:0:0:0:
192,192,192319,1,2,0:0:0:0:
320,192,192652,1,8,0:0:0:0:
448,192,192986,1,2,0:0:0:0:
320,192,193152,1,2,0:0:0:0:
64,192,193319,1,8,0:0:0:0:
192,192,193319,1,0,0:0:0:0:
448,192,193652,1,2,0:0:0:0:
320,192,193986,1,8,0:0:0:0:
64,192,194319,1,2,0:0:0:0:
192,192,194486,1,2,0:0:0:0:
320,192,194652,1,8,0:0:0:0:
64,192,194986,1,6,0:0:0:0:
192,192,195152,1,0,0:0:0:0:
448,192,195319,1,8,0:0:0:0:
320,192,195486,1,0,0:0:0:0:
64,192,195652,1,2,0:0:0:0:
192,192,195652,1,4,0:0:0:0:
448,192,195986,1,8,0:0:0:0:
320,192,196152,1,0,0:0:0:0:
64,192,196319,1,6,0:0:0:0:
192,192,196486,1,0,0:0:0:70:LR_Snare Drum.wav
320,192,196652,1,12,0:0:0:0:
448,192,196652,1,0,0:0:0:70:LR_Tom Hit.wav
320,192,196986,1,6,0:0:0:0:
64,192,197152,1,0,0:0:0:70:LR_Tom Hit 3.wav
192,192,197319,1,4,0:0:0:0:
320,192,197486,1,2,0:0:0:0:
64,192,197652,1,6,0:0:0:0:
448,192,197652,1,0,0:0:0:80:Catch.wav
320,192,197986,1,8,0:0:0:0:
192,192,198152,1,0,0:0:0:0:
64,192,198319,1,2,0:0:0:0:
448,192,198319,1,0,0:0:0:0:
192,192,198652,1,8,0:0:0:0:
320,192,198819,1,0,0:0:0:0:
448,192,198986,1,2,0:0:0:0:
64,192,199319,1,8,0:0:0:0:
192,192,199486,1,0,0:0:0:0:
320,192,199652,1,2,0:0:0:0:
448,192,199652,1,0,0:0:0:0:
192,192,199986,1,8,0:0:0:0:
448,192,200319,1,2,0:0:0:0:
320,192,200652,1,8,0:0:0:0:
192,192,200819,1,0,0:0:0:0:
64,192,200986,1,2,0:0:0:0:
448,192,200986,1,0,0:0:0:0:
192,192,201319,1,8,0:0:0:0:
320,192,201486,1,0,0:0:0:0:
448,192,201652,1,2,0:0:0:0:
64,192,201986,1,8,0:0:0:0:
192,192,202152,1,0,0:0:0:0:
320,192,202319,1,2,0:0:0:0:
448,192,202319,1,0,0:0:0:0:
192,192,202652,1,8,0:0:0:0:
448,192,202986,1,2,0:0:0:0:
320,192,203319,1,8,0:0:0:0:
192,192,203486,1,0,0:0:0:0:
64,192,203652,1,2,0:0:0:0:
448,192,203652,1,0,0:0:0:0:
192,192,203986,1,8,0:0:0:0:
320,192,204152,1,0,0:0:0:0:
448,192,204319,1,2,0:0:0:0:
64,192,204652,1,8,0:0:0:0:
192,192,204819,1,0,0:0:0:0:
320,192,204986,1,2,0:0:0:0:
448,192,204986,1,0,0:0:0:0:
192,192,205152,1,0,0:0:0:0:
64,192,205319,1,8,0:0:0:0:
320,192,205652,1,2,0:0:0:0:
448,192,205652,1,4,0:0:0:0:
192,192,205986,1,12,0:0:0:0:
320,192,206152,1,2,0:0:0:0:
64,192,206319,1,2,0:0:0:0:
448,192,206319,1,4,0:0:0:0:
320,192,206652,1,12,0:0:0:0:
192,192,206819,1,2,0:0:0:0:
64,192,206986,1,2,0:0:0:0:
448,192,206986,1,4,0:0:0:0:
64,192,207319,1,12,0:0:0:0:
192,192,207486,1,6,0:0:0:0:
448,192,207652,1,4,0:0:0:0:
320,192,207652,1,2,0:0:0:0:
320,192,207986,1,0,0:0:0:100:VEC4 Snares 133.wav
64,192,208319,1,2,0:0:0:0:
448,192,208319,1,4,0:0:0:0:
192,192,208652,1,8,0:0:0:0:
320,192,208819,1,0,0:0:0:0:
64,192,208986,1,2,0:0:0:0:
448,192,208986,1,0,0:0:0:0:
320,192,209319,1,8,0:0:0:0:
192,192,209486,1,0,0:0:0:0:
64,192,209652,1,6,0:0:0:0:
448,192,209986,1,8,0:0:0:0:
320,192,210152,1,0,0:0:0:0:
64,192,210319,1,2,0:0:0:0:
192,192,210319,1,0,0:0:0:0:
320,192,210652,1,8,0:0:0:0:
448,192,210652,1,0,0:0:0:40:wou_.wav
64,192,210986,1,6,0:0:0:0:
192,192,211319,1,8,0:0:0:0:
320,192,211486,1,0,0:0:0:0:
64,192,211652,1,2,0:0:0:0:
448,192,211652,1,0,0:0:0:0:
320,192,211986,1,8,0:0:0:0:
192,192,212152,1,0,0:0:0:0:
64,192,212319,1,6,0:0:0:0:
448,192,212652,1,8,0:0:0:0:
320,192,212819,1,0,0:0:0:0:
64,192,212986,1,2,0:0:0:0:
192,192,212986,1,4,0:0:0:0:
320,192,213319,1,12,0:0:0:0:
448,192,213319,1,0,0:0:0:40:wou_.wav
64,192,213652,1,6,0:0:0:0:
192,192,213986,1,8,0:0:0:0:
320,192,214152,1,0,0:0:0:0:
64,192,214319,1,2,0:0:0:0:
448,192,214319,1,0,0:0:0:0:
320,192,214652,1,8,0:0:0:0:
192,192,214819,1,0,0:0:0:0:
64,192,214986,1,6,0:0:0:0:
448,192,215319,1,8,0:0:0:0:
320,192,215486,1,0,0:0:0:0:
64,192,215652,1,2,0:0:0:0:
192,192,215819,1,0,0:0:0:0:
320,192,215986,1,8,0:0:0:0:
448,192,215986,1,0,0:0:0:40:wou_.wav
64,192,216319,1,2,0:0:0:0:
192,192,216319,1,4,0:0:0:0:
320,192,216652,1,4,0:0:0:0:
192,192,216819,1,0,0:0:0:0:
448,192,216986,1,6,0:0:0:0:
64,192,217319,1,4,0:0:0:0:
192,192,217486,1,2,0:0:0:0:
320,192,217652,1,2,0:0:0:0:
448,192,217652,1,4,0:0:0:0:
192,192,217986,1,12,0:0:0:0:
320,192,218152,1,0,0:0:0:0:
64,192,218319,1,2,0:0:0:0:
448,192,218319,1,4,0:0:0:0:
64,192,218652,1,6,0:0:0:0:
192,192,218819,1,12,0:0:0:0:
320,192,218986,1,2,0:0:0:0:
448,192,218986,1,4,0:0:0:0:
448,192,219319,1,8,0:0:0:0:
320,192,219486,1,0,0:0:0:0:
192,192,219652,1,2,0:0:0:0:
64,192,219819,1,0,0:0:0:0:
320,192,219986,1,8,0:0:0:0:
448,192,219986,1,0,0:0:0:0:
64,192,220319,1,6,0:0:0:0:
192,192,220486,1,0,0:0:0:0:
320,192,220652,1,8,0:0:0:0:
448,192,220652,1,4,0:0:0:0:
320,192,220986,1,6,0:0:0:0:
192,192,221152,1,0,0:0:0:70:LR_Tom Hit 2.wav
64,192,221319,1,12,0:0:0:0:
320,192,221486,1,0,0:0:0:0:
64,192,221652,1,4,0:0:0:0:
448,192,221652,1,2,0:0:0:0:
