osu file format v14

[General]
AudioFilename: audio.mp3
AudioLeadIn: 0
PreviewTime: -1
Countdown: 1
SampleSet: Normal
StackLeniency: 0.7
Mode: 0
LetterboxInBreaks: 0
WidescreenStoryboard: 1

[Editor]
DistanceSpacing: 0.7
BeatDivisor: 4
GridSize: 4
TimelineZoom: 1

[Metadata]
Title:Night of WWW
TitleUnicode:Night of WWW
Artist:beatMARIO + MrSpazzaneve17
ArtistUnicode:beatMARIO + MrSpazzaneve17
Creator:Taburet
Version:TAG 4
Source:Youtube
Tags:WWW wubwoofwolf funny youtube
BeatmapID:895802
BeatmapSetID:413020

[Difficulty]
HPDrainRate:3
CircleSize:5
OverallDifficulty:8
ApproachRate:8
SliderMultiplier:1.92
SliderTickRate:4

[Events]
//Background and Video events
Video,0,"Night of WWW.mp4"
0,0,"12.jpg",0,0
//Break Periods
//Storyboard Layer 0 (Background)
//Storyboard Layer 1 (Fail)
//Storyboard Layer 2 (Pass)
//Storyboard Layer 3 (Foreground)
//Storyboard Sound Samples

[TimingPoints]
1585,392.156862745098,4,1,1,80,1,0
13932,333.333333333333,4,1,1,80,1,0
35265,-100,4,1,1,80,0,1
45930,-100,4,1,1,80,0,0
45931,-100,4,1,1,80,0,1
56598,-100,4,1,1,80,0,0
78015,-100,4,2,1,80,0,0
97681,-200,4,2,1,80,0,0
98181,-100,4,2,1,80,0,0
99098,-100,4,1,1,80,0,0
99265,-100,4,1,1,80,0,1
109930,-100,4,1,1,80,0,0
109931,-100,4,1,1,80,0,1
120598,-100,4,1,1,80,0,0
141931,-100,4,1,1,80,0,1
152597,-100,4,1,1,80,0,0
152598,-100,4,1,1,80,0,1
163264,-100,4,1,1,80,0,0
163265,-100,4,1,1,80,0,1
173930,-100,4,1,1,80,0,0
173931,-100,4,1,1,80,0,1
184598,-100,4,1,1,80,0,0

[HitObjects]
480,32,6607,5,4,0:0:0:0:
416,64,6705,1,0,0:0:0:0:
352,32,6901,1,0,0:0:0:0:
352,32,6999,1,0,0:0:0:0:
288,64,7195,1,0,0:0:0:0:
224,32,7293,1,0,0:0:0:0:
160,64,7489,1,0,0:0:0:0:
128,32,7587,1,8,0:0:0:0:
96,64,7685,1,0,0:0:0:0:
64,32,7784,1,0,0:0:0:0:
32,64,7784,1,0,0:0:0:0:
464,128,7980,5,0,0:0:0:0:
432,160,8078,1,0,0:0:0:0:
368,128,8274,1,0,0:0:0:0:
336,160,8372,1,0,0:0:0:0:
272,128,8470,1,0,0:0:0:0:
208,160,8666,1,0,0:0:0:0:
144,128,8862,1,0,0:0:0:0:
112,160,8960,1,12,0:0:0:0:
48,128,9058,1,0,0:0:0:0:
480,224,9254,5,4,0:0:0:0:
416,256,9450,1,0,0:0:0:0:
352,224,9548,1,0,0:0:0:0:
352,224,9646,1,0,0:0:0:0:
288,256,9842,1,0,0:0:0:0:
224,224,10038,1,0,0:0:0:0:
160,256,10136,1,0,0:0:0:0:
128,224,10235,1,8,0:0:0:0:
96,256,10333,1,0,0:0:0:0:
64,224,10431,1,0,0:0:0:0:
32,256,10529,1,0,0:0:0:0:
464,320,10627,5,0,0:0:0:0:
432,352,10725,1,0,0:0:0:0:
368,320,10921,1,0,0:0:0:0:
336,352,11019,1,0,0:0:0:0:
272,320,11117,1,0,0:0:0:0:
208,352,11313,1,0,0:0:0:0:
144,320,11509,1,0,0:0:0:0:
112,352,11607,1,12,0:0:0:0:
48,320,11705,1,0,0:0:0:0:
32,64,11901,5,4,0:0:0:0:
96,32,12097,1,0,0:0:0:0:
160,64,12293,1,0,0:0:0:0:
160,64,12293,1,0,0:0:0:0:
224,32,12489,1,0,0:0:0:0:
288,64,12665,1,0,0:0:0:0:
352,32,12832,1,0,0:0:0:0:
384,64,12915,1,12,0:0:0:0:
416,32,12998,1,0,0:0:0:0:
448,64,13082,1,0,0:0:0:0:
480,32,13165,1,0,0:0:0:0:
32,160,13248,5,4,0:0:0:0:
64,128,13332,1,0,0:0:0:0:
96,160,13415,1,0,0:0:0:0:
160,128,13581,1,0,0:0:0:0:
192,160,13665,1,0,0:0:0:0:
256,128,13831,1,0,0:0:0:0:
320,160,13998,1,0,0:0:0:0:
384,128,14165,1,0,0:0:0:0:
416,160,14248,1,12,0:0:0:0:
480,128,14415,1,0,0:0:0:0:
32,256,14581,5,4,0:0:0:0:
96,224,14748,1,0,0:0:0:0:
160,256,14915,1,0,0:0:0:0:
160,256,14998,1,0,0:0:0:0:
224,224,15165,1,0,0:0:0:0:
256,256,15248,1,4,0:0:0:0:
288,224,15331,1,0,0:0:0:0:
352,256,15498,1,0,0:0:0:0:
384,224,15581,1,8,0:0:0:0:
416,256,15665,1,0,0:0:0:0:
448,224,15748,1,0,0:0:0:0:
480,256,15831,1,0,0:0:0:0:
32,352,15915,5,4,0:0:0:0:
64,320,15998,1,0,0:0:0:0:
96,352,16081,1,0,0:0:0:0:
160,320,16248,1,4,0:0:0:0:
160,320,16331,1,0,0:0:0:0:
224,352,16498,1,0,0:0:0:0:
256,320,16581,1,4,0:0:0:0:
288,352,16665,1,0,0:0:0:0:
320,320,16748,1,0,0:0:0:0:
352,352,16831,1,0,0:0:0:0:
384,320,16915,1,8,0:0:0:0:
416,352,16998,1,0,0:0:0:0:
448,320,17081,1,0,0:0:0:0:
480,352,17165,1,0,0:0:0:0:
480,32,17248,6,0,C|480:128,1,96,4|0,0:0|0:0,0:0:0:0:
416,32,17581,2,0,C|416:128,1,96
352,32,17915,2,0,C|352:128,1,96
288,32,18248,2,0,C|288:128,1,96,8|0,0:0|0:0,0:0:0:0:
32,32,18581,6,0,C|32:128,1,96
96,32,18915,2,0,C|96:128,1,96
160,32,19248,2,0,C|160:128,1,96
224,32,19581,2,0,C|224:128,1,96,12|0,0:0|0:0,0:0:0:0:
480,352,19915,6,0,C|480:256,1,96,4|0,0:0|0:0,0:0:0:0:
416,352,20248,2,0,C|416:256,1,96
352,352,20581,2,0,C|352:256,1,96
288,352,20915,2,0,C|288:256,1,96,8|0,0:0|0:0,0:0:0:0:
32,352,21248,6,0,C|32:256,1,96
96,352,21581,2,0,C|96:256,1,96
160,352,21915,2,0,C|160:256,1,96
224,352,22248,2,0,C|224:256,1,96,12|0,0:0|0:0,0:0:0:0:
480,32,22581,6,0,C|384:32,1,96,4|0,0:0|0:0,0:0:0:0:
480,96,22915,2,0,C|384:96,1,96
480,352,23248,6,0,C|384:352,1,96,0|0,0:0|0:0,0:0:0:0:
480,288,23581,2,0,C|384:288,1,96,12|0,0:0|0:0,0:0:0:0:
32,32,23915,6,0,C|128:32,1,96,4|0,0:0|0:0,0:0:0:0:
32,96,24248,2,0,C|128:96,1,96
32,352,24581,6,0,C|128:352,1,96,0|0,0:0|0:0,0:0:0:0:
32,288,24915,2,0,C|128:288,1,96,12|0,0:0|0:0,0:0:0:0:
256,128,25248,6,0,C|256:32,1,96,4|0,0:0|0:0,0:0:0:0:
320,192,25581,6,0,C|416:192,1,96
256,256,25915,6,0,C|256:352,1,96,4|0,0:0|0:0,0:0:0:0:
192,192,26248,6,0,C|96:192,1,96,8|0,0:0|0:0,0:0:0:0:
256,32,26581,6,0,C|256:128,1,96,4|0,0:0|0:0,0:0:0:0:
416,192,26915,6,0,C|320:192,1,96,4|0,0:0|0:0,0:0:0:0:
256,352,27248,6,0,C|256:256,1,96,4|0,0:0|0:0,0:0:0:0:
96,192,27581,6,0,C|192:192,1,96,8|0,0:0|0:0,0:0:0:0:
480,352,27915,5,4,0:0:0:0:
480,288,28081,1,0,0:0:0:0:
480,224,28248,1,8,0:0:0:0:
448,224,28331,1,0,0:0:0:0:
416,224,28415,1,0,0:0:0:0:
416,160,28581,1,0,0:0:0:0:
480,160,28748,1,0,0:0:0:0:
480,96,28915,1,8,0:0:0:0:
480,72,28998,1,0,0:0:0:0:
480,48,29081,1,0,0:0:0:0:
480,24,29165,1,0,0:0:0:0:
288,352,29248,5,0,0:0:0:0:
288,288,29415,1,0,0:0:0:0:
288,224,29581,1,8,0:0:0:0:
320,224,29665,1,0,0:0:0:0:
352,224,29748,1,0,0:0:0:0:
352,192,29831,1,0,0:0:0:0:
352,160,29915,1,2,0:0:0:0:
288,160,30081,1,2,0:0:0:0:
288,96,30248,1,10,0:0:0:0:
288,32,30415,1,2,0:0:0:0:
32,352,30581,5,0,0:0:0:0:
32,288,30748,1,0,0:0:0:0:
32,224,30915,1,8,0:0:0:0:
64,224,30998,1,0,0:0:0:0:
96,224,31081,1,0,0:0:0:0:
96,160,31248,1,0,0:0:0:0:
32,160,31415,1,0,0:0:0:0:
32,96,31581,1,8,0:0:0:0:
32,72,31665,1,0,0:0:0:0:
32,48,31748,1,0,0:0:0:0:
32,24,31831,1,0,0:0:0:0:
224,352,31915,5,0,0:0:0:0:
224,288,32081,1,0,0:0:0:0:
224,224,32248,1,8,0:0:0:0:
192,224,32331,1,0,0:0:0:0:
160,224,32415,1,0,0:0:0:0:
160,192,32498,1,0,0:0:0:0:
160,160,32581,1,2,0:0:0:0:
224,160,32748,1,2,0:0:0:0:
224,96,32915,1,10,0:0:0:0:
224,32,33081,1,2,0:0:0:0:
480,48,33248,5,4,0:0:0:0:
416,48,33415,1,0,0:0:0:0:
416,112,33581,1,8,0:0:0:0:
416,144,33665,1,0,0:0:0:0:
416,176,33748,1,0,0:0:0:0:
480,176,33915,1,0,0:0:0:0:
480,240,34081,1,0,0:0:0:0:
416,240,34248,1,8,0:0:0:0:
416,272,34331,1,0,0:0:0:0:
416,304,34415,1,0,0:0:0:0:
416,336,34498,1,0,0:0:0:0:
288,48,34581,5,0,0:0:0:0:
352,48,34748,1,0,0:0:0:0:
352,112,34915,1,8,0:0:0:0:
352,144,34998,1,0,0:0:0:0:
352,176,35081,1,0,0:0:0:0:
352,208,35165,1,0,0:0:0:0:
352,240,35248,1,2,0:0:0:0:
288,240,35415,2,0,C|288:272,3,32,2|0|0|10,0:0|0:0|0:0|0:0,0:0:0:0:
288,336,35748,1,2,0:0:0:0:
32,32,35915,5,6,0:0:0:0:
96,128,36165,1,0,0:0:0:0:
96,160,36248,1,8,0:0:0:0:
96,192,36331,1,0,0:0:0:0:
96,224,36415,1,0,0:0:0:0:
32,224,36581,1,6,0:0:0:0:
96,320,36831,1,0,0:0:0:0:
96,352,36915,1,8,0:0:0:0:
32,352,37081,1,0,0:0:0:0:
224,32,37248,5,6,0:0:0:0:
224,96,37415,1,0,0:0:0:0:
192,96,37498,1,0,0:0:0:0:
160,96,37581,1,14,0:0:0:0:
160,160,37748,1,0,0:0:0:0:
192,224,37915,2,0,L|210:240|192:256|174:272|192:288|209:304|192:320|173:336|192:352,1,192,6|8,0:0|0:0,0:0:0:0:
480,32,38581,5,4,0:0:0:0:
416,64,38748,1,0,0:0:0:0:
352,32,38915,1,8,0:0:0:0:
320,48,38998,1,0,0:0:0:0:
288,64,39081,1,0,0:0:0:0:
224,32,39248,1,0,0:0:0:0:
160,64,39415,1,0,0:0:0:0:
96,32,39581,1,8,0:0:0:0:
72,48,39665,1,0,0:0:0:0:
48,64,39748,1,0,0:0:0:0:
24,48,39831,1,0,0:0:0:0:
480,128,39915,5,0,0:0:0:0:
416,160,40081,1,0,0:0:0:0:
352,128,40248,1,8,0:0:0:0:
320,144,40331,1,0,0:0:0:0:
288,160,40415,1,0,0:0:0:0:
256,144,40498,1,0,0:0:0:0:
224,128,40581,1,2,0:0:0:0:
160,160,40748,1,2,0:0:0:0:
96,128,40915,1,10,0:0:0:0:
32,160,41081,1,2,0:0:0:0:
480,224,41248,5,0,0:0:0:0:
416,256,41415,1,0,0:0:0:0:
352,224,41581,1,8,0:0:0:0:
320,240,41665,1,0,0:0:0:0:
288,256,41748,1,0,0:0:0:0:
224,224,41915,1,0,0:0:0:0:
160,256,42081,1,0,0:0:0:0:
96,224,42248,1,8,0:0:0:0:
72,240,42331,1,0,0:0:0:0:
48,256,42415,1,0,0:0:0:0:
24,240,42498,1,0,0:0:0:0:
480,320,42581,5,0,0:0:0:0:
416,352,42748,1,0,0:0:0:0:
352,320,42915,1,8,0:0:0:0:
288,352,42998,1,0,0:0:0:0:
256,336,43081,1,0,0:0:0:0:
224,320,43165,1,0,0:0:0:0:
192,336,43248,1,2,0:0:0:0:
160,352,43415,1,2,0:0:0:0:
96,320,43581,1,10,0:0:0:0:
32,352,43748,1,2,0:0:0:0:
32,64,43915,5,4,0:0:0:0:
96,32,44081,1,0,0:0:0:0:
160,64,44248,1,8,0:0:0:0:
192,48,44331,1,0,0:0:0:0:
224,32,44415,1,0,0:0:0:0:
288,64,44581,1,0,0:0:0:0:
352,32,44748,1,0,0:0:0:0:
416,64,44915,1,8,0:0:0:0:
440,48,44998,1,0,0:0:0:0:
464,32,45081,1,0,0:0:0:0:
488,48,45165,1,0,0:0:0:0:
48,160,45248,5,4,0:0:0:0:
112,128,45415,1,0,0:0:0:0:
176,160,45581,1,8,0:0:0:0:
208,144,45665,1,0,0:0:0:0:
240,128,45748,1,0,0:0:0:0:
272,144,45831,1,0,0:0:0:0:
304,160,45915,1,2,0:0:0:0:
368,128,46081,2,0,L|400:128,3,32,2|0|0|10,0:0|0:0|0:0|0:0,0:0:0:0:
464,160,46415,1,2,0:0:0:0:
32,256,46581,5,6,0:0:0:0:
152,224,46831,1,0,0:0:0:0:
184,240,46915,1,8,0:0:0:0:
216,256,46998,1,0,0:0:0:0:
248,240,47081,1,0,0:0:0:0:
320,256,47248,1,6,0:0:0:0:
384,224,47415,2,0,L|416:224,3,32,0|0|0|8,0:0|0:0|0:0|0:0,0:0:0:0:
480,256,47748,1,0,0:0:0:0:
32,352,47915,5,6,0:0:0:0:
96,320,48081,1,0,0:0:0:0:
160,352,48248,1,12,0:0:0:0:
224,320,48415,1,0,0:0:0:0:
256,336,48498,1,0,0:0:0:0:
288,352,48581,1,4,0:0:0:0:
320,336,48665,1,0,0:0:0:0:
352,320,48748,1,0,0:0:0:0:
384,336,48831,1,0,0:0:0:0:
416,352,48915,1,12,0:0:0:0:
480,320,49081,1,0,0:0:0:0:
448,64,49248,5,4,0:0:0:0:
384,96,49415,1,0,0:0:0:0:
320,128,49581,1,0,0:0:0:0:
320,128,49665,1,0,0:0:0:0:
320,128,49748,1,0,0:0:0:0:
192,64,49915,5,0,0:0:0:0:
128,96,50081,1,0,0:0:0:0:
64,128,50248,1,0,0:0:0:0:
64,128,50331,1,0,0:0:0:0:
64,128,50415,1,0,0:0:0:0:
64,128,50498,1,0,0:0:0:0:
448,256,50581,5,0,0:0:0:0:
384,288,50748,1,0,0:0:0:0:
320,320,50915,1,0,0:0:0:0:
320,320,50998,1,0,0:0:0:0:
320,320,51081,1,0,0:0:0:0:
320,320,51165,1,0,0:0:0:0:
320,320,51248,1,0,0:0:0:0:
192,256,51415,5,0,0:0:0:0:
128,288,51581,1,0,0:0:0:0:
64,320,51748,1,0,0:0:0:0:
64,64,51915,5,0,0:0:0:0:
128,96,52081,1,0,0:0:0:0:
192,128,52248,1,0,0:0:0:0:
192,128,52331,1,0,0:0:0:0:
192,128,52415,1,0,0:0:0:0:
320,64,52581,5,0,0:0:0:0:
384,96,52748,1,0,0:0:0:0:
448,128,52915,1,0,0:0:0:0:
448,128,52998,1,0,0:0:0:0:
448,128,53081,1,0,0:0:0:0:
448,128,53165,1,0,0:0:0:0:
64,256,53248,5,0,0:0:0:0:
128,288,53415,1,0,0:0:0:0:
192,320,53581,1,0,0:0:0:0:
192,320,53665,1,0,0:0:0:0:
192,320,53748,1,0,0:0:0:0:
192,320,53831,1,0,0:0:0:0:
320,256,53915,5,0,0:0:0:0:
384,288,54081,2,0,L|399:295|384:288,3,32
448,320,54415,1,0,0:0:0:0:
32,192,54581,5,0,0:0:0:0:
96,192,54748,1,0,0:0:0:0:
128,192,54831,1,0,0:0:0:0:
160,192,54915,1,0,0:0:0:0:
480,192,55081,5,0,0:0:0:0:
416,192,55248,1,0,0:0:0:0:
384,192,55331,1,0,0:0:0:0:
352,192,55415,1,0,0:0:0:0:
256,32,55581,5,0,0:0:0:0:
256,352,55748,5,0,0:0:0:0:
480,32,55915,5,0,0:0:0:0:
416,96,56081,1,0,0:0:0:0:
32,32,56248,5,0,0:0:0:0:
96,96,56415,1,0,0:0:0:0:
32,352,56581,5,0,0:0:0:0:
96,288,56748,1,0,0:0:0:0:
480,352,56915,5,0,0:0:0:0:
416,288,57081,1,0,0:0:0:0:
256,192,57248,5,4,0:0:0:0:
256,112,57415,1,0,0:0:0:0:
256,32,57581,1,0,0:0:0:0:
256,32,57665,1,0,0:0:0:0:
256,32,57748,1,0,0:0:0:0:
256,192,57915,5,4,0:0:0:0:
176,192,58081,1,0,0:0:0:0:
96,192,58248,1,0,0:0:0:0:
96,192,58331,1,0,0:0:0:0:
96,192,58415,1,0,0:0:0:0:
96,192,58498,1,0,0:0:0:0:
256,192,58581,5,4,0:0:0:0:
256,272,58748,1,0,0:0:0:0:
256,352,58915,1,4,0:0:0:0:
256,352,58998,1,0,0:0:0:0:
256,352,59081,1,0,0:0:0:0:
256,352,59165,1,0,0:0:0:0:
256,192,59248,5,4,0:0:0:0:
336,192,59415,2,0,L|352:192|336:192,3,32
416,192,59748,1,0,0:0:0:0:
32,32,59915,5,4,0:0:0:0:
32,32,60081,1,0,0:0:0:0:
96,96,60248,5,0,0:0:0:0:
96,96,60331,1,0,0:0:0:0:
96,96,60415,1,0,0:0:0:0:
32,160,60581,5,0,0:0:0:0:
32,160,60748,1,0,0:0:0:0:
96,224,60915,5,0,0:0:0:0:
96,224,60998,1,0,0:0:0:0:
96,224,61081,1,0,0:0:0:0:
96,224,61165,1,0,0:0:0:0:
96,224,61248,1,0,0:0:0:0:
32,288,61415,5,0,0:0:0:0:
96,352,61581,5,0,0:0:0:0:
96,352,61665,1,0,0:0:0:0:
96,352,61748,1,0,0:0:0:0:
96,352,61831,1,0,0:0:0:0:
96,352,61915,1,0,0:0:0:0:
224,352,62081,5,0,0:0:0:0:
160,288,62248,5,0,0:0:0:0:
224,224,62415,5,0,0:0:0:0:
160,160,62581,5,0,0:0:0:0:
160,160,62748,1,0,0:0:0:0:
224,96,62915,5,0,0:0:0:0:
224,96,62998,1,0,0:0:0:0:
224,96,63081,1,0,0:0:0:0:
160,32,63248,5,0,0:0:0:0:
160,32,63415,1,0,0:0:0:0:
288,32,63581,5,0,0:0:0:0:
288,32,63665,1,0,0:0:0:0:
288,32,63748,1,0,0:0:0:0:
288,32,63831,1,0,0:0:0:0:
288,32,63915,1,0,0:0:0:0:
352,96,64081,5,0,0:0:0:0:
288,160,64248,5,0,0:0:0:0:
288,160,64331,1,0,0:0:0:0:
288,160,64415,1,0,0:0:0:0:
288,160,64498,1,0,0:0:0:0:
288,160,64581,1,0,0:0:0:0:
352,224,64748,6,0,L|363:236|352:224,3,32
288,288,65081,5,0,0:0:0:0:
352,352,65248,5,4,0:0:0:0:
480,352,65415,5,0,0:0:0:0:
480,352,65498,1,0,0:0:0:0:
480,352,65581,1,0,0:0:0:0:
416,288,65748,5,0,0:0:0:0:
480,224,65915,5,0,0:0:0:0:
480,224,65998,1,0,0:0:0:0:
480,224,66081,1,0,0:0:0:0:
416,160,66248,5,0,0:0:0:0:
480,96,66415,5,0,0:0:0:0:
416,32,66581,5,4,0:0:0:0:
96,32,66748,5,0,0:0:0:0:
96,352,66915,5,0,0:0:0:0:
416,352,67081,5,0,0:0:0:0:
352,96,67248,5,0,0:0:0:0:
160,96,67415,5,0,0:0:0:0:
160,288,67581,5,4,0:0:0:0:
352,288,67748,5,0,0:0:0:0:
256,32,67915,5,4,0:0:0:0:
256,32,68081,1,0,0:0:0:0:
96,192,68248,5,0,0:0:0:0:
96,192,68331,1,0,0:0:0:0:
96,192,68415,1,0,0:0:0:0:
256,352,68581,5,4,0:0:0:0:
256,352,68748,1,0,0:0:0:0:
416,192,68915,5,0,0:0:0:0:
416,192,68998,1,0,0:0:0:0:
416,192,69081,1,0,0:0:0:0:
416,192,69165,1,0,0:0:0:0:
416,192,69248,1,4,0:0:0:0:
256,272,69415,5,0,0:0:0:0:
336,192,69581,5,4,0:0:0:0:
336,192,69665,1,0,0:0:0:0:
336,192,69748,1,0,0:0:0:0:
336,192,69831,1,0,0:0:0:0:
336,192,69915,1,4,0:0:0:0:
256,112,70081,5,0,0:0:0:0:
176,192,70248,5,4,0:0:0:0:
256,192,70415,5,0,0:0:0:0:
32,32,70581,6,0,C|32:128,1,96,4|0,0:0|0:0,0:0:0:0:
96,32,70915,2,0,C|96:128,1,96,2|0,0:0|0:0,0:0:0:0:
160,32,71248,2,0,C|160:128,1,96,2|0,0:0|0:0,0:0:0:0:
224,32,71581,1,2,0:0:0:0:
288,32,71748,1,2,0:0:0:0:
480,32,72081,5,0,0:0:0:0:
480,32,72248,2,0,C|480:128,1,96,2|0,0:0|0:0,0:0:0:0:
416,32,72581,2,0,C|416:128,1,96,2|0,0:0|0:0,0:0:0:0:
352,32,72915,2,0,C|352:128,1,96,2|0,0:0|0:0,0:0:0:0:
480,352,73248,6,0,C|480:256,1,96,2|0,0:0|0:0,0:0:0:0:
416,352,73581,2,0,C|416:256,1,96,2|0,0:0|0:0,0:0:0:0:
352,352,73915,2,0,C|352:256,1,96,2|0,0:0|0:0,0:0:0:0:
288,352,74248,1,2,0:0:0:0:
224,352,74415,1,2,0:0:0:0:
32,352,74748,5,0,0:0:0:0:
32,352,74915,2,0,C|32:256,1,96,2|0,0:0|0:0,0:0:0:0:
96,352,75248,2,0,C|96:256,1,96,2|0,0:0|0:0,0:0:0:0:
160,352,75581,1,2,0:0:0:0:
224,352,75748,1,2,0:0:0:0:
32,32,75915,6,0,C|128:32,1,96,2|0,0:0|0:0,0:0:0:0:
32,96,76248,2,0,C|128:96,1,96,2|0,0:0|0:0,0:0:0:0:
32,160,76581,2,0,C|128:160,1,96,2|0,0:0|0:0,0:0:0:0:
192,128,76915,1,2,0:0:0:0:
192,64,77081,1,2,0:0:0:0:
480,32,77415,5,0,0:0:0:0:
480,32,77581,2,0,C|384:32,1,96,2|0,0:0|0:0,0:0:0:0:
480,96,77915,2,0,C|384:96,1,96,2|0,0:0|0:0,0:0:0:0:
480,160,78248,2,0,C|384:160,1,96,2|0,0:0|0:0,0:0:0:0:
192,352,78581,6,0,C|192:256,1,96,6|0,0:0|0:0,0:0:0:0:
256,352,78915,2,0,C|256:256,1,96,2|0,0:0|0:0,0:0:0:0:
320,352,79248,2,0,C|320:256,1,96,6|0,0:0|0:0,0:0:0:0:
288,192,79581,1,2,0:0:0:0:
224,192,79748,1,2,0:0:0:0:
32,352,79915,5,4,0:0:0:0:
32,32,80248,5,4,0:0:0:0:
480,32,80581,5,4,0:0:0:0:
480,352,80915,5,2,0:0:0:0:
256,352,81081,5,2,0:0:0:0:
192,32,81248,6,0,C|192:128,1,96,6|0,0:0|0:0,0:0:0:0:
256,32,81581,2,0,C|256:128,1,96,2|0,0:0|0:0,0:0:0:0:
320,32,81915,2,0,C|320:128,1,96,2|0,0:0|0:0,0:0:0:0:
288,192,82248,1,2,0:0:0:0:
224,192,82415,1,2,0:0:0:0:
32,352,82748,5,0,0:0:0:0:
32,352,82915,2,0,C|32:256,1,96,2|0,0:0|0:0,0:0:0:0:
96,352,83248,2,0,C|96:256,1,96,2|0,0:0|0:0,0:0:0:0:
160,352,83581,1,2,0:0:0:0:
160,256,83748,1,2,0:0:0:0:
480,352,83915,6,0,C|480:256,1,96,2|0,0:0|0:0,0:0:0:0:
416,352,84248,2,0,C|416:256,1,96,2|0,0:0|0:0,0:0:0:0:
352,352,84581,1,2,0:0:0:0:
352,352,84748,2,0,C|352:256,1,96,2|0,0:0|0:0,0:0:0:0:
416,192,85081,1,2,0:0:0:0:
32,32,85415,5,0,0:0:0:0:
32,32,85581,2,0,C|128:32,1,96,2|0,0:0|0:0,0:0:0:0:
32,96,85915,2,0,C|128:96,1,96,2|0,0:0|0:0,0:0:0:0:
32,160,86248,2,0,C|128:160,1,96,2|0,0:0|0:0,0:0:0:0:
480,32,86581,6,0,C|384:32,1,96,6|0,0:0|0:0,0:0:0:0:
480,96,86915,2,0,C|384:96,1,96,2|0,0:0|0:0,0:0:0:0:
480,160,87248,2,0,C|384:160,1,96,2|0,0:0|0:0,0:0:0:0:
480,224,87581,1,2,0:0:0:0:
480,224,87748,2,0,C|384:224,1,96,2|4,0:0|0:0,0:0:0:0:
480,352,88081,5,0,0:0:0:0:
480,352,88248,2,0,C|384:352,1,96,2|0,0:0|0:0,0:0:0:0:
480,288,88581,2,0,C|384:288,1,96,2|0,0:0|0:0,0:0:0:0:
320,352,88915,1,2,0:0:0:0:
320,288,89081,1,2,0:0:0:0:
32,352,89248,6,0,C|128:352,2,96,6|0|0,0:0|0:0|0:0,0:0:0:0:
32,288,89748,1,2,0:0:0:0:
32,288,89915,2,0,C|128:288,1,96,6|0,0:0|0:0,0:0:0:0:
32,224,90248,1,2,0:0:0:0:
32,224,90415,2,0,C|128:224,1,96,6|0,0:0|0:0,0:0:0:0:
256,32,90915,5,6,0:0:0:0:
256,96,91081,1,2,0:0:0:0:
256,160,91248,2,0,C|256:352,1,192,6|4,0:0|0:0,0:0:0:0:
480,32,91915,5,4,0:0:0:0:
448,96,92081,1,0,0:0:0:0:
416,160,92248,1,8,0:0:0:0:
416,160,92331,1,0,0:0:0:0:
416,160,92415,1,0,0:0:0:0:
448,224,92581,1,0,0:0:0:0:
480,288,92748,1,0,0:0:0:0:
448,352,92915,1,8,0:0:0:0:
448,352,92998,1,0,0:0:0:0:
448,352,93081,1,0,0:0:0:0:
448,352,93165,1,0,0:0:0:0:
448,352,93248,1,0,0:0:0:0:
320,352,93415,5,0,0:0:0:0:
352,288,93581,1,8,0:0:0:0:
320,272,93665,1,0,0:0:0:0:
288,256,93748,1,0,0:0:0:0:
320,240,93831,1,0,0:0:0:0:
352,224,93915,1,2,0:0:0:0:
320,160,94081,1,2,0:0:0:0:
288,96,94248,1,10,0:0:0:0:
320,32,94415,1,2,0:0:0:0:
32,352,94581,5,0,0:0:0:0:
64,288,94748,1,0,0:0:0:0:
96,224,94915,1,8,0:0:0:0:
96,224,94998,1,0,0:0:0:0:
96,224,95081,1,0,0:0:0:0:
64,160,95248,1,0,0:0:0:0:
32,96,95415,1,0,0:0:0:0:
64,32,95581,1,8,0:0:0:0:
64,32,95665,1,0,0:0:0:0:
64,32,95748,1,0,0:0:0:0:
64,32,95831,1,0,0:0:0:0:
64,32,95915,1,0,0:0:0:0:
192,32,96081,5,0,0:0:0:0:
160,96,96248,1,8,0:0:0:0:
192,112,96331,1,0,0:0:0:0:
224,128,96415,1,0,0:0:0:0:
192,144,96498,1,0,0:0:0:0:
160,160,96581,1,2,0:0:0:0:
192,224,96748,1,2,0:0:0:0:
224,288,96915,1,10,0:0:0:0:
192,352,97081,1,2,0:0:0:0:
480,352,97248,5,4,0:0:0:0:
416,320,97415,1,0,0:0:0:0:
384,256,97581,1,8,0:0:0:0:
384,256,97665,1,0,0:0:0:0:
384,256,97748,1,0,0:0:0:0:
416,192,97915,1,0,0:0:0:0:
480,160,98081,1,0,0:0:0:0:
480,96,98248,1,8,0:0:0:0:
448,80,98331,1,0,0:0:0:0:
416,64,98415,1,0,0:0:0:0:
448,48,98498,1,0,0:0:0:0:
480,32,98581,1,0,0:0:0:0:
320,32,98748,5,0,0:0:0:0:
288,96,98915,1,8,0:0:0:0:
304,120,98998,1,0,0:0:0:0:
320,144,99081,1,0,0:0:0:0:
304,168,99165,1,0,0:0:0:0:
288,192,99248,1,2,0:0:0:0:
320,256,99415,2,0,C|320:288,3,32,2|0|0|10,0:0|0:0|0:0|0:0,0:0:0:0:
288,352,99748,1,2,0:0:0:0:
32,32,99915,5,6,0:0:0:0:
112,112,100165,1,0,0:0:0:0:
80,128,100248,1,8,0:0:0:0:
48,144,100331,1,0,0:0:0:0:
32,176,100415,1,0,0:0:0:0:
104,208,100581,1,6,0:0:0:0:
32,296,100831,1,0,0:0:0:0:
48,328,100915,1,8,0:0:0:0:
112,352,101081,1,0,0:0:0:0:
224,352,101248,5,6,0:0:0:0:
176,304,101415,1,0,0:0:0:0:
208,288,101498,1,0,0:0:0:0:
176,272,101581,1,14,0:0:0:0:
224,224,101748,1,0,0:0:0:0:
192,160,101915,2,0,L|210:144|192:128|174:112|192:96|209:80|192:64|173:48|192:32,1,192,6|8,0:0|0:0,0:0:0:0:
464,352,102581,5,4,0:0:0:0:
432,288,102748,1,0,0:0:0:0:
400,224,102915,1,8,0:0:0:0:
400,224,102998,1,0,0:0:0:0:
400,224,103081,1,0,0:0:0:0:
464,32,103248,5,0,0:0:0:0:
432,96,103415,1,0,0:0:0:0:
400,160,103581,1,8,0:0:0:0:
400,160,103665,1,0,0:0:0:0:
400,160,103748,1,0,0:0:0:0:
400,160,103831,1,0,0:0:0:0:
368,352,103915,5,0,0:0:0:0:
336,288,104081,1,0,0:0:0:0:
304,224,104248,1,8,0:0:0:0:
304,224,104331,1,0,0:0:0:0:
304,224,104415,1,0,0:0:0:0:
304,224,104498,1,0,0:0:0:0:
304,224,104581,1,2,0:0:0:0:
368,32,104748,5,2,0:0:0:0:
336,96,104915,1,10,0:0:0:0:
304,160,105081,1,2,0:0:0:0:
48,352,105248,5,0,0:0:0:0:
80,288,105415,1,0,0:0:0:0:
112,224,105581,1,8,0:0:0:0:
112,224,105665,1,0,0:0:0:0:
112,224,105748,1,0,0:0:0:0:
48,32,105915,5,0,0:0:0:0:
80,96,106081,1,0,0:0:0:0:
112,160,106248,1,8,0:0:0:0:
112,160,106331,1,0,0:0:0:0:
112,160,106415,1,0,0:0:0:0:
112,160,106498,1,0,0:0:0:0:
144,352,106581,5,0,0:0:0:0:
176,288,106748,1,0,0:0:0:0:
208,224,106915,1,8,0:0:0:0:
208,224,106998,1,0,0:0:0:0:
208,224,107081,1,0,0:0:0:0:
208,224,107165,1,0,0:0:0:0:
208,224,107248,1,2,0:0:0:0:
144,32,107415,5,2,0:0:0:0:
176,96,107581,1,10,0:0:0:0:
208,160,107748,1,2,0:0:0:0:
448,64,107915,5,4,0:0:0:0:
384,96,108081,1,0,0:0:0:0:
320,128,108248,1,8,0:0:0:0:
320,128,108331,1,0,0:0:0:0:
320,128,108415,1,0,0:0:0:0:
448,320,108581,5,0,0:0:0:0:
384,288,108748,1,0,0:0:0:0:
320,256,108915,1,8,0:0:0:0:
320,256,108998,1,0,0:0:0:0:
320,256,109081,1,0,0:0:0:0:
320,256,109165,1,0,0:0:0:0:
64,320,109248,5,4,0:0:0:0:
128,288,109415,1,0,0:0:0:0:
192,256,109581,1,8,0:0:0:0:
192,256,109665,1,0,0:0:0:0:
192,256,109748,1,0,0:0:0:0:
192,256,109831,1,0,0:0:0:0:
64,64,109915,5,2,0:0:0:0:
128,96,110081,2,0,L|142:104|128:96,3,32,2|0|0|10,0:0|0:0|0:0|0:0,0:0:0:0:
192,128,110415,1,2,0:0:0:0:
480,192,110581,5,6,0:0:0:0:
392,192,110831,1,0,0:0:0:0:
368,192,110915,1,8,0:0:0:0:
344,192,110998,1,0,0:0:0:0:
320,192,111081,1,0,0:0:0:0:
32,192,111248,5,6,0:0:0:0:
96,192,111415,2,0,C|128:192,3,32,0|0|0|8,0:0|0:0|0:0|0:0,0:0:0:0:
192,192,111748,1,0,0:0:0:0:
256,352,111915,5,6,0:0:0:0:
256,288,112081,1,0,0:0:0:0:
256,224,112248,1,12,0:0:0:0:
256,32,112415,5,0,0:0:0:0:
256,40,112498,1,0,0:0:0:0:
256,48,112581,1,4,0:0:0:0:
256,56,112665,1,0,0:0:0:0:
256,64,112748,1,0,0:0:0:0:
256,72,112831,1,0,0:0:0:0:
256,80,112915,1,12,0:0:0:0:
256,160,113081,1,0,0:0:0:0:
32,320,113248,5,4,0:0:0:0:
96,352,113415,1,0,0:0:0:0:
160,320,113581,1,0,0:0:0:0:
160,320,113665,1,0,0:0:0:0:
224,352,113831,1,0,0:0:0:0:
288,320,113998,1,0,0:0:0:0:
352,352,114165,1,0,0:0:0:0:
384,320,114248,1,8,0:0:0:0:
416,352,114331,1,0,0:0:0:0:
448,320,114415,1,0,0:0:0:0:
480,352,114498,1,0,0:0:0:0:
48,224,114665,5,0,0:0:0:0:
80,256,114748,1,0,0:0:0:0:
144,224,114915,1,0,0:0:0:0:
176,256,114998,1,0,0:0:0:0:
240,224,115165,1,0,0:0:0:0:
304,256,115331,1,0,0:0:0:0:
368,224,115498,1,0,0:0:0:0:
400,256,115581,1,12,0:0:0:0:
464,224,115748,1,0,0:0:0:0:
32,128,115915,5,4,0:0:0:0:
96,160,116081,1,0,0:0:0:0:
160,128,116248,1,0,0:0:0:0:
160,128,116331,1,0,0:0:0:0:
224,160,116498,1,0,0:0:0:0:
288,128,116665,1,0,0:0:0:0:
352,160,116831,1,0,0:0:0:0:
384,128,116915,1,8,0:0:0:0:
416,160,116998,1,0,0:0:0:0:
448,128,117081,1,0,0:0:0:0:
480,160,117165,1,0,0:0:0:0:
48,32,117331,5,0,0:0:0:0:
80,64,117415,1,0,0:0:0:0:
144,32,117581,1,0,0:0:0:0:
176,64,117665,1,0,0:0:0:0:
240,32,117831,1,0,0:0:0:0:
304,64,117998,1,0,0:0:0:0:
368,32,118165,1,0,0:0:0:0:
400,64,118248,1,12,0:0:0:0:
464,32,118415,1,0,0:0:0:0:
480,352,118581,5,4,0:0:0:0:
416,320,118748,1,0,0:0:0:0:
352,352,118915,1,0,0:0:0:0:
352,352,118998,1,0,0:0:0:0:
288,320,119165,1,0,0:0:0:0:
224,352,119331,1,0,0:0:0:0:
160,320,119498,1,0,0:0:0:0:
128,352,119581,1,8,0:0:0:0:
96,320,119665,1,0,0:0:0:0:
64,352,119748,1,0,0:0:0:0:
32,320,119831,1,0,0:0:0:0:
464,256,119998,5,0,0:0:0:0:
432,224,120081,1,0,0:0:0:0:
368,256,120248,1,0,0:0:0:0:
336,224,120331,1,0,0:0:0:0:
272,256,120498,1,0,0:0:0:0:
208,224,120665,1,0,0:0:0:0:
144,256,120831,1,0,0:0:0:0:
112,224,120915,1,12,0:0:0:0:
48,256,121081,1,0,0:0:0:0:
480,160,121248,5,4,0:0:0:0:
416,128,121415,1,0,0:0:0:0:
352,160,121581,1,0,0:0:0:0:
352,160,121665,1,0,0:0:0:0:
288,128,121831,1,0,0:0:0:0:
224,160,121998,1,0,0:0:0:0:
160,128,122165,1,0,0:0:0:0:
128,160,122248,1,8,0:0:0:0:
96,128,122331,1,0,0:0:0:0:
64,160,122415,1,0,0:0:0:0:
32,128,122498,1,0,0:0:0:0:
480,64,122665,5,0,0:0:0:0:
448,32,122748,1,0,0:0:0:0:
384,64,122915,1,0,0:0:0:0:
352,32,122998,1,0,0:0:0:0:
288,64,123165,1,0,0:0:0:0:
256,32,123248,1,4,0:0:0:0:
224,64,123331,1,0,0:0:0:0:
192,32,123415,1,0,0:0:0:0:
160,64,123498,1,0,0:0:0:0:
128,32,123581,1,12,0:0:0:0:
96,64,123665,1,0,0:0:0:0:
64,32,123748,1,0,0:0:0:0:
32,64,123831,1,0,0:0:0:0:
32,352,123915,5,4,0:0:0:0:
96,288,124081,5,0,0:0:0:0:
160,352,124248,5,0,0:0:0:0:
160,352,124331,1,0,0:0:0:0:
224,288,124498,5,0,0:0:0:0:
288,352,124665,5,0,0:0:0:0:
352,288,124831,5,0,0:0:0:0:
352,288,124915,1,8,0:0:0:0:
352,288,124998,1,0,0:0:0:0:
352,288,125081,1,0,0:0:0:0:
352,288,125165,1,0,0:0:0:0:
416,352,125331,5,0,0:0:0:0:
416,352,125415,1,0,0:0:0:0:
480,288,125581,5,0,0:0:0:0:
480,288,125665,1,0,0:0:0:0:
480,160,125831,5,0,0:0:0:0:
416,224,125998,5,0,0:0:0:0:
352,160,126165,5,0,0:0:0:0:
352,160,126248,1,12,0:0:0:0:
288,224,126415,5,0,0:0:0:0:
224,160,126581,5,4,0:0:0:0:
160,224,126748,5,0,0:0:0:0:
96,160,126915,5,0,0:0:0:0:
96,160,126998,1,0,0:0:0:0:
32,224,127165,5,0,0:0:0:0:
32,96,127331,5,0,0:0:0:0:
96,32,127498,5,0,0:0:0:0:
96,32,127581,1,8,0:0:0:0:
96,32,127665,1,0,0:0:0:0:
96,32,127748,1,0,0:0:0:0:
96,32,127831,1,0,0:0:0:0:
160,96,127998,5,0,0:0:0:0:
160,96,128081,1,0,0:0:0:0:
224,32,128248,5,0,0:0:0:0:
224,32,128331,1,0,0:0:0:0:
288,96,128498,5,0,0:0:0:0:
352,32,128665,5,0,0:0:0:0:
416,96,128831,5,0,0:0:0:0:
416,96,128915,1,12,0:0:0:0:
480,32,129081,5,0,0:0:0:0:
480,320,129248,5,4,0:0:0:0:
352,320,129415,5,0,0:0:0:0:
224,320,129581,5,0,0:0:0:0:
224,320,129665,1,0,0:0:0:0:
96,320,129831,5,0,0:0:0:0:
32,256,129998,5,0,0:0:0:0:
160,256,130165,5,0,0:0:0:0:
160,256,130248,1,12,0:0:0:0:
160,256,130331,1,0,0:0:0:0:
160,256,130415,1,0,0:0:0:0:
160,256,130498,1,0,0:0:0:0:
160,256,130581,1,4,0:0:0:0:
160,256,130665,1,0,0:0:0:0:
160,256,130748,1,0,0:0:0:0:
288,256,130915,5,0,0:0:0:0:
288,256,130998,1,0,0:0:0:0:
416,256,131165,5,0,0:0:0:0:
480,192,131331,5,0,0:0:0:0:
352,192,131498,5,0,0:0:0:0:
352,192,131581,1,12,0:0:0:0:
224,192,131748,5,0,0:0:0:0:
96,192,131915,5,4,0:0:0:0:
32,128,132081,5,0,0:0:0:0:
160,128,132248,5,0,0:0:0:0:
160,128,132331,1,0,0:0:0:0:
288,128,132498,5,0,0:0:0:0:
288,128,132581,1,4,0:0:0:0:
288,128,132665,1,0,0:0:0:0:
416,128,132831,5,0,0:0:0:0:
416,128,132915,1,8,0:0:0:0:
416,128,132998,1,0,0:0:0:0:
416,128,133081,1,0,0:0:0:0:
416,128,133165,1,0,0:0:0:0:
480,64,133248,5,4,0:0:0:0:
480,64,133331,1,0,0:0:0:0:
480,64,133415,1,0,0:0:0:0:
352,64,133581,5,4,0:0:0:0:
352,64,133665,1,0,0:0:0:0:
224,64,133831,5,0,0:0:0:0:
224,64,133915,1,4,0:0:0:0:
224,64,133998,1,0,0:0:0:0:
96,64,134165,5,0,0:0:0:0:
96,64,134248,1,8,0:0:0:0:
96,64,134331,1,0,0:0:0:0:
96,64,134415,1,0,0:0:0:0:
96,64,134498,1,0,0:0:0:0:
