osu file format v14

[General]
AudioFilename: audio.mp3
AudioLeadIn: 0
PreviewTime: 45812
Countdown: 0
SampleSet: Soft
StackLeniency: 0.7
Mode: 0
LetterboxInBreaks: 0
EpilepsyWarning: 1
WidescreenStoryboard: 1

[Editor]
Bookmarks: 57240
DistanceSpacing: 1.4
BeatDivisor: 4
GridSize: 32
TimelineZoom: 1

[Metadata]
Title:help herself (with BENEE)
TitleUnicode:help herself (with BENEE)
Artist:bbno$ x diamond pistols
ArtistUnicode:bbno$ x diamond pistols
Creator:Bakugo-
Version:Collab Normal
Source:
Tags:pop english male female vocalist vocals remix gouhin revolver baku bakugo my oh
BeatmapID:3316276
BeatmapSetID:1624258

[Difficulty]
HPDrainRate:4
CircleSize:3.3
OverallDifficulty:4.5
ApproachRate:5.2
SliderMultiplier:1.2
SliderTickRate:1

[Events]
//Background and Video events
0,0,"boygirl.jpg",0,0
//Break Periods
2,34583,40356
2,91726,101249
//Storyboard Layer 0 (Background)
Sprite,Background,Centre,"boygirl.jpg",320,240 S,0,10097,,0.4444444 F,0,10097,11526,0,1 S,0,41526,,0.4444444 F,0,45812,,0,1 S,0,98669,,0.4444444 F,0,98669,102955,0,1 F,0,102955,125812,1 S,0,125812,,0.4444444 F,0,125812,128669,1,0 F,0,128669,151526,1 F,0,151526,162955,1,0
Sprite,Background,Centre,"SB\bw blur.png",320,240 S,0,1,,0.4444444 F,0,1,11526,0,1
Sprite,Background,Centre,"SB\boy.png",320,240 S,0,11526,,0.4444444 S,0,11526,,0.4444444 F,0,11526,34383,1 F,0,34383,45812,1,0 S,0,45812,,0.4444444 F,0,45812,68312,1 S,0,68312,,0.4444444 F,0,68312,68669,1,0
Sprite,Background,Centre,"SB\girl.png",320,240 F,0,68312,68669,0,1 S,0,68669,,0.4444444 S,0,68669,,0.4444444 F,0,68669,98669,1 S,0,98669,,0.4444444 F,0,98669,102955,1,0
Sprite,Background,Centre,"sb\i stole this from wafer.png",0,0 C,0,102955,,173,91,255 M,0,102955,102999,358,276,371.5746,282.3263 F,2,102955,103712,1,0 S,2,102955,103712,0.3,0.06 P,0,102955,103712,A M,0,102999,103044,371.5746,282.3263,385.711,287.2215 M,0,103044,103088,385.711,287.2215,400.3337,290.3908 M,0,103088,103133,400.3337,290.3908,415.234,291.7882 M,0,103133,103178,415.234,291.7882,430.1992,291.3925 M,0,103178,103222,430.1992,291.3925,445.0152,289.2082 M,0,103222,103267,445.0152,289.2082,459.4701,285.2648 M,0,103267,103312,459.4701,285.2648,473.2383,279.3741
Sprite,Background,Centre,"sb\i stole this from wafer.png",508,246 C,0,103490,,173,91,255 F,2,103490,103890,1,0 S,2,103490,103890,0.3,0.06 P,0,103490,103890,A
Sprite,Background,Centre,"sb\i stole this from wafer.png",0,0 C,0,103669,,173,91,255 M,0,103669,103713,531,203,527.8044,188.3443 F,2,103669,104426,1,0 S,2,103669,104426,0.3,0.06 P,0,103669,104426,A M,0,103713,103758,527.8044,188.3443,524.6088,173.6887 M,0,103758,103802,524.6088,173.6887,521.4132,159.033 M,0,103802,103847,521.4132,159.033,518.2177,144.3774 M,0,103847,103892,518.2177,144.3774,515.022,129.7217 M,0,103892,103936,515.022,129.7217,511.8264,115.0661 M,0,103936,103981,511.8264,115.0661,508.6309,100.4104 M,0,103981,104026,508.6309,100.4104,505.4352,85.75477
Sprite,Background,Centre,"sb\i stole this from wafer.png",0,0 C,0,104383,,173,91,255 M,0,104383,104427,410,73,412.5029,87.78971 F,2,104383,104961,1,0 S,2,104383,104961,0.3,0.06 P,0,104383,104961,A M,0,104427,104472,412.5029,87.78971,415.0057,102.5794 M,0,104472,104516,415.0057,102.5794,417.5086,117.3691 M,0,104516,104561,417.5086,117.3691,420.0115,132.1588
Sprite,Background,Centre,"sb\i stole this from wafer.png",0,0 C,0,104740,,173,91,255 M,0,104740,104784,396,172,394.2327,186.8955 F,2,104740,105318,1,0 S,2,104740,105318,0.3,0.06 P,0,104740,105318,A M,0,104784,104829,394.2327,186.8955,392.4655,201.7911 M,0,104829,104873,392.4655,201.7911,390.6982,216.6866 M,0,104873,104918,390.6982,216.6866,389,231
Sprite,Background,Centre,"sb\i stole this from wafer.png",0,0 C,0,105097,,173,91,255 M,0,105097,105141,379,277,366.4261,285.1048 F,2,105097,105854,1,0 S,2,105097,105854,0.3,0.06 P,0,105097,105854,A M,0,105141,105186,366.4261,285.1048,352.931,291.4978 M,0,105186,105230,352.931,291.4978,338.6109,295.7581 M,0,105230,105275,338.6109,295.7581,323.7972,297.7836 M,0,105275,105320,323.7972,297.7836,308.8329,297.5233 M,0,105320,105364,308.8329,297.5233,294.1591,294.6254 M,0,105364,105409,294.1591,294.6254,280.0443,289.7614 M,0,105409,105454,280.0443,289.7614,266.8335,282.7979
Sprite,Background,Centre,"sb\i stole this from wafer.png",236,191 C,0,105812,,151,151,255 F,2,105812,106212,1,0 S,2,105812,106212,0.3,0.06 P,0,105812,106212,A
Sprite,Background,Centre,"sb\i stole this from wafer.png",155,138 C,0,106169,,151,151,255 F,2,106169,106569,1,0 S,2,106169,106569,0.3,0.06 P,0,106169,106569,A
Sprite,Background,Centre,"sb\i stole this from wafer.png",0,0 C,0,106526,,151,151,255 M,0,106526,106570,97,214,99.55472,228.7809 F,2,106526,107104,1,0 S,2,106526,107104,0.3,0.06 P,0,106526,107104,A M,0,106570,106615,99.55472,228.7809,102.1094,243.5617 M,0,106615,106659,102.1094,243.5617,104.6641,258.3425 M,0,106659,106704,104.6641,258.3425,107.2189,273.1234
Sprite,Background,Centre,"sb\i stole this from wafer.png",117,320 C,0,106883,,151,151,255 F,2,106883,107283,1,0 S,2,106883,107283,0.3,0.06 P,0,106883,107283,A
Sprite,Background,Centre,"sb\i stole this from wafer.png",0,0 C,0,107240,,151,151,255 M,0,107240,107284,208,348,205.7434,333.1707 F,2,107240,108354,1,0 S,2,107240,108354,0.3,0.06 P,0,107240,108354,A M,0,107284,107329,205.7434,333.1707,203.4867,318.3414 M,0,107329,107373,203.4867,318.3414,201.2301,303.5121 M,0,107373,107418,201.2301,303.5121,198.9735,288.6829 M,0,107418,107463,198.9735,288.6829,196.7169,273.8536 M,0,107463,107507,196.7169,273.8536,194.4602,259.0243 M,0,107507,107552,194.4602,259.0243,192.2036,244.195 M,0,107552,107597,192.2036,244.195,189.947,229.3657 M,0,107597,107641,189.947,229.3657,192.2036,244.195 M,0,107641,107686,192.2036,244.195,194.4602,259.0243 M,0,107686,107731,194.4602,259.0243,196.7169,273.8536 M,0,107731,107775,196.7169,273.8536,198.9735,288.6829 M,0,107775,107820,198.9735,288.6829,201.2301,303.5121 M,0,107820,107864,201.2301,303.5121,203.4867,318.3414 M,0,107864,107909,203.4867,318.3414,205.7434,333.1707 M,0,107909,107954,205.7434,333.1707,208,348
Sprite,Background,Centre,"sb\i stole this from wafer.png",0,0 C,0,108312,,151,151,255 M,0,108312,108356,295,387,309.0222,391.9373 F,2,108312,108890,1,0 S,2,108312,108890,0.3,0.06 P,0,108312,108890,A M,0,108356,108401,309.0222,391.9373,323.7196,393.5245 M,0,108401,108445,323.7196,393.5245,338.3343,391.0686 M,0,108445,108490,338.3343,391.0686,351.7873,384.7226
Sprite,Background,Centre,"sb\i stole this from wafer.png",380,345 C,0,108669,,206,206,255 F,2,108669,109069,1,0 S,2,108669,109069,0.3,0.06 P,0,108669,109069,A
Sprite,Background,Centre,"sb\i stole this from wafer.png",470,376 C,0,109026,,206,206,255 F,2,109026,109426,1,0 S,2,109026,109426,0.3,0.06 P,0,109026,109426,A
Sprite,Background,Centre,"sb\i stole this from wafer.png",0,0 C,0,109383,,206,206,255 M,0,109383,109427,540,310,537.5669,295.1987 F,2,109383,109961,1,0 S,2,109383,109961,0.3,0.06 P,0,109383,109961,A M,0,109427,109472,537.5669,295.1987,535.1338,280.3973 M,0,109472,109516,535.1338,280.3973,532.7007,265.5959 M,0,109516,109561,532.7007,265.5959,530.2676,250.7946
Sprite,Background,Centre,"sb\i stole this from wafer.png",520,203 C,0,109740,,206,206,255 F,2,109740,110140,1,0 S,2,109740,110140,0.3,0.06 P,0,109740,110140,A
Sprite,Background,Centre,"sb\i stole this from wafer.png",0,0 C,0,110097,,206,206,255 M,0,110097,110141,460,128,445.3842,124.6519 F,2,110097,111211,1,0 S,2,110097,111211,0.3,0.06 P,0,110097,111211,A M,0,110141,110186,445.3842,124.6519,430.4836,123.0555 M,0,110186,110230,430.4836,123.0555,415.5583,124.2141 M,0,110230,110275,415.5583,124.2141,401.1709,128.3917 M,0,110275,110320,401.1709,128.3917,387.059,133.47 M,0,110320,110364,387.059,133.47,372.4367,136.7231 M,0,110364,110409,372.4367,136.7231,357.4676,137.3809 M,0,110409,110454,357.4676,137.3809,342.5364,136.0354 M,0,110454,110498,342.5364,136.0354,357.4676,137.3809 M,0,110498,110543,357.4676,137.3809,372.4367,136.7231 M,0,110543,110588,372.4367,136.7231,387.059,133.47 M,0,110588,110632,387.059,133.47,401.1709,128.3917 M,0,110632,110677,401.1709,128.3917,415.5583,124.2141 M,0,110677,110721,415.5583,124.2141,430.4836,123.0555 M,0,110721,110766,430.4836,123.0555,445.3842,124.6519 M,0,110766,110811,445.3842,124.6519,460,128
Sprite,Background,Centre,"sb\i stole this from wafer.png",0,0 C,0,111169,,206,206,255 M,0,111169,111213,430,219,434.917,233.0873 F,2,111169,111747,1,0 S,2,111169,111747,0.3,0.06 P,0,111169,111747,A M,0,111213,111258,434.917,233.0873,437.55,247.7449 M,0,111258,111302,437.55,247.7449,437.2991,262.7022 M,0,111302,111347,437.2991,262.7022,433.3238,277.0828
Sprite,Background,Centre,"sb\i stole this from wafer.png",0,0 C,0,111526,,205,155,255 M,0,111526,111570,406,316,392.0955,321.5509 F,2,111526,112283,1,0 S,2,111526,112283,0.3,0.06 P,0,111526,112283,A M,0,111570,111615,392.0955,321.5509,377.6888,325.5555 M,0,111615,111659,377.6888,325.5555,362.8829,327.6865 M,0,111659,111704,362.8829,327.6865,347.9174,327.9074 M,0,111704,111749,347.9174,327.9074,333.0353,326.2119 M,0,111749,111793,333.0353,326.2119,318.5817,322.313 M,0,111793,111838,318.5817,322.313,304.6794,316.8132 M,0,111838,111883,304.6794,316.8132,291.5907,309.5797
Sprite,Background,Centre,"sb\i stole this from wafer.png",253,279 C,0,112062,,205,155,255 F,2,112062,112462,1,0 S,2,112062,112462,0.3,0.06 P,0,112062,112462,A
Sprite,Background,Centre,"sb\i stole this from wafer.png",0,0 C,0,112240,,205,155,255 M,0,112240,112284,206,292,191.3488,295.2161 F,2,112240,112997,1,0 S,2,112240,112997,0.3,0.06 P,0,112240,112997,A M,0,112284,112329,191.3488,295.2161,176.6977,298.4322 M,0,112329,112373,176.6977,298.4322,162.0465,301.6483 M,0,112373,112418,162.0465,301.6483,147.3953,304.8644 M,0,112418,112463,147.3953,304.8644,132.7442,308.0806 M,0,112463,112507,132.7442,308.0806,118.093,311.2967 M,0,112507,112552,118.093,311.2967,103.4418,314.5128 M,0,112552,112597,103.4418,314.5128,88.79068,317.7289
Sprite,Background,Centre,"sb\i stole this from wafer.png",0,0 C,0,112955,,205,155,255 M,0,112955,112999,118,211,112.7388,196.9962 F,2,112955,114069,1,0 S,2,112955,114069,0.3,0.06 P,0,112955,114069,A M,0,112999,113044,112.7388,196.9962,109.3514,182.4528 M,0,113044,113088,109.3514,182.4528,108.2287,167.5552 M,0,113088,113133,108.2287,167.5552,109.4,152.6505 M,0,113133,113178,109.4,152.6505,112.8421,138.0865 M,0,113178,113222,112.8421,138.0865,118.7943,124.3649 M,0,113222,113267,118.7943,124.3649,126.5616,111.6155 M,0,113267,113312,126.5616,111.6155,136.0345,100.0379 M,0,113312,113356,136.0345,100.0379,126.5616,111.6155 M,0,113356,113401,126.5616,111.6155,118.7943,124.3649 M,0,113401,113446,118.7943,124.3649,112.8421,138.0865 M,0,113446,113490,112.8421,138.0865,109.4,152.6505 M,0,113490,113535,109.4,152.6505,108.2287,167.5552 M,0,113535,113579,108.2287,167.5552,109.3514,182.4528 M,0,113579,113624,109.3514,182.4528,112.7388,196.9962 M,0,113624,113669,112.7388,196.9962,118,211
Sprite,Background,Centre,"sb\i stole this from wafer.png",0,0 C,0,114026,,205,155,255 M,0,114026,114070,204,168,217.8997,173.4379 F,2,114026,114604,1,0 S,2,114026,114604,0.3,0.06 P,0,114026,114604,A M,0,114070,114115,217.8997,173.4379,232.4939,176.3172 M,0,114115,114159,232.4939,176.3172,247.38,176.1014 M,0,114159,114204,247.38,176.1014,261.9139,172.7929
Sprite,Background,Centre,"sb\i stole this from wafer.png",0,0 C,0,114383,,173,91,255 M,0,114383,114427,302,147,315.9798,141.6205 F,2,114383,115140,1,0 S,2,114383,115140,0.3,0.06 P,0,114383,115140,A M,0,114427,114472,315.9798,141.6205,330.375,137.525 M,0,114472,114516,330.375,137.525,345.1324,134.9931 M,0,114516,114561,345.1324,134.9931,360.086,134.0555 M,0,114561,114606,360.086,134.0555,375.0326,135.0229 M,0,114606,114650,375.0326,135.0229,389.807,137.3975 M,0,114650,114695,389.807,137.3975,404.2467,141.3414 M,0,114695,114740,404.2467,141.3414,418.1884,146.8117
Sprite,Background,Centre,"sb\i stole this from wafer.png",456,175 C,0,114919,,173,91,255 F,2,114919,115319,1,0 S,2,114919,115319,0.3,0.06 P,0,114919,115319,A
Sprite,Background,Centre,"sb\i stole this from wafer.png",0,0 C,0,115097,,173,91,255 M,0,115097,115141,477,217,473.5352,231.5943 F,2,115097,115854,1,0 S,2,115097,115854,0.3,0.06 P,0,115097,115854,A M,0,115141,115186,473.5352,231.5943,470.0703,246.1887 M,0,115186,115230,470.0703,246.1887,466.6055,260.783 M,0,115230,115275,466.6055,260.783,463.1406,275.3774 M,0,115275,115320,463.1406,275.3774,459.6758,289.9717 M,0,115320,115364,459.6758,289.9717,456.2109,304.566 M,0,115364,115409,456.2109,304.566,452.7461,319.1604 M,0,115409,115454,452.7461,319.1604,449.2813,333.7548
Sprite,Background,Centre,"sb\i stole this from wafer.png",425,426 C,0,115812,,173,91,255 F,2,115812,116212,1,0 S,2,115812,116212,0.3,0.06 P,0,115812,116212,A
Sprite,Background,Centre,"sb\i stole this from wafer.png",0,0 C,0,116169,,173,91,255 M,0,116169,116213,356,358,341.9273,352.9609 F,2,116169,116747,1,0 S,2,116169,116747,0.3,0.06 P,0,116169,116747,A M,0,116213,116258,341.9273,352.9609,327.3365,349.8192 M,0,116258,116302,327.3365,349.8192,312.3947,349.0504 M,0,116302,116347,312.3947,349.0504,297.618,351.2868
Sprite,Background,Centre,"sb\i stole this from wafer.png",262,384 C,0,116526,,173,91,255 F,2,116526,116926,1,0 S,2,116526,116926,0.3,0.06 P,0,116526,116926,A
Sprite,Background,Centre,"sb\i stole this from wafer.png",0,0 C,0,116883,,173,91,255 M,0,116883,116927,186,325,172.6743,318.4022 F,2,116883,117461,1,0 S,2,116883,117461,0.3,0.06 P,0,116883,117461,A M,0,116927,116972,172.6743,318.4022,158.3237,314.7368 M,0,116972,117016,158.3237,314.7368,143.4276,314.8152 M,0,117016,117061,143.4276,314.8152,129.3303,319.5193
Sprite,Background,Centre,"sb\i stole this from wafer.png",0,0 C,0,117240,,151,151,255 M,0,117240,117284,104,360,102.046,345.1278 F,2,117240,117997,1,0 S,2,117240,117997,0.3,0.06 P,0,117240,117997,A M,0,117284,117329,102.046,345.1278,100.092,330.2556 M,0,117329,117373,100.092,330.2556,98.13797,315.3835 M,0,117373,117418,98.13797,315.3835,96.18396,300.5113 M,0,117418,117463,96.18396,300.5113,94.22995,285.6391 M,0,117463,117507,94.22995,285.6391,92.27594,270.7669 M,0,117507,117552,92.27594,270.7669,90.32193,255.8947 M,0,117552,117597,90.32193,255.8947,88.36792,241.0225
Sprite,Background,Centre,"sb\i stole this from wafer.png",98,194 C,0,117776,,151,151,255 F,2,117776,118176,1,0 S,2,117776,118176,0.3,0.06 P,0,117776,118176,A
Sprite,Background,Centre,"sb\i stole this from wafer.png",0,0 C,0,117955,,151,151,255 M,0,117955,117999,137,167,150.8603,172.7353 F,2,117955,118712,1,0 S,2,117955,118712,0.3,0.06 P,0,117955,118712,A M,0,117999,118044,150.8603,172.7353,164.7205,178.4706 M,0,118044,118088,164.7205,178.4706,178.5807,184.2058 M,0,118088,118133,178.5807,184.2058,192.441,189.9411 M,0,118133,118178,192.441,189.9411,206.4589,186.7243 M,0,118178,118222,206.4589,186.7243,220.5124,181.4804 M,0,118222,118267,220.5124,181.4804,234.5659,176.2366 M,0,118267,118312,234.5659,176.2366,248.6195,170.9927
Sprite,Background,Centre,"sb\i stole this from wafer.png",0,0 C,0,118669,,151,151,255 M,0,118669,118713,318,104,331.8148,98.42957 F,2,118669,119247,1,0 S,2,118669,119247,0.3,0.06 P,0,118669,119247,A M,0,118713,118758,331.8148,98.42957,346.3792,95.53288 M,0,118758,118802,346.3792,95.53288,361.2917,96.00331 M,0,118802,118847,361.2917,96.00331,375.4453,100.6264
Sprite,Background,Centre,"sb\i stole this from wafer.png",0,0 C,0,119026,,151,151,255 M,0,119026,119070,391,145,405.0516,150.0013 F,2,119026,119604,1,0 S,2,119026,119604,0.3,0.06 P,0,119026,119604,A M,0,119070,119115,405.0516,150.0013,419.71,152.5265 M,0,119115,119159,419.71,152.5265,434.6237,151.9735 M,0,119159,119204,434.6237,151.9735,448.9092,147.7095
Sprite,Background,Centre,"sb\i stole this from wafer.png",486,118 C,0,119383,,151,151,255 F,2,119383,119783,1,0 S,2,119383,119783,0.3,0.06 P,0,119383,119783,A
Sprite,Background,Centre,"sb\i stole this from wafer.png",0,0 C,0,119740,,151,151,255 M,0,119740,119784,528,204,530.1464,218.8456 F,2,119740,120318,1,0 S,2,119740,120318,0.3,0.06 P,0,119740,120318,A M,0,119784,119829,530.1464,218.8456,532.2927,233.6913 M,0,119829,119873,532.2927,233.6913,534.4391,248.5369 M,0,119873,119918,534.4391,248.5369,536.5854,263.3826
Sprite,Background,Centre,"sb\i stole this from wafer.png",0,0 C,0,120097,,206,206,255 M,0,120097,120141,538,311,525.6843,319.4915 F,2,120097,120854,1,0 S,2,120097,120854,0.3,0.06 P,0,120097,120854,A M,0,120141,120186,525.6843,319.4915,512.3961,326.304 M,0,120186,120230,512.3961,326.304,498.2164,331.012 M,0,120230,120275,498.2164,331.012,483.4723,333.5032 M,0,120275,120320,483.4723,333.5032,468.5045,333.7152 M,0,120320,120364,468.5045,333.7152,453.7507,331.2559 M,0,120364,120409,453.7507,331.2559,439.4899,326.8374 M,0,120409,120454,439.4899,326.8374,426.0652,320.2927
Sprite,Background,Centre,"sb\i stole this from wafer.png",0,0 C,0,120812,,206,206,255 M,0,120812,120856,372,240,357.767,235.4659 F,2,120812,121390,1,0 S,2,120812,121390,0.3,0.06 P,0,120812,121390,A M,0,120856,120901,357.767,235.4659,343.0256,233.3301 M,0,120901,120945,343.0256,233.3301,328.1399,234.058 M,0,120945,120990,328.1399,234.058,313.6572,237.6274
Sprite,Background,Centre,"sb\i stole this from wafer.png",289,279 C,0,121169,,206,206,255 F,2,121169,121569,1,0 S,2,121169,121569,0.3,0.06 P,0,121169,121569,A
Sprite,Background,Centre,"sb\i stole this from wafer.png",0,0 C,0,121526,,206,206,255 M,0,121526,121570,283,374,268.21,371.4987 F,2,121526,122640,1,0 S,2,121526,122640,0.3,0.06 P,0,121526,122640,A M,0,121570,121615,268.21,371.4987,253.42,368.9975 M,0,121615,121659,253.42,368.9975,238.63,366.4962 M,0,121659,121704,238.63,366.4962,223.84,363.995 M,0,121704,121749,223.84,363.995,209.05,361.4938 M,0,121749,121793,209.05,361.4938,194.2601,358.9925 M,0,121793,121838,194.2601,358.9925,179.4701,356.4913 M,0,121838,121883,179.4701,356.4913,164.6801,353.99 M,0,121883,121927,164.6801,353.99,179.4701,356.4913 M,0,121927,121972,179.4701,356.4913,194.2601,358.9925 M,0,121972,122017,194.2601,358.9925,209.05,361.4938 M,0,122017,122061,209.05,361.4938,223.84,363.995 M,0,122061,122106,223.84,363.995,238.63,366.4962 M,0,122106,122150,238.63,366.4962,253.42,368.9975 M,0,122150,122195,253.42,368.9975,268.21,371.4987 M,0,122195,122240,268.21,371.4987,283,374
Sprite,Background,Centre,"sb\i stole this from wafer.png",0,0 C,0,122597,,206,206,255 M,0,122597,122641,371,411,376.2462,397.0228 F,2,122597,123175,1,0 S,2,122597,123175,0.3,0.06 P,0,122597,123175,A M,0,122641,122686,376.2462,397.0228,379.3335,382.4438 M,0,122686,122730,379.3335,382.4438,379.694,367.4888 M,0,122730,122775,379.694,367.4888,376.5295,352.9004
Sprite,Background,Centre,"sb\i stole this from wafer.png",0,0 C,0,122955,,205,155,255 M,0,122955,122999,349,313,351.5467,298.2177 F,2,122955,123712,1,0 S,2,122955,123712,0.3,0.06 P,0,122955,123712,A M,0,122999,123044,351.5467,298.2177,354.0871,283.4346 M,0,123044,123088,354.0871,283.4346,356.6211,268.6501 M,0,123088,123133,356.6211,268.6501,359.1484,253.8643 M,0,123133,123178,359.1484,253.8643,361.6662,239.0773 M,0,123178,123222,361.6662,239.0773,364.1766,224.2887 M,0,123222,123267,364.1766,224.2887,366.6797,209.499 M,0,123267,123312,366.6797,209.499,369.1759,194.7082
Sprite,Background,Centre,"sb\i stole this from wafer.png",376,147 C,0,123490,,205,155,255 F,2,123490,123890,1,0 S,2,123490,123890,0.3,0.06 P,0,123490,123890,A
Sprite,Background,Centre,"sb\i stole this from wafer.png",0,0 C,0,123669,,205,155,255 M,0,123669,123713,386,100,373.68,91.48852 F,2,123669,124426,1,0 S,2,123669,124426,0.3,0.06 P,0,123669,124426,A M,0,123713,123758,373.68,91.48852,360.5851,84.2575 M,0,123758,123802,360.5851,84.2575,346.7166,78.6299 M,0,123802,123847,346.7166,78.6299,332.2658,74.68645 M,0,123847,123892,332.2658,74.68645,317.41,72.81895 M,0,123892,123936,317.41,72.81895,302.4573,72.51955 M,0,123936,123981,302.4573,72.51955,287.5692,73.99868 M,0,123981,124026,287.5692,73.99868,272.928,77.16721
Sprite,Background,Centre,"sb\i stole this from wafer.png",0,0 C,0,124383,,205,155,255 M,0,124383,124427,200,142,202.6204,156.7693 F,2,124383,124961,1,0 S,2,124383,124961,0.3,0.06 P,0,124383,124961,A M,0,124427,124472,202.6204,156.7693,205.2407,171.5387 M,0,124472,124516,205.2407,171.5387,207.8611,186.308 M,0,124516,124561,207.8611,186.308,210.4815,201.0774
Sprite,Background,Centre,"sb\i stole this from wafer.png",0,0 C,0,124740,,205,155,255 M,0,124740,124784,246,233,245.0445,247.9695 F,2,124740,125318,1,0 S,2,124740,125318,0.3,0.06 P,0,124740,125318,A M,0,124784,124829,245.0445,247.9695,244.089,262.9391 M,0,124829,124873,244.089,262.9391,243.1335,277.9086 M,0,124873,124918,243.1335,277.9086,242.178,292.8781
Sprite,Background,Centre,"sb\i stole this from wafer.png",237,340 C,0,125097,,205,155,255 F,2,125097,125497,1,0 S,2,125097,125497,0.3,0.06 P,0,125097,125497,A
Sprite,Background,Centre,"sb\i stole this from wafer.png",0,0 C,0,125455,,205,155,255 M,0,125455,125499,163,402,149.3052,407.9088 F,2,125455,126033,1,0 S,2,125455,126033,0.3,0.06 P,0,125455,126033,A M,0,125499,125544,149.3052,407.9088,134.8111,411.1942 M,0,125544,125588,134.8111,411.1942,119.9271,411.2584 M,0,125588,125633,119.9271,411.2584,105.3513,408.085
Sprite,Background,Centre,"sb\i stole this from wafer.png",84,364 C,0,125812,,205,155,255 F,2,125812,126212,1,0 S,2,125812,126212,0.3,0.06 P,0,125812,126212,A
Sprite,Background,Centre,"sb\i stole this from wafer.png",0,0 C,0,128669,,173,91,255 M,0,128669,128713,486,188,473.2475,180.188 F,2,128669,129426,1,0 S,2,128669,129426,0.3,0.06 P,0,128669,129426,A M,0,128713,128758,473.2475,180.188,459.5717,174.2103 M,0,128758,128802,459.5717,174.2103,445.1034,170.5126 M,0,128802,128847,445.1034,170.5126,430.2164,169.1944 M,0,128847,128892,430.2164,169.1944,415.2955,170.2945 M,0,128892,128936,415.2955,170.2945,400.8471,174.1435 M,0,128936,128981,400.8471,174.1435,387.1365,180.0313 M,0,128981,129026,387.1365,180.0313,374.5504,188.0538
Sprite,Background,Centre,"sb\i stole this from wafer.png",341,223 C,0,129205,,173,91,255 F,2,129205,129605,1,0 S,2,129205,129605,0.3,0.06 P,0,129205,129605,A
Sprite,Background,Centre,"sb\i stole this from wafer.png",0,0 C,0,129383,,173,91,255 M,0,129383,129427,308,257,295.0603,264.4954 F,2,129383,130140,1,0 S,2,129383,130140,0.3,0.06 P,0,129383,130140,A M,0,129427,129472,295.0603,264.4954,281.2803,270.2374 M,0,129472,129516,281.2803,270.2374,266.7547,273.769 M,0,129516,129561,266.7547,273.769,251.8261,274.9978 M,0,129561,129606,251.8261,274.9978,236.9679,273.3098 M,0,129606,129650,236.9679,273.3098,222.4795,269.7121 M,0,129650,129695,222.4795,269.7121,208.7091,263.895 M,0,129695,129740,208.7091,263.895,196,256
Sprite,Background,Centre,"sb\i stole this from wafer.png",121,197 C,0,130097,,173,91,255 F,2,130097,130497,1,0 S,2,130097,130497,0.3,0.06 P,0,130097,130497,A
Sprite,Background,Centre,"sb\i stole this from wafer.png",197,138 C,0,130455,,173,91,255 F,2,130455,130855,1,0 S,2,130455,130855,0.3,0.06 P,0,130455,130855,A
Sprite,Background,Centre,"sb\i stole this from wafer.png",292,129 C,0,130812,,173,91,255 F,2,130812,131212,1,0 S,2,130812,131212,0.3,0.06 P,0,130812,131212,A
Sprite,Background,Centre,"sb\i stole this from wafer.png",0,0 C,0,131169,,173,91,255 M,0,131169,131213,375,175,389.8695,176.3296 F,2,131169,131747,1,0 S,2,131169,131747,0.3,0.06 P,0,131169,131747,A M,0,131213,131258,389.8695,176.3296,404.6933,175.0371 M,0,131258,131302,404.6933,175.0371,418.9469,170.7322 M,0,131302,131347,418.9469,170.7322,432.1455,163.7384
Sprite,Background,Centre,"sb\i stole this from wafer.png",0,0 C,0,131526,,151,151,255 M,0,131526,131570,471,136,478.993,148.6771 F,2,131526,132283,1,0 S,2,131526,132283,0.3,0.06 P,0,131526,132283,A M,0,131570,131615,478.993,148.6771,486.0001,161.9142 M,0,131615,131659,486.0001,161.9142,491.8041,175.7238 M,0,131659,131704,491.8041,175.7238,496.359,189.9978 M,0,131704,131749,496.359,189.9978,499.6282,204.6244 M,0,131749,131793,499.6282,204.6244,501.5854,219.4893 M,0,131793,131838,501.5854,219.4893,501.9585,234.471 M,0,131838,131883,501.9585,234.471,501.1891,249.4285
Sprite,Background,Centre,"sb\i stole this from wafer.png",0,0 C,0,132240,,151,151,255 M,0,132240,132284,405,260,397.007,272.6771 F,2,132240,132997,1,0 S,2,132240,132997,0.3,0.06 P,0,132240,132997,A M,0,132284,132329,397.007,272.6771,389.9999,285.9142 M,0,132329,132373,389.9999,285.9142,384.1959,299.7238 M,0,132373,132418,384.1959,299.7238,379.641,313.9978 M,0,132418,132463,379.641,313.9978,376.3718,328.6245 M,0,132463,132507,376.3718,328.6245,374.4146,343.4893 M,0,132507,132552,374.4146,343.4893,374.0415,358.471 M,0,132552,132597,374.0415,358.471,374.8109,373.4285
Sprite,Background,Centre,"sb\i stole this from wafer.png",461,414 C,0,132955,,151,151,255 F,2,132955,133355,1,0 S,2,132955,133355,0.3,0.06 P,0,132955,133355,A
Sprite,Background,Centre,"sb\i stole this from wafer.png",540,360 C,0,133312,,151,151,255 F,2,133312,133712,1,0 S,2,133312,133712,0.3,0.06 P,0,133312,133712,A
Sprite,Background,Centre,"sb\i stole this from wafer.png",503,271 C,0,133669,,151,151,255 F,2,133669,134069,1,0 S,2,133669,134069,0.3,0.06 P,0,133669,134069,A
Sprite,Background,Centre,"sb\i stole this from wafer.png",0,0 C,0,134026,,151,151,255 M,0,134026,134070,405,260,390.4888,256.3604 F,2,134026,134604,1,0 S,2,134026,134604,0.3,0.06 P,0,134026,134604,A M,0,134070,134115,390.4888,256.3604,375.676,254.3739 M,0,134115,134159,375.676,254.3739,360.6997,254.4409 M,0,134159,134204,360.6997,254.4409,345.9853,257.138
Sprite,Background,Centre,"sb\i stole this from wafer.png",0,0 C,0,134383,,206,206,255 M,0,134383,134427,301,275,287.7685,282.0002 F,2,134383,135140,1,0 S,2,134383,135140,0.3,0.06 P,0,134383,135140,A M,0,134427,134472,287.7685,282.0002,273.8628,287.4895 M,0,134472,134516,273.8628,287.4895,259.3497,291.113 M,0,134516,134561,259.3497,291.113,244.4743,292.8063 M,0,134561,134606,244.4743,292.8063,229.5193,292.2111 M,0,134606,134650,229.5193,292.2111,214.7591,289.8624 M,0,134650,134695,214.7591,289.8624,200.4286,285.6001 M,0,134695,134740,200.4286,285.6001,186.7146,279.5892
Sprite,Background,Centre,"sb\i stole this from wafer.png",143,259 C,0,134919,,206,206,255 F,2,134919,135319,1,0 S,2,134919,135319,0.3,0.06 P,0,134919,135319,A
Sprite,Background,Centre,"sb\i stole this from wafer.png",0,0 C,0,135097,,206,206,255 M,0,135097,135141,108,226,97.98135,237.1636 F,2,135097,135854,1,0 S,2,135097,135854,0.3,0.06 P,0,135097,135854,A M,0,135141,135186,97.98135,237.1636,87.96271,248.3273 M,0,135186,135230,87.96271,248.3273,77.94406,259.4909 M,0,135230,135275,77.94406,259.4909,74.89621,272.3573 M,0,135275,135320,74.89621,272.3573,78.63985,286.8826 M,0,135320,135364,78.63985,286.8826,82.38349,301.408 M,0,135364,135409,82.38349,301.408,86.12713,315.9333 M,0,135409,135454,86.12713,315.9333,89.87077,330.4586
Sprite,Background,Centre,"sb\i stole this from wafer.png",153,402 C,0,135812,,206,206,255 F,2,135812,136212,1,0 S,2,135812,136212,0.3,0.06 P,0,135812,136212,A
Sprite,Background,Centre,"sb\i stole this from wafer.png",234,350 C,0,136169,,206,206,255 F,2,136169,136569,1,0 S,2,136169,136569,0.3,0.06 P,0,136169,136569,A
Sprite,Background,Centre,"sb\i stole this from wafer.png",297,422 C,0,136526,,206,206,255 F,2,136526,136926,1,0 S,2,136526,136926,0.3,0.06 P,0,136526,136926,A
Sprite,Background,Centre,"sb\i stole this from wafer.png",0,0 C,0,136883,,206,206,255 M,0,136883,136927,369,358,374.7223,344.1344 F,2,136883,137461,1,0 S,2,136883,137461,0.3,0.06 P,0,136883,137461,A M,0,136927,136972,374.7223,344.1344,380.4446,330.2688 M,0,136972,137016,380.4446,330.2688,386.1669,316.4032 M,0,137016,137061,386.1669,316.4032,391.8893,302.5376
Sprite,Background,Centre,"sb\i stole this from wafer.png",0,0 C,0,137240,,205,155,255 M,0,137240,137284,417,261,403.1424,255.311 F,2,137240,137997,1,0 S,2,137240,137997,0.3,0.06 P,0,137240,137997,A M,0,137284,137329,403.1424,255.311,389.8598,248.4121 M,0,137329,137373,389.8598,248.4121,377.3779,240.1425 M,0,137373,137418,377.3779,240.1425,365.836,230.5924 M,0,137418,137463,365.836,230.5924,355.5533,219.7012 M,0,137463,137507,355.5533,219.7012,346.3703,207.8854 M,0,137507,137552,346.3703,207.8854,338.4886,195.1612 M,0,137552,137597,338.4886,195.1612,331.905,181.7029
Sprite,Background,Centre,"sb\i stole this from wafer.png",0,0 C,0,137955,,205,155,255 M,0,137955,137999,263,249,256.312,235.5941 F,2,137955,138712,1,0 S,2,137955,138712,0.3,0.06 P,0,137955,138712,A M,0,137999,138044,256.312,235.5941,248.4559,222.8524 M,0,138044,138088,248.4559,222.8524,239.3055,211.003 M,0,138088,138133,239.3055,211.003,228.9606,200.1761 M,0,138133,138178,228.9606,200.1761,217.5338,190.491 M,0,138178,138222,217.5338,190.491,205.1495,182.0545 M,0,138222,138267,205.1495,182.0545,191.9426,174.9604 M,0,138267,138312,191.9426,174.9604,178.0292,169.377
Sprite,Background,Centre,"sb\i stole this from wafer.png",99,225 C,0,138669,,205,155,255 F,2,138669,139069,1,0 S,2,138669,139069,0.3,0.06 P,0,138669,139069,A
Sprite,Background,Centre,"sb\i stole this from wafer.png",66,134 C,0,139026,,205,155,255 F,2,139026,139426,1,0 S,2,139026,139426,0.3,0.06 P,0,139026,139426,A
Sprite,Background,Centre,"sb\i stole this from wafer.png",145,79 C,0,139383,,205,155,255 F,2,139383,139783,1,0 S,2,139383,139783,0.3,0.06 P,0,139383,139783,A
Sprite,Background,Centre,"sb\i stole this from wafer.png",0,0 C,0,139740,,205,155,255 M,0,139740,139784,226,129,240.7254,126.1428 F,2,139740,140318,1,0 S,2,139740,140318,0.3,0.06 P,0,139740,140318,A M,0,139784,139829,240.7254,126.1428,255.4507,123.2857 M,0,139829,139873,255.4507,123.2857,270.1761,120.4285 M,0,139873,139918,270.1761,120.4285,284.9015,117.5714
Sprite,Background,Centre,"sb\i stole this from wafer.png",0,0 C,0,140097,,173,91,255 M,0,140097,140141,332,119,342.9704,129.1855 F,2,140097,140854,1,0 S,2,140097,140854,0.3,0.06 P,0,140097,140854,A M,0,140141,140186,342.9704,129.1855,352.773,140.4758 M,0,140186,140230,352.773,140.4758,361.057,152.9359 M,0,140230,140275,361.057,152.9359,367.6861,166.3676 M,0,140275,140320,367.6861,166.3676,372.1657,180.6499 M,0,140320,140364,372.1657,180.6499,375.0269,195.3227 M,0,140364,140409,375.0269,195.3227,375.9886,210.2494 M,0,140409,140454,375.9886,210.2494,375.089,225.2013
Sprite,Background,Centre,"sb\i stole this from wafer.png",362,271 C,0,140633,,173,91,255 F,2,140633,141033,1,0 S,2,140633,141033,0.3,0.06 P,0,140633,141033,A
Sprite,Background,Centre,"sb\i stole this from wafer.png",0,0 C,0,140812,,173,91,255 M,0,140812,140856,350,317,349.2148,331.9483 F,2,140812,141569,1,0 S,2,140812,141569,0.3,0.06 P,0,140812,141569,A M,0,140856,140901,349.2148,331.9483,350.0317,346.8776 M,0,140901,140945,350.0317,346.8776,352.7572,361.5923 M,0,140945,140990,352.7572,361.5923,357.3524,375.8551 M,0,140990,141035,357.3524,375.8551,364.1509,389.1909 M,0,141035,141079,364.1509,389.1909,372.3337,401.704 M,0,141079,141124,372.3337,401.704,382.0607,413.0755 M,0,141124,141169,382.0607,413.0755,393,423
Sprite,Background,Centre,"sb\i stole this from wafer.png",489,419 C,0,141526,,173,91,255 F,2,141526,141926,1,0 S,2,141526,141926,0.3,0.06 P,0,141526,141926,A
Sprite,Background,Centre,"sb\i stole this from wafer.png",551,346 C,0,141883,,173,91,255 F,2,141883,142283,1,0 S,2,141883,142283,0.3,0.06 P,0,141883,142283,A
Sprite,Background,Centre,"sb\i stole this from wafer.png",526,253 C,0,142240,,173,91,255 F,2,142240,142640,1,0 S,2,142240,142640,0.3,0.06 P,0,142240,142640,A
Sprite,Background,Centre,"sb\i stole this from wafer.png",0,0 C,0,142597,,173,91,255 M,0,142597,142641,436,219,430.8125,204.9605 F,2,142597,143175,1,0 S,2,142597,143175,0.3,0.06 P,0,142597,143175,A M,0,142641,142686,430.8125,204.9605,427.2686,190.4401 M,0,142686,142730,427.2686,190.4401,425.7219,175.5651 M,0,142730,142775,425.7219,175.5651,426.1402,160.5941
Sprite,Background,Centre,"sb\i stole this from wafer.png",0,0 C,0,142955,,151,151,255 M,0,142955,142999,452,119,439.4023,110.8967 F,2,142955,143712,1,0 S,2,142955,143712,0.3,0.06 P,0,142955,143712,A M,0,142999,143044,439.4023,110.8967,426.1351,103.9711 M,0,143044,143088,426.1351,103.9711,412.1932,98.5107 M,0,143088,143133,412.1932,98.5107,397.7345,94.57957 M,0,143133,143178,397.7345,94.57957,382.8969,92.53667 M,0,143178,143222,382.8969,92.53667,367.9464,91.90497 M,0,143222,143267,367.9464,91.90497,353.0097,92.88577 M,0,143267,143312,353.0097,92.88577,338.2398,95.41081
Sprite,Background,Centre,"sb\i stole this from wafer.png",0,0 C,0,143669,,151,151,255 M,0,143669,143713,296,181,281.1716,183.1266 F,2,143669,144426,1,0 S,2,143669,144426,0.3,0.06 P,0,143669,144426,A M,0,143713,143758,281.1716,183.1266,266.2267,183.9803 M,0,143758,143802,266.2267,183.9803,251.2642,183.3006 M,0,143802,143847,251.2642,183.3006,236.4369,181.0917 M,0,143847,143892,236.4369,181.0917,222.0231,177.0117 M,0,143892,143936,222.0231,177.0117,208.0204,171.7202 M,0,143936,143981,208.0204,171.7202,194.6245,165.0204 M,0,143981,144026,194.6245,165.0204,182,157
Sprite,Background,Centre,"sb\i stole this from wafer.png",120,84 C,0,144383,,151,151,255 F,2,144383,144783,1,0 S,2,144383,144783,0.3,0.06 P,0,144383,144783,A
Sprite,Background,Centre,"sb\i stole this from wafer.png",77,170 C,0,144740,,151,151,255 F,2,144740,145140,1,0 S,2,144740,145140,0.3,0.06 P,0,144740,145140,A
Sprite,Background,Centre,"sb\i stole this from wafer.png",119,256 C,0,145097,,151,151,255 F,2,145097,145497,1,0 S,2,145097,145497,0.3,0.06 P,0,145097,145497,A
Sprite,Background,Centre,"sb\i stole this from wafer.png",0,0 C,0,145455,,151,151,255 M,0,145455,145499,214,266,228.3168,261.6108 F,2,145455,146033,1,0 S,2,145455,146033,0.3,0.06 P,0,145455,146033,A M,0,145499,145544,228.3168,261.6108,242.9904,258.7076 M,0,145544,145588,242.9904,258.7076,257.9125,257.5917 M,0,145588,145633,257.9125,257.5917,272.8803,258.2114
Sprite,Background,Centre,"sb\i stole this from wafer.png",0,0 C,0,145812,,206,206,255 M,0,145812,145856,314,282,325.3732,291.7502 F,2,145812,146569,1,0 S,2,145812,146569,0.3,0.06 P,0,145812,146569,A M,0,145856,145901,325.3732,291.7502,337.5388,300.4716 M,0,145901,145945,337.5388,300.4716,350.545,307.8945 M,0,145945,145990,350.545,307.8945,364.2566,313.9396 M,0,145990,146035,364.2566,313.9396,378.6032,318.2476 M,0,146035,146079,378.6032,318.2476,393.2681,321.2383 M,0,146079,146124,393.2681,321.2383,408.1681,322.7007 M,0,146124,146169,408.1681,322.7007,423.1475,322.6179
Sprite,Background,Centre,"sb\i stole this from wafer.png",469,310 C,0,146347,,206,206,255 F,2,146347,146747,1,0 S,2,146347,146747,0.3,0.06 P,0,146347,146747,A
Sprite,Background,Centre,"sb\i stole this from wafer.png",0,0 C,0,146526,,206,206,255 M,0,146526,146570,504,277,506.6757,262.2604 F,2,146526,147283,1,0 S,2,146526,147283,0.3,0.06 P,0,146526,147283,A M,0,146570,146615,506.6757,262.2604,508.068,247.3563 M,0,146615,146659,508.068,247.3563,507.9196,232.3813 M,0,146659,146704,507.9196,232.3813,506.2301,217.491 M,0,146704,146749,506.2301,217.491,502.7145,202.9298 M,0,146749,146793,502.7145,202.9298,497.9127,188.7539 M,0,146793,146838,497.9127,188.7539,491.6759,175.1424 M,0,146838,146883,491.6759,175.1424,484.0674,162.2374
Sprite,Background,Centre,"sb\i stole this from wafer.png",404,109 C,0,147240,,206,206,255 F,2,147240,147640,1,0 S,2,147240,147640,0.3,0.06 P,0,147240,147640,A
Sprite,Background,Centre,"sb\i stole this from wafer.png",315,146 C,0,147597,,206,206,255 F,2,147597,147997,1,0 S,2,147597,147997,0.3,0.06 P,0,147597,147997,A
Sprite,Background,Centre,"sb\i stole this from wafer.png",275,233 C,0,147955,,206,206,255 F,2,147955,148355,1,0 S,2,147955,148355,0.3,0.06 P,0,147955,148355,A
Sprite,Background,Centre,"sb\i stole this from wafer.png",0,0 C,0,148312,,206,206,255 M,0,148312,148356,295,326,280.7523,330.6083 F,2,148312,148890,1,0 S,2,148312,148890,0.3,0.06 P,0,148312,148890,A M,0,148356,148401,280.7523,330.6083,266.1257,333.7402 M,0,148401,148445,266.1257,333.7402,251.2228,335.0921 M,0,148445,148490,251.2228,335.0921,236.2467,334.7093
Sprite,Background,Centre,"sb\i stole this from wafer.png",0,0 C,0,148669,,205,155,255 M,0,148669,148713,188,334,179.275,321.8175 F,2,148669,149426,1,0 S,2,148669,149426,0.3,0.06 P,0,148669,149426,A M,0,148713,148758,179.275,321.8175,171.5952,308.963 M,0,148758,148802,171.5952,308.963,165.1936,295.4249 M,0,148802,148847,165.1936,295.4249,160.1301,281.3292 M,0,148847,148892,160.1301,281.3292,156.4524,266.8071 M,0,148892,148936,156.4524,266.8071,154.1955,251.9938 M,0,148936,148981,154.1955,251.9938,153.3812,237.0273 M,0,148981,149026,153.3812,237.0273,154.2303,222.0674
Sprite,Background,Centre,"sb\i stole this from wafer.png",0,0 C,0,149383,,205,155,255 M,0,149383,149427,249,230,257.725,217.8175 F,2,149383,150140,1,0 S,2,149383,150140,0.3,0.06 P,0,149383,150140,A M,0,149427,149472,257.725,217.8175,265.4048,204.963 M,0,149472,149516,265.4048,204.963,271.8064,191.4249 M,0,149516,149561,271.8064,191.4249,276.8699,177.3292 M,0,149561,149606,276.8699,177.3292,280.5476,162.8071 M,0,149606,149650,280.5476,162.8071,282.8045,147.9938 M,0,149650,149695,282.8045,147.9938,283.6188,133.0273 M,0,149695,149740,283.6188,133.0273,282.7697,118.0674
Sprite,Background,Centre,"sb\i stole this from wafer.png",194,81 C,0,150097,,205,155,255 F,2,150097,150497,1,0 S,2,150097,150497,0.3,0.06 P,0,150097,150497,A
Sprite,Background,Centre,"sb\i stole this from wafer.png",132,155 C,0,150455,,205,155,255 F,2,150455,150855,1,0 S,2,150455,150855,0.3,0.06 P,0,150455,150855,A
Sprite,Background,Centre,"sb\i stole this from wafer.png",146,249 C,0,150812,,205,155,255 F,2,150812,151212,1,0 S,2,150812,151212,0.3,0.06 P,0,150812,151212,A
Sprite,Background,Centre,"sb\i stole this from wafer.png",0,0 C,0,151169,,205,155,255 M,0,151169,151213,213,316,227.8942,314.2216 F,2,151169,151747,1,0 S,2,151169,151747,0.3,0.06 P,0,151169,151747,A M,0,151213,151258,227.8942,314.2216,242.7884,312.4432 M,0,151258,151302,242.7884,312.4432,257.6826,310.6648 M,0,151302,151347,257.6826,310.6648,272.5768,308.8864
Sprite,Background,Centre,"sb\i stole this from wafer.png",319,299 C,0,151526,,205,155,255 F,2,151526,151926,1,0 S,2,151526,151926,0.3,0.06 P,0,151526,151926,A
Sprite,Background,Centre,"SB\pixel.png",320,240 C,0,11526,,255,255,255 V,0,11526,,854,480 F,0,11526,13669,0.5,0 F,0,34383,36526,0.5,0 F,0,45812,47954,0.5,0 F,0,57240,58669,0.2,0 F,0,71526,73669,0.5,0 F,0,91526,93669,0.5,0 F,0,102955,105097,0.8,0 F,0,114383,115097,0.2,0 F,0,125812,127954,0.5,0 F,0,128669,130812,0.5,0 F,0,140098,140812,0.2,0 F,0,151526,153669,0.2,0
//Storyboard Layer 1 (Fail)
//Storyboard Layer 2 (Pass)
//Storyboard Layer 3 (Foreground)
//Storyboard Layer 4 (Overlay)
//Storyboard Sound Samples

[TimingPoints]
98,357.142857142857,4,2,1,60,1,0
98,-100,4,2,1,10,0,0
11526,-100,4,2,1,60,0,0
34740,-100,4,2,1,50,0,0
44383,-100,4,2,1,60,0,0
45812,-100,4,2,1,80,0,0
68669,-100,4,2,2,50,0,0
71526,-100,4,2,2,65,0,0
102955,-100,4,2,1,80,0,0
128669,-100,4,2,2,80,0,0
151526,-100,4,2,1,80,0,0

[Colours]
Combo1 : 205,155,255
Combo2 : 173,91,255
Combo3 : 151,151,255
Combo4 : 206,206,255

[HitObjects]
256,192,98,12,0,10097,0:0:0:0:
70,115,11526,6,0,B|129:93|129:93|199:119,1,120,2|10,0:0|0:0,0:0:0:0:
259,169,12240,1,2,0:0:0:0:
343,123,12597,1,10,0:0:0:0:
403,198,12955,2,0,P|411:231|403:263,1,60,2|2,0:0|0:0,0:0:0:0:
359,269,13312,2,0,P|338:296|309:310,1,60,10|0,0:0|0:0,0:0:0:0:
269,300,13669,2,0,P|207:293|157:262,1,120,2|8,0:0|0:0,0:0:0:0:
60,245,14383,6,0,P|85:191|139:169,1,120,2|10,0:0|0:0,0:0:0:0:
231,144,15097,2,0,B|244:175|244:175|231:214,2,60,2|2|10,0:0|0:0|0:0,0:0:0:0:
274,57,15812,1,2,0:0:0:0:
362,20,16169,1,10,0:0:0:0:
441,73,16526,2,0,L|458:203,1,120,2|8,0:0|0:0,0:0:0:0:
401,270,17240,6,0,P|342:247|283:262,1,120,2|10,0:0|0:0,0:0:0:0:
209,314,17955,1,2,0:0:0:0:
119,349,18312,1,10,0:0:0:0:
50,282,18669,2,0,P|36:237|48:164,1,120,2|10,0:0|0:0,0:0:0:0:
129,116,19383,2,0,B|172:110|172:110|210:141|210:141|256:136,1,120,2|8,0:0|0:0,0:0:0:0:
309,74,20097,6,0,P|337:117|335:192,1,120,2|10,0:0|0:0,0:0:0:0:
289,267,20812,2,0,P|263:246|235:237,2,60,2|0|10,0:0|0:0|0:0,0:0:0:0:
357,333,21526,1,2,0:0:0:0:
447,299,21883,1,10,0:0:0:0:
390,221,22240,2,0,P|392:187|410:146,1,60,2|0,0:0|0:0,0:0:0:0:
434,128,22597,2,0,P|443:99|444:69,1,60,8|8,0:0|0:0,0:0:0:0:
410,34,22955,6,0,P|352:13|275:35,1,120,2|10,0:0|0:0,0:0:0:0:
145,108,23847,2,0,P|126:135|122:167,1,60,2|8,0:0|0:0,0:0:0:0:
133,207,24205,2,0,P|127:236|109:260,1,60,2|2,0:0|0:0,0:0:0:0:
31,315,24740,1,10,0:0:0:0:
171,345,25276,6,0,P|232:335|297:361,1,120,2|2,0:0|0:0,0:0:0:0:
329,373,25812,1,2,0:0:0:0:
320,277,26169,1,10,0:0:0:0:
428,181,26705,6,0,P|399:129|331:98,1,120,2|2,0:0|0:0,0:0:0:0:
300,107,27240,2,0,P|268:110|228:101,1,60,2|0,0:0|0:0,0:0:0:0:
204,73,27597,2,0,P|174:68|144:71,1,60,10|0,0:0|0:0,0:0:0:0:
57,30,28133,6,0,B|22:66|22:66|44:144,1,120,2|2,0:0|0:0,0:0:0:0:
62,175,28669,1,2,0:0:0:0:
34,266,29026,1,10,0:0:0:0:
189,282,29562,6,0,B|242:252|242:252|295:282,1,120,2|2,0:0|0:0,0:0:0:0:
339,294,30097,2,0,P|357:264|360:234,1,60,2|0,0:0|0:0,0:0:0:0:
345,193,30455,2,0,P|350:163|366:138,1,60,10|0,0:0|0:0,0:0:0:0:
355,43,30990,6,0,P|293:19|233:23,1,120,2|2,0:0|0:0,0:0:0:0:
198,45,31526,1,2,0:0:0:0:
108,10,31883,1,10,0:0:0:0:
65,147,32419,2,0,B|38:129|38:129|1:130,2,60,2|10|2,0:0|0:0|0:0,0:0:0:0:
82,199,32955,6,0,P|121:188|162:187,1,60,10|0,0:0|0:0,0:0:0:0:
180,212,33312,2,0,P|209:208|238:199,1,60,10|0,0:0|0:0,0:0:0:0:
268,161,33669,1,10,0:0:0:0:
346,216,34026,2,0,P|383:210|410:193,1,60,10|2,0:0|0:0,0:0:0:0:
438,167,34383,1,4,0:0:0:0:
256,192,41526,12,2,44383,0:0:0:0:
435,98,45276,6,0,P|447:68|445:33,2,60,10|10|10,0:0|0:0|0:0,0:0:0:0:
414,141,45812,6,0,P|364:113|287:114,1,120,6|8,0:0|0:0,0:0:0:0:
269,144,46347,1,0,0:0:0:0:
235,178,46526,2,0,P|182:206|123:208,1,120,2|8,0:0|0:0,0:0:0:0:
53,141,47240,2,0,B|17:175|17:175|37:255,2,120,2|10|2,0:0|0:0|0:0,0:0:0:0:
143,107,48312,2,0,B|176:108|176:108|204:94,1,60,10|2,0:0|0:0,0:0:0:0:
239,68,48669,5,2,0:0:0:0:
331,94,49026,1,8,0:0:0:0:
367,182,49383,2,0,P|351:212|350:250,1,60
360,284,49740,1,10,0:0:0:0:
446,243,50097,1,2,0:0:0:0:
473,150,50455,1,10,0:0:0:0:
410,77,50812,2,0,P|349:55|289:71,1,120,2|10,0:0|0:0,0:0:0:0:
260,97,51347,1,2,0:0:0:0:
223,127,51526,6,0,P|164:138|109:116,1,120,2|8,0:0|0:0,0:0:0:0:
102,16,52240,2,0,P|71:11|42:17,1,60
14,57,52597,1,10,0:0:0:0:
8,152,52955,1,2,0:0:0:0:
69,225,53312,1,10,0:0:0:0:
33,314,53669,2,0,P|76:312|116:326,1,60,2|0,0:0|0:0,0:0:0:0:
134,338,54026,1,10,0:0:0:0:
228,357,54383,6,0,P|262:296|261:239,1,120,0|8,0:0|0:0,0:0:0:0:
246,201,54919,1,0,0:0:0:0:
218,161,55097,2,0,P|221:101|252:51,1,120,0|10,0:0|0:0,0:0:0:0:
344,22,55812,1,2,0:0:0:0:
423,76,56169,1,10,0:0:0:0:
449,168,56526,2,0,P|445:204|423:243,1,60,2|0,0:0|0:0,0:0:0:0:
414,268,56883,1,10,0:0:0:0:
369,286,57062,1,2,0:0:0:0:
322,299,57240,6,0,L|185:286,1,120,6|8,0:0|0:0,0:0:0:0:
109,312,57955,2,0,P|106:272|128:228,1,60,2|0,0:0|0:0,0:0:0:0:
139,213,58312,1,8,0:0:0:0:
224,170,58669,2,0,B|349:196,2,120,2|10|2,0:0|0:0|0:0,0:0:0:0:
150,108,59740,2,0,P|150:73|166:49,1,60,10|2,0:0|0:0,0:0:0:0:
204,28,60097,5,2,0:0:0:0:
282,83,60455,1,8,0:0:0:0:
362,30,60812,2,0,P|387:19|435:22,1,60
451,54,61169,1,10,0:0:0:0:
408,140,61526,2,0,L|421:213,1,60,2|0,0:0|0:0,0:0:0:0:
450,234,61883,2,0,L|436:317,1,60,10|0,0:0|0:0,0:0:0:0:
430,340,62240,1,2,0:0:0:0:
348,288,62597,2,0,P|317:277|276:291,1,60,10|2,0:0|0:0,0:0:0:0:
268,325,62955,6,0,B|221:340|221:340|149:312,1,120,2|8,0:0|0:0,0:0:0:0:
115,287,63490,1,0,0:0:0:0:
78,255,63669,2,0,P|70:202|99:142,1,120,0|10,0:0|0:0,0:0:0:0:
164,212,64383,2,0,L|297:176,2,120,2|10|2,0:0|0:0|0:0,0:0:0:0:
182,117,65455,2,0,P|171:93|173:55,1,60,10|2,0:0|0:0,0:0:0:0:
203,23,65812,6,0,L|344:41,1,120,2|8,0:0|0:0,0:0:0:0:
417,27,66526,2,0,P|411:61|415:86,1,60
444,124,66883,2,0,P|447:153|441:182,1,60,10|0,0:0|0:0,0:0:0:0:
417,224,67240,1,2,0:0:0:0:
340,281,67597,1,10,0:0:0:0:
243,284,67955,1,2,0:0:0:0:
169,222,68312,2,0,L|181:153,1,60,10|2,0:0|0:0,0:0:0:0:
191,116,68669,1,2,0:0:0:0:
191,116,71526,6,0,P|126:136|59:110,1,120,2|8,0:0|0:0,0:0:0:0:
68,75,72062,1,2,0:0:0:0:
68,75,72240,2,0,B|49:220,1,120,2|8,0:0|0:0,0:0:0:0:
49,242,72776,1,2,0:0:0:0:
49,242,72955,1,2,0:0:0:0:
146,347,73490,1,2,0:0:0:0:
146,347,73669,2,0,L|158:218,1,120,2|8,0:0|0:0,0:0:0:0:
247,194,74383,5,2,0:0:0:0:
305,270,74740,2,0,P|362:287|428:254,1,120,10|0,0:0|0:0,0:0:0:0:
447,228,75276,2,0,B|458:151|458:151|426:91,1,120,2|2,0:0|0:0,0:0:0:0:
402,81,75812,1,2,0:0:0:0:
334,148,76169,2,0,B|187:133,1,120,10|0,0:0|0:0,0:0:0:0:
166,131,76705,1,2,0:0:0:0:
87,183,77062,1,2,0:0:0:0:
87,183,77240,6,0,P|63:248|95:326,1,120,2|10,0:0|0:0,0:0:0:0:
109,327,77776,2,0,L|225:299,1,120,0|2,0:0|0:0,0:0:0:0:
272,285,78312,1,8,0:0:0:0:
365,307,78669,2,0,L|374:232,1,60,2|0,0:0|0:0,0:0:0:0:
374,199,79026,2,0,P|341:143|275:131,1,120,10|0,0:0|0:0,0:0:0:0:
252,157,79562,2,0,L|192:149,1,60,2|8,0:0|0:0,0:0:0:0:
144,143,79919,1,2,0:0:0:0:
144,143,80097,6,0,L|168:22,1,120,2|10,0:0|0:0,0:0:0:0:
261,3,80812,1,0,0:0:0:0:
350,37,81169,1,8,0:0:0:0:
350,132,81526,2,0,L|272:127,2,60,2|2|8,0:0|0:0|0:0,0:0:0:0:
397,136,82062,2,0,P|418:204|391:281,1,120,2|2,0:0|0:0,0:0:0:0:
356,331,82776,1,2,0:0:0:0:
356,331,82955,6,0,L|225:320,1,120,2|8,0:0|0:0,0:0:0:0:
143,297,83669,2,0,P|138:271|114:247,1,60,0|2,0:0|0:0,0:0:0:0:
67,253,84026,1,10,0:0:0:0:
58,157,84383,2,0,L|-3:169,2,60,2|2|8,0:0|0:0|0:0,0:0:0:0:
105,148,84919,2,0,P|175:138|235:160,1,120,2|2,0:0|0:0,0:0:0:0:
292,223,85633,1,2,0:0:0:0:
292,223,85811,6,0,P|321:169|303:95,1,120,2|8,0:0|0:0,0:0:0:0:
281,76,86347,2,0,L|411:57,1,120
447,52,86883,1,10,0:0:0:0:
453,147,87240,2,0,B|521:137,2,60,2|2|8,0:0|0:0|0:0,0:0:0:0:
405,157,87776,2,0,P|391:234|421:290,1,120,2|0,0:0|0:0,0:0:0:0:
443,301,88312,1,10,0:0:0:0:
359,348,88669,6,0,L|231:328,1,120,0|8,0:0|0:0,0:0:0:0:
193,318,89205,2,0,P|177:258|236:192,1,120
247,192,89740,2,0,L|235:114,1,60,8|2,0:0|0:0,0:0:0:0:
234,84,90097,1,2,0:0:0:0:
234,84,90276,2,0,L|98:85,1,120,2|2,0:0|0:0,0:0:0:0:
47,154,90990,1,0,0:0:0:0:
47,154,91169,2,0,L|60:217,1,60,10|10,0:0|0:0,0:0:0:0:
71,259,91526,1,2,0:0:0:0:
256,192,102419,6,0,P|227:178|192:181,2,60,8|8|8,0:0|0:0|0:0,0:0:0:0:
294,220,102955,6,0,P|352:236|430:211,1,120,6|8,0:0|0:0,0:0:0:0:
444,190,103490,1,0,0:0:0:0:
467,147,103669,2,0,L|438:14,1,120,2|8,0:0|0:0,0:0:0:0:
346,17,104383,2,0,L|357:82,1,60,2|0,0:0|0:0,0:0:0:0:
332,116,104740,2,0,L|325:175,1,60,10|0,0:0|0:0,0:0:0:0:
315,221,105097,2,0,P|250:242|172:196,1,120,2|10,0:0|0:0,0:0:0:0:
172,135,105812,5,2,0:0:0:0:
91,82,106169,1,8,0:0:0:0:
33,158,106526,2,0,L|47:239,1,60
53,264,106883,1,10,0:0:0:0:
144,292,107240,2,0,L|123:154,2,120,2|10|2,0:0|0:0|0:0,0:0:0:0:
231,331,108312,2,0,P|261:338|304:312,1,60,10|2,0:0|0:0,0:0:0:0:
316,289,108669,5,2,0:0:0:0:
406,320,109026,1,8,0:0:0:0:
476,254,109383,2,0,L|464:181,1,60
456,147,109740,1,10,0:0:0:0:
396,72,110097,2,0,B|327:53|340:96|258:76,2,120,2|10|2,0:0|0:0|0:0,0:0:0:0:
366,163,111169,2,0,P|374:198|365:232,1,60,10|2,0:0|0:0,0:0:0:0:
342,260,111526,6,0,P|283:272|218:247,1,120,0|8,0:0|0:0,0:0:0:0:
189,223,112062,1,0,0:0:0:0:
142,236,112240,2,0,L|19:263,1,120,0|10,0:0|0:0,0:0:0:0:
54,155,112955,2,0,P|45:98|74:42,2,120,2|10|2,0:0|0:0|0:0,0:0:0:0:
140,112,114026,2,0,P|174:121|217:107,1,60,10|2,0:0|0:0,0:0:0:0:
238,91,114383,6,0,P|298:78|381:107,1,120,6|8,0:0|0:0,0:0:0:0:
392,119,114919,1,0,0:0:0:0:
413,161,115097,2,0,L|380:300,1,120,2|8,0:0|0:0,0:0:0:0:
361,370,115812,1,2,0:0:0:0:
292,302,116169,2,0,P|257:293|215:301,1,60,10|0,0:0|0:0,0:0:0:0:
198,328,116526,1,2,0:0:0:0:
122,269,116883,2,0,P|90:258|56:268,1,60,10|2,0:0|0:0,0:0:0:0:
40,304,117240,6,0,L|22:167,1,120,2|8,0:0|0:0,0:0:0:0:
34,138,117776,1,0,0:0:0:0:
73,111,117955,2,0,B|131:135|131:135|198:110,1,120,0|10,0:0|0:0,0:0:0:0:
254,48,118669,2,0,P|286:39|321:49,1,60,2|0,0:0|0:0,0:0:0:0:
327,89,119026,2,0,P|359:97|394:88,1,60,10|0,0:0|0:0,0:0:0:0:
422,62,119383,1,2,0:0:0:0:
464,148,119740,2,0,L|476:231,1,60,10|2,0:0|0:0,0:0:0:0:
474,255,120097,6,0,P|409:278|330:234,1,120,2|8,0:0|0:0,0:0:0:0:
308,184,120812,2,0,P|271:177|231:191,1,60
225,223,121169,1,10,0:0:0:0:
219,318,121526,2,0,L|83:295,2,120,2|10|2,0:0|0:0|0:0,0:0:0:0:
307,355,122597,2,0,P|316:321|309:286,1,60,10|2,0:0|0:0,0:0:0:0:
285,257,122955,6,0,P|297:187|310:110,1,120,2|8,0:0|0:0,0:0:0:0:
312,91,123490,1,0,0:0:0:0:
322,44,123669,2,0,P|265:18|203:23,1,120,0|10,0:0|0:0,0:0:0:0:
136,86,124383,2,0,L|147:148,1,60,2|0,0:0|0:0,0:0:0:0:
182,177,124740,2,0,L|176:271,1,60,10|0,0:0|0:0,0:0:0:0:
173,284,125097,1,2,0:0:0:0:
99,346,125455,2,0,P|62:356|21:341,1,60,10|2,0:0|0:0,0:0:0:0:
20,308,125812,1,2,0:0:0:0:
422,132,128669,6,0,P|367:113|302:139,1,120,6|8,0:0|0:0,0:0:0:0:
277,167,129205,1,0,0:0:0:0:
244,201,129383,2,0,P|188:219|132:200,1,120,2|8,0:0|0:0,0:0:0:0:
57,141,130097,1,2,0:0:0:0:
133,82,130455,1,10,0:0:0:0:
228,73,130812,1,2,0:0:0:0:
311,119,131169,2,0,P|350:117|372:105,1,60,10|2,0:0|0:0,0:0:0:0:
407,80,131526,6,0,P|433:136|436:204,1,120,2|8,0:0|0:0,0:0:0:0:
341,204,132240,2,0,P|315:260|312:328,1,120,0|10,0:0|0:0,0:0:0:0:
397,358,132955,1,2,0:0:0:0:
476,304,133312,1,10,0:0:0:0:
439,215,133669,1,2,0:0:0:0:
341,204,134026,2,0,P|307:198|271:204,1,60,10|2,0:0|0:0,0:0:0:0:
237,219,134383,6,0,P|176:237|118:221,1,120,2|8,0:0|0:0,0:0:0:0:
79,203,134919,1,0,0:0:0:0:
44,170,135097,2,0,B|9:209|9:209|34:306,1,120,0|10,0:0|0:0,0:0:0:0:
89,346,135812,1,2,0:0:0:0:
170,294,136169,1,10,0:0:0:0:
233,366,136526,1,2,0:0:0:0:
305,302,136883,2,0,L|331:239,1,60,10|2,0:0|0:0,0:0:0:0:
353,205,137240,6,0,P|299:172|266:121,1,120,0|8,0:0|0:0,0:0:0:0:
199,193,137955,2,0,P|165:144|113:113,1,120,0|10,0:0|0:0,0:0:0:0:
35,169,138669,1,2,0:0:0:0:
2,78,139026,1,10,0:0:0:0:
81,23,139383,1,2,0:0:0:0:
162,73,139740,2,0,L|229:60,1,60,10|2,0:0|0:0,0:0:0:0:
268,63,140097,6,0,P|304:111|310:176,1,120,6|8,0:0|0:0,0:0:0:0:
298,215,140633,1,0,0:0:0:0:
286,261,140812,2,0,P|293:319|329:367,1,120,2|8,0:0|0:0,0:0:0:0:
425,363,141526,1,2,0:0:0:0:
487,290,141883,1,10,0:0:0:0:
462,197,142240,1,2,0:0:0:0:
372,163,142597,2,0,P|362:127|363:98,1,60,10|2,0:0|0:0,0:0:0:0:
388,63,142955,6,0,P|325:37|268:41,1,120,2|8,0:0|0:0,0:0:0:0:
232,125,143669,2,0,P|172:125|118:101,1,120,0|10,0:0|0:0,0:0:0:0:
56,28,144383,1,2,0:0:0:0:
13,114,144740,1,10,0:0:0:0:
55,200,145097,1,2,0:0:0:0:
150,210,145455,2,0,P|183:202|215:203,1,60,10|2,0:0|0:0,0:0:0:0:
250,226,145812,6,0,P|306:260|374:265,1,120,2|8,0:0|0:0,0:0:0:0:
405,254,146347,1,0,0:0:0:0:
440,221,146526,2,0,P|441:155|411:94,1,120,0|10,0:0|0:0,0:0:0:0:
340,53,147240,1,2,0:0:0:0:
251,90,147597,1,10,0:0:0:0:
211,177,147955,1,2,0:0:0:0:
231,270,148312,2,0,P|202:278|166:278,1,60,10|2,0:0|0:0,0:0:0:0:
124,278,148669,6,0,P|95:222|91:158,1,120,2|8,0:0|0:0,0:0:0:0:
185,174,149383,2,0,P|214:118|218:54,1,120,0|10,0:0|0:0,0:0:0:0:
130,25,150097,1,2,0:0:0:0:
68,99,150455,1,10,0:0:0:0:
82,193,150812,1,2,0:0:0:0:
149,260,151169,2,0,L|216:252,1,60,10|2,0:0|0:0,0:0:0:0:
255,243,151526,1,6,0:0:0:0:
