osu file format v14

[General]
AudioFilename: audio.mp3
AudioLeadIn: 0
PreviewTime: 45812
Countdown: 0
SampleSet: Soft
StackLeniency: 0.7
Mode: 0
LetterboxInBreaks: 0
EpilepsyWarning: 1
WidescreenStoryboard: 1

[Editor]
Bookmarks: 57240,128669
DistanceSpacing: 1.4
BeatDivisor: 4
GridSize: 32
TimelineZoom: 1.2

[Metadata]
Title:help herself (with BENEE)
TitleUnicode:help herself (with BENEE)
Artist:bbno$ x diamond pistols
ArtistUnicode:bbno$ x diamond pistols
Creator:Bakugo-
Version:Collab Insane
Source:
Tags:pop english male female vocalist vocals remix gouhin revolver baku bakugo my oh
BeatmapID:3316275
BeatmapSetID:1624258

[Difficulty]
HPDrainRate:5.5
CircleSize:4
OverallDifficulty:7.8
ApproachRate:9
SliderMultiplier:1.7
SliderTickRate:1

[Events]
//Background and Video events
0,0,"boygirl.jpg",0,0
//Break Periods
2,34583,42251
2,91726,101819
//Storyboard Layer 0 (Background)
Sprite,Background,Centre,"boygirl.jpg",320,240 S,0,10097,,0.4444444 F,0,10097,11526,0,1 S,0,41526,,0.4444444 F,0,45812,,0,1 S,0,98669,,0.4444444 F,0,98669,102955,0,1 F,0,102955,125812,1 S,0,125812,,0.4444444 F,0,125812,128669,1,0 F,0,128669,151526,1 F,0,151526,162955,1,0
Sprite,Background,Centre,"SB\bw blur.png",320,240 S,0,1,,0.4444444 F,0,1,11526,0,1
Sprite,Background,Centre,"SB\boy.png",320,240 S,0,11526,,0.4444444 S,0,11526,,0.4444444 F,0,11526,34383,1 F,0,34383,45812,1,0 S,0,45812,,0.4444444 F,0,45812,68312,1 S,0,68312,,0.4444444 F,0,68312,68669,1,0
Sprite,Background,Centre,"SB\girl.png",320,240 F,0,68312,68669,0,1 S,0,68669,,0.4444444 S,0,68669,,0.4444444 F,0,68669,98669,1 S,0,98669,,0.4444444 F,0,98669,102955,1,0
Sprite,Background,Centre,"sb\i stole this from wafer.png",0,0 C,0,102955,,151,151,255 M,0,102955,102999,296,235,270.3078,228.8448 F,2,102955,103622,1,0 S,2,102955,103622,0.3,0.06 P,0,102955,103622,A M,0,102999,103044,270.3078,228.8448,244.1291,232.3965 M,0,103044,103088,244.1291,232.3965,220.2432,243.8449 M,0,103088,103133,220.2432,243.8449,196.1327,254.6575 M,0,103133,103178,196.1327,254.6575,169.828,257.8266 M,0,103178,103222,169.828,257.8266,143.3779,255.7097
Sprite,Background,Centre,"sb\i stole this from wafer.png",0,0 C,0,103312,,151,151,255 M,0,103312,103356,101,243,84.40334,222.5082 F,2,103312,103890,1,0 S,2,103312,103890,0.3,0.06 P,0,103312,103890,A M,0,103356,103401,84.40334,222.5082,76.00196,197.5702 M,0,103401,103445,76.00196,197.5702,76.81564,171.2981 M,0,103445,103490,76.81564,171.2981,86.51848,146.8464
Sprite,Background,Centre,"sb\i stole this from wafer.png",189,79 C,0,103669,,151,151,255 F,2,103669,104069,1,0 S,2,103669,104069,0.3,0.06 P,0,103669,104069,A
Sprite,Background,Centre,"sb\i stole this from wafer.png",278,324 C,0,103847,,151,151,255 F,2,103847,104247,1,0 S,2,103847,104247,0.3,0.06 P,0,103847,104247,A
Sprite,Background,Centre,"sb\i stole this from wafer.png",0,0 C,0,104026,,151,151,255 M,0,104026,104070,382,163,355.9533,157.7907 F,2,104026,104604,1,0 S,2,104026,104604,0.3,0.06 P,0,104026,104604,A M,0,104070,104115,355.9533,157.7907,329.9066,152.5813 M,0,104115,104159,329.9066,152.5813,303.86,147.372 M,0,104159,104204,303.86,147.372,277.8133,142.1627
Sprite,Background,Centre,"sb\i stole this from wafer.png",178,182 C,0,104383,,206,206,255 F,2,104383,104783,1,0 S,2,104383,104783,0.3,0.06 P,0,104383,104783,A
Sprite,Background,Centre,"sb\i stole this from wafer.png",279,56 C,0,104562,,206,206,255 F,2,104562,104962,1,0 S,2,104562,104962,0.3,0.06 P,0,104562,104962,A
Sprite,Background,Centre,"sb\i stole this from wafer.png",257,239 C,0,104740,,206,206,255 F,2,104740,105140,1,0 S,2,104740,105140,0.3,0.06 P,0,104740,105140,A
Sprite,Background,Centre,"sb\i stole this from wafer.png",189,79 C,0,104919,,206,206,255 F,2,104919,105319,1,0 S,2,104919,105319,0.3,0.06 P,0,104919,105319,A
Sprite,Background,Centre,"sb\i stole this from wafer.png",159,292 C,0,105097,,205,155,255 F,2,105097,105497,1,0 S,2,105097,105497,0.3,0.06 P,0,105097,105497,A
Sprite,Background,Centre,"sb\i stole this from wafer.png",277,142 C,0,105276,,205,155,255 F,2,105276,105676,1,0 S,2,105276,105676,0.3,0.06 P,0,105276,105676,A
Sprite,Background,Centre,"sb\i stole this from wafer.png",0,0 C,0,105455,,205,155,255 M,0,105455,105499,352,362,326.3056,355.2646 F,2,105455,106033,1,0 S,2,105455,106033,0.3,0.06 P,0,105455,106033,A M,0,105499,105544,326.3056,355.2646,300.6113,348.5292 M,0,105544,105588,300.6113,348.5292,274.9169,341.7938 M,0,105588,105633,274.9169,341.7938,249.2225,335.0583
Sprite,Background,Centre,"sb\i stole this from wafer.png",0,0 C,0,105812,,173,91,255 M,0,105812,105856,138,164,123.1288,141.9906 F,2,105812,106479,1,0 S,2,105812,106479,0.3,0.06 P,0,105812,106479,A M,0,105856,105901,123.1288,141.9906,107.0762,133.0497 M,0,105901,105945,107.0762,133.0497,93.28498,155.5864 M,0,105945,105990,93.28498,155.5864,87.88286,181.4796 M,0,105990,106035,87.88286,181.4796,89.56827,207.9338 M,0,106035,106079,89.56827,207.9338,96.01982,233.6761
Sprite,Background,Centre,"sb\i stole this from wafer.png",0,0 C,0,106169,,173,91,255 M,0,106169,106213,115,272,139.6412,281.4897 F,2,106169,106747,1,0 S,2,106169,106747,0.3,0.06 P,0,106169,106747,A M,0,106213,106258,139.6412,281.4897,165.9859,282.486 M,0,106258,106302,165.9859,282.486,191.2043,274.9039 M,0,106302,106347,191.2043,274.9039,212.5919,259.5716
Sprite,Background,Centre,"sb\i stole this from wafer.png",277,142 C,0,106526,,173,91,255 F,2,106526,106926,1,0 S,2,106526,106926,0.3,0.06 P,0,106526,106926,A
Sprite,Background,Centre,"sb\i stole this from wafer.png",305,291 C,0,106705,,173,91,255 F,2,106705,107105,1,0 S,2,106705,107105,0.3,0.06 P,0,106705,107105,A
Sprite,Background,Centre,"sb\i stole this from wafer.png",0,0 C,0,106883,,151,151,255 M,0,106883,106927,466,82,482.1673,102.9114 F,2,106883,107461,1,0 S,2,106883,107461,0.3,0.06 P,0,106883,107461,A M,0,106927,106972,482.1673,102.9114,491.1948,127.7227 M,0,106972,107016,491.1948,127.7227,492.2426,154.08 M,0,107016,107061,492.2426,154.08,485.2245,179.4875
Sprite,Background,Centre,"sb\i stole this from wafer.png",0,0 C,0,107240,,151,151,255 M,0,107240,107284,426,256,406.9249,274.1313 F,2,107240,107907,1,0 S,2,107240,107907,0.3,0.06 P,0,107240,107907,A M,0,107284,107329,406.9249,274.1313,396.7808,298.3455 M,0,107329,107373,396.7808,298.3455,397.2375,324.5476 M,0,107373,107418,397.2375,324.5476,408.1888,348.3226 M,0,107418,107463,408.1888,348.3226,427.5294,366.0859 M,0,107463,107507,427.5294,366.0859,452.636,373.9212
Sprite,Background,Centre,"sb\i stole this from wafer.png",0,0 C,0,107597,,151,151,255 M,0,107597,107641,502,310,499.2193,336.4166 F,2,107597,108175,1,0 S,2,107597,108175,0.3,0.06 P,0,107597,108175,A M,0,107641,107686,499.2193,336.4166,496.4386,362.8331 M,0,107686,107730,496.4386,362.8331,493.6579,389.2497 M,0,107730,107775,493.6579,389.2497,490.8772,415.6662
Sprite,Background,Centre,"sb\i stole this from wafer.png",364,419 C,0,107955,,151,151,255 F,2,107955,108355,1,0 S,2,107955,108355,0.3,0.06 P,0,107955,108355,A
Sprite,Background,Centre,"sb\i stole this from wafer.png",549,232 C,0,108133,,151,151,255 F,2,108133,108533,1,0 S,2,108133,108533,0.3,0.06 P,0,108133,108533,A
Sprite,Background,Centre,"sb\i stole this from wafer.png",305,291 C,0,108312,,151,151,255 F,2,108312,108712,1,0 S,2,108312,108712,0.3,0.06 P,0,108312,108712,A
Sprite,Background,Centre,"sb\i stole this from wafer.png",549,370 C,0,108490,,151,151,255 F,2,108490,108890,1,0 S,2,108490,108890,0.3,0.06 P,0,108490,108890,A
Sprite,Background,Centre,"sb\i stole this from wafer.png",0,0 C,0,108669,,206,206,255 M,0,108669,108713,388,252,361.471,253.3339 F,2,108669,109336,1,0 S,2,108669,109336,0.3,0.06 P,0,108669,109336,A M,0,108713,108758,361.471,253.3339,334.942,254.6677 M,0,108758,108802,334.942,254.6677,308.413,256.0016 M,0,108802,108847,308.413,256.0016,281.884,257.3354 M,0,108847,108892,281.884,257.3354,255.3551,258.6693 M,0,108892,108936,255.3551,258.6693,228.8261,260.0032
Sprite,Background,Centre,"sb\i stole this from wafer.png",0,0 C,0,109026,,206,206,255 M,0,109026,109070,186,261,175.4548,285.2172 F,2,109026,109604,1,0 S,2,109026,109604,0.3,0.06 P,0,109026,109604,A M,0,109070,109115,175.4548,285.2172,173.1934,311.4958 M,0,109115,109159,173.1934,311.4958,179.4315,337.0935 M,0,109159,109204,179.4315,337.0935,193.5042,359.3437
Sprite,Background,Centre,"sb\i stole this from wafer.png",305,291 C,0,109383,,206,206,255 F,2,109383,109783,1,0 S,2,109383,109783,0.3,0.06 P,0,109383,109783,A
Sprite,Background,Centre,"sb\i stole this from wafer.png",101,396 C,0,109562,,206,206,255 F,2,109562,109962,1,0 S,2,109562,109962,0.3,0.06 P,0,109562,109962,A
Sprite,Background,Centre,"sb\i stole this from wafer.png",0,0 C,0,109740,,205,155,255 M,0,109740,109784,375,405,382.2291,379.4401 F,2,109740,110407,1,0 S,2,109740,110407,0.3,0.06 P,0,109740,110407,A M,0,109784,109829,382.2291,379.4401,389.4581,353.8802 M,0,109829,109873,389.4581,353.8802,396.6872,328.3204 M,0,109873,109918,396.6872,328.3204,402.0751,302.763 M,0,109918,109963,402.0751,302.763,394.7779,277.2225 M,0,109963,110007,394.7779,277.2225,387.4806,251.682
Sprite,Background,Centre,"sb\i stole this from wafer.png",0,0 C,0,110097,,205,155,255 M,0,110097,110141,314,70,304.3835,94.66611 F,2,110097,110675,1,0 S,2,110097,110675,0.3,0.06 P,0,110097,110675,A M,0,110141,110186,304.3835,94.66611,300.9205,120.8879 M,0,110186,110230,300.9205,120.8879,303.8005,147.166 M,0,110230,110275,303.8005,147.166,312.7009,172.0695
Sprite,Background,Centre,"sb\i stole this from wafer.png",0,0 C,0,110455,,205,155,255 M,0,110455,110499,484,259,493.6165,234.3339 F,2,110455,111033,1,0 S,2,110455,111033,0.3,0.06 P,0,110455,111033,A M,0,110499,110544,493.6165,234.3339,497.0795,208.112 M,0,110544,110588,497.0795,208.112,494.1995,181.834 M,0,110588,110633,494.1995,181.834,485.2991,156.9305
Sprite,Background,Centre,"sb\i stole this from wafer.png",387,251 C,0,110812,,173,91,255 F,2,110812,111212,1,0 S,2,110812,111212,0.3,0.06 P,0,110812,111212,A
Sprite,Background,Centre,"sb\i stole this from wafer.png",432,76 C,0,110990,,173,91,255 F,2,110990,111390,1,0 S,2,110990,111390,0.3,0.06 P,0,110990,111390,A
Sprite,Background,Centre,"sb\i stole this from wafer.png",312,172 C,0,111169,,173,91,255 F,2,111169,111569,1,0 S,2,111169,111569,0.3,0.06 P,0,111169,111569,A
Sprite,Background,Centre,"sb\i stole this from wafer.png",548,206 C,0,111347,,173,91,255 F,2,111347,111747,1,0 S,2,111347,111747,0.3,0.06 P,0,111347,111747,A
Sprite,Background,Centre,"sb\i stole this from wafer.png",0,0 C,0,111526,,151,151,255 M,0,111526,111570,387,251,387.6306,277.4753 F,2,111526,112193,1,0 S,2,111526,112193,0.3,0.06 P,0,111526,112193,A M,0,111570,111615,387.6306,277.4753,395.9803,302.573 M,0,111615,111659,395.9803,302.573,411.5656,323.9695 M,0,111659,111704,411.5656,323.9695,419.6931,347.2796 M,0,111704,111749,419.6931,347.2796,413.5906,373.014 M,0,111749,111793,413.5906,373.014,400.6785,396.1602
Sprite,Background,Centre,"sb\i stole this from wafer.png",0,0 C,0,111883,,151,151,255 M,0,111883,111927,362,415,335.5101,413.0378 F,2,111883,112461,1,0 S,2,111883,112461,0.3,0.06 P,0,111883,112461,A M,0,111927,111972,335.5101,413.0378,309.0201,411.0756 M,0,111972,112016,309.0201,411.0756,282.5302,409.1133 M,0,112016,112061,282.5302,409.1133,256.0403,407.1511
Sprite,Background,Centre,"sb\i stole this from wafer.png",293,297 C,0,112240,,151,151,255 F,2,112240,112640,1,0 S,2,112240,112640,0.3,0.06 P,0,112240,112640,A
Sprite,Background,Centre,"sb\i stole this from wafer.png",144,408 C,0,112419,,151,151,255 F,2,112419,112819,1,0 S,2,112419,112819,0.3,0.06 P,0,112419,112819,A
Sprite,Background,Centre,"sb\i stole this from wafer.png",0,0 C,0,112597,,206,206,255 M,0,112597,112641,199,279,176.6116,265.026 F,2,112597,113264,1,0 S,2,112597,113264,0.3,0.06 P,0,112597,113264,A M,0,112641,112686,176.6116,265.026,160.0718,244.5224 M,0,112686,112730,160.0718,244.5224,151.1785,219.7534 M,0,112730,112775,151.1785,219.7534,150.7103,193.4273 M,0,112775,112820,150.7103,193.4273,159.3214,168.5249 M,0,112820,112864,159.3214,168.5249,175.6035,147.8459
Sprite,Background,Centre,"sb\i stole this from wafer.png",0,0 C,0,112955,,206,206,255 M,0,112955,112999,215,130,241.2887,128.5008 F,2,112955,113533,1,0 S,2,112955,113533,0.3,0.06 P,0,112955,113533,A M,0,112999,113044,241.2887,128.5008,266.0286,137.3343 M,0,113044,113088,266.0286,137.3343,285.3431,155.0752 M,0,113088,113133,285.3431,155.0752,296.2114,178.9141
Sprite,Background,Centre,"sb\i stole this from wafer.png",0,0 C,0,113312,,206,206,255 M,0,113312,113356,292,296,317.8575,301.4177 F,2,113312,113890,1,0 S,2,113312,113890,0.3,0.06 P,0,113312,113890,A M,0,113356,113401,317.8575,301.4177,344.0929,298.6655 M,0,113401,113445,344.0929,298.6655,368.2026,288.0248 M,0,113445,113490,368.2026,288.0248,388,271
Sprite,Background,Centre,"sb\i stole this from wafer.png",409,161 C,0,113669,,206,206,255 F,2,113669,114069,1,0 S,2,113669,114069,0.3,0.06 P,0,113669,114069,A
Sprite,Background,Centre,"sb\i stole this from wafer.png",456,363 C,0,113847,,206,206,255 F,2,113847,114247,1,0 S,2,113847,114247,0.3,0.06 P,0,113847,114247,A
Sprite,Background,Centre,"sb\i stole this from wafer.png",296,178 C,0,114026,,206,206,255 F,2,114026,114426,1,0 S,2,114026,114426,0.3,0.06 P,0,114026,114426,A
Sprite,Background,Centre,"sb\i stole this from wafer.png",518,249 C,0,114205,,206,206,255 F,2,114205,114605,1,0 S,2,114205,114605,0.3,0.06 P,0,114205,114605,A
Sprite,Background,Centre,"sb\i stole this from wafer.png",0,0 C,0,114383,,205,155,255 M,0,114383,114427,366,403,339.5139,400.9865 F,2,114383,115050,1,0 S,2,114383,115050,0.3,0.06 P,0,114383,115050,A M,0,114427,114472,339.5139,400.9865,313.0279,398.9729 M,0,114472,114516,313.0279,398.9729,286.5418,396.9593 M,0,114516,114561,286.5418,396.9593,260.0557,394.9458 M,0,114561,114606,260.0557,394.9458,233.5696,392.9322 M,0,114606,114650,233.5696,392.9322,207.0836,390.9186
Sprite,Background,Centre,"sb\i stole this from wafer.png",0,0 C,0,114740,,205,155,255 M,0,114740,114784,165,380,153.5999,356.1611 F,2,114740,115318,1,0 S,2,114740,115318,0.3,0.06 P,0,114740,115318,A M,0,114784,114829,153.5999,356.1611,149.8702,330.0399 M,0,114829,114873,149.8702,330.0399,154.1342,304.0254 M,0,114873,114918,154.1342,304.0254,165.7223,280.3059
Sprite,Background,Centre,"sb\i stole this from wafer.png",239,194 C,0,115097,,173,91,255 F,2,115097,115497,1,0 S,2,115097,115497,0.3,0.06 P,0,115097,115497,A
Sprite,Background,Centre,"sb\i stole this from wafer.png",292,362 C,0,115276,,173,91,255 F,2,115276,115676,1,0 S,2,115276,115676,0.3,0.06 P,0,115276,115676,A
Sprite,Background,Centre,"sb\i stole this from wafer.png",0,0 C,0,115455,,173,91,255 M,0,115455,115499,427,226,400.8266,230.53 F,2,115455,116033,1,0 S,2,115455,116033,0.3,0.06 P,0,115455,116033,A M,0,115499,115544,400.8266,230.53,374.6533,235.06 M,0,115544,115588,374.6533,235.06,348.4799,239.59 M,0,115588,115633,348.4799,239.59,323,244
Sprite,Background,Centre,"sb\i stole this from wafer.png",0,0 C,0,115812,,151,151,255 M,0,115812,115856,165,280,153.2886,303.6881 F,2,115812,116390,1,0 S,2,115812,116390,0.3,0.06 P,0,115812,116390,A M,0,115856,115901,153.2886,303.6881,149.2824,329.7699 M,0,115901,115945,149.2824,329.7699,153.336,355.8184 M,0,115945,115990,153.336,355.8184,164.7606,379.6279
Sprite,Background,Centre,"sb\i stole this from wafer.png",0,0 C,0,116169,,151,151,255 M,0,116169,116213,323,244,334.1341,220.0285 F,2,116169,116747,1,0 S,2,116169,116747,0.3,0.06 P,0,116169,116747,A M,0,116213,116258,334.1341,220.0285,337.7167,193.8778 M,0,116258,116302,337.7167,193.8778,333.4482,167.8547 M,0,116302,116347,333.4482,167.8547,322.0228,144.0359
Sprite,Background,Centre,"sb\i stole this from wafer.png",240,195 C,0,116526,,151,151,255 F,2,116526,116926,1,0 S,2,116526,116926,0.3,0.06 P,0,116526,116926,A
Sprite,Background,Centre,"sb\i stole this from wafer.png",417,111 C,0,116705,,151,151,255 F,2,116705,117105,1,0 S,2,116705,117105,0.3,0.06 P,0,116705,117105,A
Sprite,Background,Centre,"sb\i stole this from wafer.png",0,0 C,0,116883,,151,151,255 M,0,116883,116927,384,320,357.6855,323.6212 F,2,116883,117461,1,0 S,2,116883,117461,0.3,0.06 P,0,116883,117461,A M,0,116927,116972,357.6855,323.6212,331.371,327.2425 M,0,116972,117016,331.371,327.2425,305.0565,330.8638 M,0,117016,117061,305.0565,330.8638,278.742,334.485
Sprite,Background,Centre,"sb\i stole this from wafer.png",0,0 C,0,117240,,206,206,255 M,0,117240,117284,146,145,167.105,160.8874 F,2,117240,117907,1,0 S,2,117240,117907,0.3,0.06 P,0,117240,117907,A M,0,117284,117329,167.105,160.8874,182.2222,182.502 M,0,117329,117373,182.2222,182.502,189.8847,207.7129 M,0,117373,117418,189.8847,207.7129,189.3521,234.043 M,0,117418,117463,189.3521,234.043,180.8806,259.0012 M,0,117463,117507,180.8806,259.0012,164.7494,279.8735
Sprite,Background,Centre,"sb\i stole this from wafer.png",0,0 C,0,117597,,206,206,255 M,0,117597,117641,128,302,131.266,328.361 F,2,117597,118175,1,0 S,2,117597,118175,0.3,0.06 P,0,117597,118175,A M,0,117641,117686,131.266,328.361,134.5319,354.7219 M,0,117686,117730,134.5319,354.7219,137.7979,381.0829 M,0,117730,117775,137.7979,381.0829,141.0638,407.4438
Sprite,Background,Centre,"sb\i stole this from wafer.png",278,334 C,0,117955,,206,206,255 F,2,117955,118355,1,0 S,2,117955,118355,0.3,0.06 P,0,117955,118355,A
Sprite,Background,Centre,"sb\i stole this from wafer.png",101,218 C,0,118133,,206,206,255 F,2,118133,118533,1,0 S,2,118133,118533,0.3,0.06 P,0,118133,118533,A
Sprite,Background,Centre,"sb\i stole this from wafer.png",0,0 C,0,118312,,205,155,255 M,0,118312,118356,226,421,251.3362,428.8899 F,2,118312,118979,1,0 S,2,118312,118979,0.3,0.06 P,0,118312,118979,A M,0,118356,118401,251.3362,428.8899,277.6771,431.7972 M,0,118401,118445,277.6771,431.7972,303.7022,427.1507 M,0,118445,118490,303.7022,427.1507,328.2918,417.2272 M,0,118490,118535,328.2918,417.2272,354.6154,414.6752 M,0,118535,118579,354.6154,414.6752,380.6003,419.823
Sprite,Background,Centre,"sb\i stole this from wafer.png",0,0 C,0,118669,,205,155,255 M,0,118669,118713,423,422,433.9844,397.9457 F,2,118669,119247,1,0 S,2,118669,119247,0.3,0.06 P,0,118669,119247,A M,0,118713,118758,433.9844,397.9457,437.7409,371.8027 M,0,118758,118802,437.7409,371.8027,433.9807,345.6829 M,0,118802,118847,433.9807,345.6829,423.3,321.5085
Sprite,Background,Centre,"sb\i stole this from wafer.png",0,0 C,0,119026,,205,155,255 M,0,119026,119070,326,147,314.3887,170.744 F,2,119026,119604,1,0 S,2,119026,119604,0.3,0.06 P,0,119026,119604,A M,0,119070,119115,314.3887,170.744,310.2839,196.8179 M,0,119115,119159,310.2839,196.8179,314.0311,222.9211 M,0,119159,119204,314.0311,222.9211,324.978,246.9636
Sprite,Background,Centre,"sb\i stole this from wafer.png",409,199 C,0,119383,,173,91,255 F,2,119383,119783,1,0 S,2,119383,119783,0.3,0.06 P,0,119383,119783,A
Sprite,Background,Centre,"sb\i stole this from wafer.png",275,66 C,0,119562,,173,91,255 F,2,119562,119962,1,0 S,2,119562,119962,0.3,0.06 P,0,119562,119962,A
Sprite,Background,Centre,"sb\i stole this from wafer.png",441,74 C,0,119740,,173,91,255 F,2,119740,120140,1,0 S,2,119740,120140,0.3,0.06 P,0,119740,120140,A
Sprite,Background,Centre,"sb\i stole this from wafer.png",264,200 C,0,119919,,173,91,255 F,2,119919,120319,1,0 S,2,119919,120319,0.3,0.06 P,0,119919,120319,A
Sprite,Background,Centre,"sb\i stole this from wafer.png",0,0 C,0,120097,,151,151,255 M,0,120097,120141,498,157,494.7797,183.3666 F,2,120097,120675,1,0 S,2,120097,120675,0.3,0.06 P,0,120097,120675,A M,0,120141,120186,494.7797,183.3666,491.5593,209.7331 M,0,120186,120230,491.5593,209.7331,488.339,236.0997 M,0,120230,120275,488.339,236.0997,485.1186,262.4663
Sprite,Background,Centre,"sb\i stole this from wafer.png",0,0 C,0,120455,,151,151,255 M,0,120455,120499,367,435,364.3085,408.5742 F,2,120455,121033,1,0 S,2,120455,121033,0.3,0.06 P,0,120455,121033,A M,0,120499,120544,364.3085,408.5742,361.617,382.1484 M,0,120544,120588,361.617,382.1484,358.9254,355.7227 M,0,120588,120633,358.9254,355.7227,356.2339,329.2968
Sprite,Background,Centre,"sb\i stole this from wafer.png",337,158 C,0,120812,,151,151,255 F,2,120812,121212,1,0 S,2,120812,121212,0.3,0.06 P,0,120812,121212,A
Sprite,Background,Centre,"sb\i stole this from wafer.png",273,279 C,0,120990,,151,151,255 F,2,120990,121390,1,0 S,2,120990,121390,0.3,0.06 P,0,120990,121390,A
Sprite,Background,Centre,"sb\i stole this from wafer.png",0,0 C,0,121169,,206,206,255 M,0,121169,121213,131,75,117.3624,97.65065 F,2,121169,121747,1,0 S,2,121169,121747,0.3,0.06 P,0,121169,121747,A M,0,121213,121258,117.3624,97.65065,110.7704,123.2202 M,0,121258,121302,110.7704,123.2202,111.756,149.5846 M,0,121302,121347,111.756,149.5846,120.2283,174.5574
Sprite,Background,Centre,"sb\i stole this from wafer.png",0,0 C,0,121526,,206,206,255 M,0,121526,121570,273,279,247.2623,285.0896 F,2,121526,122104,1,0 S,2,121526,122104,0.3,0.06 P,0,121526,122104,A M,0,121570,121615,247.2623,285.0896,220.8728,283.8923 M,0,121615,121659,220.8728,283.8923,195.8421,275.5126 M,0,121659,121704,195.8421,275.5126,174,261
Sprite,Background,Centre,"sb\i stole this from wafer.png",0,0 C,0,121883,,206,206,255 M,0,121883,121927,353,192,366.2598,169.1175 F,2,121883,122461,1,0 S,2,121883,122461,0.3,0.06 P,0,121883,122461,A M,0,121927,121972,366.2598,169.1175,372.6783,143.4944 M,0,121972,122016,372.6783,143.4944,371.7721,117.1162 M,0,122016,122061,371.7721,117.1162,364,92
Sprite,Background,Centre,"sb\i stole this from wafer.png",276,133 C,0,122240,,205,155,255 F,2,122240,122640,1,0 S,2,122240,122640,0.3,0.06 P,0,122240,122640,A
Sprite,Background,Centre,"sb\i stole this from wafer.png",372,296 C,0,122419,,205,155,255 F,2,122419,122819,1,0 S,2,122419,122819,0.3,0.06 P,0,122419,122819,A
Sprite,Background,Centre,"sb\i stole this from wafer.png",456,130 C,0,122597,,205,155,255 F,2,122597,122997,1,0 S,2,122597,122997,0.3,0.06 P,0,122597,122997,A
Sprite,Background,Centre,"sb\i stole this from wafer.png",205,184 C,0,122776,,205,155,255 F,2,122776,123176,1,0 S,2,122776,123176,0.3,0.06 P,0,122776,123176,A
Sprite,Background,Centre,"sb\i stole this from wafer.png",0,0 C,0,122955,,173,91,255 M,0,122955,122999,446,316,419.588,318.8239 F,2,122955,123622,1,0 S,2,122955,123622,0.3,0.06 P,0,122955,123622,A M,0,122999,123044,419.588,318.8239,393.1761,321.6478 M,0,123044,123088,393.1761,321.6478,366.7641,324.4718 M,0,123088,123133,366.7641,324.4718,340.3521,327.2957 M,0,123133,123178,340.3521,327.2957,313.9402,330.1196 M,0,123178,123222,313.9402,330.1196,287.5282,332.9435
Sprite,Background,Centre,"sb\i stole this from wafer.png",0,0 C,0,123312,,173,91,255 M,0,123312,123356,245,339,226.7787,358.1543 F,2,123312,123890,1,0 S,2,123312,123890,0.3,0.06 P,0,123312,123890,A M,0,123356,123401,226.7787,358.1543,214.7499,381.6561 M,0,123401,123445,214.7499,381.6561,209.881,407.5841 M,0,123445,123490,209.881,407.5841,212.291,433.887
Sprite,Background,Centre,"sb\i stole this from wafer.png",307,417 C,0,123669,,173,91,255 F,2,123669,124069,1,0 S,2,123669,124069,0.3,0.06 P,0,123669,124069,A
Sprite,Background,Centre,"sb\i stole this from wafer.png",177,268 C,0,123847,,173,91,255 F,2,123847,124247,1,0 S,2,123847,124247,0.3,0.06 P,0,123847,124247,A
Sprite,Background,Centre,"sb\i stole this from wafer.png",0,0 C,0,124026,,151,151,255 M,0,124026,124070,292,125,317.2307,116.7808 F,2,124026,124693,1,0 S,2,124026,124693,0.3,0.06 P,0,124026,124693,A M,0,124070,124115,317.2307,116.7808,343.5493,113.7701 M,0,124115,124159,343.5493,113.7701,369.356,119.2885 M,0,124159,124204,369.356,119.2885,392.9451,131.3603 M,0,124204,124249,392.9451,131.3603,419.1057,135.0825 M,0,124249,124293,419.1057,135.0825,445.32,131.1713
Sprite,Background,Centre,"sb\i stole this from wafer.png",0,0 C,0,124383,,151,151,255 M,0,124383,124427,479,105,490.9792,128.5181 F,2,124383,124961,1,0 S,2,124383,124961,0.3,0.06 P,0,124383,124961,A M,0,124427,124472,490.9792,128.5181,493.959,154.7075 M,0,124472,124516,493.959,154.7075,487.5842,180.2527 M,0,124516,124561,487.5842,180.2527,472.6792,201.9258
Sprite,Background,Centre,"sb\i stole this from wafer.png",0,0 C,0,124740,,151,151,255 M,0,124740,124784,399,390,384.4103,367.9708 F,2,124740,125318,1,0 S,2,124740,125318,0.3,0.06 P,0,124740,125318,A M,0,124784,124829,384.4103,367.9708,377.3297,342.5523 M,0,124829,124873,377.3297,342.5523,378.4277,316.216 M,0,124873,124918,378.4277,316.216,387.298,291.3499
Sprite,Background,Centre,"sb\i stole this from wafer.png",475,334 C,0,125097,,206,206,255 F,2,125097,125497,1,0 S,2,125097,125497,0.3,0.06 P,0,125097,125497,A
Sprite,Background,Centre,"sb\i stole this from wafer.png",292,194 C,0,125276,,206,206,255 F,2,125276,125676,1,0 S,2,125276,125676,0.3,0.06 P,0,125276,125676,A
Sprite,Background,Centre,"sb\i stole this from wafer.png",557,270 C,0,125455,,206,206,255 F,2,125455,125855,1,0 S,2,125455,125855,0.3,0.06 P,0,125455,125855,A
Sprite,Background,Centre,"sb\i stole this from wafer.png",290,391 C,0,125633,,206,206,255 F,2,125633,126033,1,0 S,2,125633,126033,0.3,0.06 P,0,125633,126033,A
Sprite,Background,Centre,"sb\i stole this from wafer.png",387,291 C,0,125812,,205,155,255 F,2,125812,126212,1,0 S,2,125812,126212,0.3,0.06 P,0,125812,126212,A
Sprite,Background,Centre,"sb\i stole this from wafer.png",0,0 C,0,128669,,173,91,255 M,0,128669,128713,157,273,176.3623,293.9338 F,2,128669,129336,1,0 S,2,128669,129336,0.3,0.06 P,0,128669,129336,A M,0,128713,128758,176.3623,293.9338,186.1578,319.29 M,0,128758,128802,186.1578,319.29,192.381,291.2856 M,0,128802,128847,192.381,291.2856,198.6042,263.2813 M,0,128847,128892,198.6042,263.2813,204.8273,235.2769 M,0,128892,128936,204.8273,235.2769,211.0506,207.2725
Sprite,Background,Centre,"sb\i stole this from wafer.png",0,0 C,0,129026,,173,91,255 M,0,129026,129070,170,129,198.1156,125.0957 F,2,129026,129604,1,0 S,2,129026,129604,0.3,0.06 P,0,129026,129604,A M,0,129070,129115,198.1156,125.0957,220.9154,108.096 M,0,129115,129159,220.9154,108.096,239.6843,129.3461 M,0,129159,129204,239.6843,129.3461,265.6539,141.0081
Sprite,Background,Centre,"sb\i stole this from wafer.png",0,0 C,0,129383,,173,91,255 M,0,129383,129427,526,170,543.131,147.2076 F,2,129383,130050,1,0 S,2,129383,130050,0.3,0.06 P,0,129383,130050,A M,0,129427,129472,543.131,147.2076,554.6106,134.705 M,0,129472,129516,554.6106,134.705,526.0961,137.8515 M,0,129516,129561,526.0961,137.8515,497.5817,140.9979 M,0,129561,129606,497.5817,140.9979,469.0673,144.1443 M,0,129606,129650,469.0673,144.1443,440.5529,147.2907
Sprite,Background,Centre,"sb\i stole this from wafer.png",0,0 C,0,129740,,173,91,255 M,0,129740,129784,374,199,356.3876,176.3555 F,2,129740,130318,1,0 S,2,129740,130318,0.3,0.06 P,0,129740,130318,A M,0,129784,129829,356.3876,176.3555,339.1596,153.6704 M,0,129829,129873,339.1596,153.6704,351.6653,127.8522 M,0,129873,129918,351.6653,127.8522,364.1711,102.034
Sprite,Background,Centre,"sb\i stole this from wafer.png",330,293 C,0,130097,,151,151,255 F,2,130097,130497,1,0 S,2,130097,130497,0.3,0.06 P,0,130097,130497,A
Sprite,Background,Centre,"sb\i stole this from wafer.png",433,265 C,0,130276,,151,151,255 F,2,130276,130676,1,0 S,2,130276,130676,0.3,0.06 P,0,130276,130676,A
Sprite,Background,Centre,"sb\i stole this from wafer.png",323,398 C,0,130455,,206,206,255 F,2,130455,130855,1,0 S,2,130455,130855,0.3,0.06 P,0,130455,130855,A
Sprite,Background,Centre,"sb\i stole this from wafer.png",220,370 C,0,130634,,206,206,255 F,2,130634,131034,1,0 S,2,130634,131034,0.3,0.06 P,0,130634,131034,A
Sprite,Background,Centre,"sb\i stole this from wafer.png",0,0 C,0,130812,,205,155,255 M,0,130812,130856,224,202,243.6679,222.7636 F,2,130812,131390,1,0 S,2,130812,131390,0.3,0.06 P,0,130812,131390,A M,0,130856,130901,243.6679,222.7636,258.1603,247.3912 M,0,130901,130945,258.1603,247.3912,266.9438,274.5927 M,0,130945,130990,266.9438,274.5927,269.1379,303.1187
Sprite,Background,Centre,"sb\i stole this from wafer.png",135,227 C,0,131169,,205,155,255 F,2,131169,131569,1,0 S,2,131169,131569,0.3,0.06 P,0,131169,131569,A
Sprite,Background,Centre,"sb\i stole this from wafer.png",170,128 C,0,131347,,205,155,255 F,2,131347,131747,1,0 S,2,131347,131747,0.3,0.06 P,0,131347,131747,A
Sprite,Background,Centre,"sb\i stole this from wafer.png",0,0 C,0,131526,,205,155,255 M,0,131526,131570,280,143,308.6334,143.4026 F,2,131526,132104,1,0 S,2,131526,132104,0.3,0.06 P,0,131526,132104,A M,0,131570,131615,308.6334,143.4026,336.9479,139.1328 M,0,131615,131659,336.9479,139.1328,364.0269,129.8314 M,0,131659,131704,364.0269,129.8314,389.2298,116.239
Sprite,Background,Centre,"sb\i stole this from wafer.png",0,0 C,0,131883,,205,155,255 M,0,131883,131927,539,244,513.7402,230.5039 F,2,131883,132461,1,0 S,2,131883,132461,0.3,0.06 P,0,131883,132461,A M,0,131927,131972,513.7402,230.5039,486.6144,221.3563 M,0,131972,132016,486.6144,221.3563,458.3601,216.776 M,0,132016,132061,458.3601,216.776,429.7169,216.9465
Sprite,Background,Centre,"sb\i stole this from wafer.png",423,385 C,0,132240,,205,155,255 F,2,132240,132640,1,0 S,2,132240,132640,0.3,0.06 P,0,132240,132640,A
Sprite,Background,Centre,"sb\i stole this from wafer.png",486,311 C,0,132419,,205,155,255 F,2,132419,132819,1,0 S,2,132419,132819,0.3,0.06 P,0,132419,132819,A
Sprite,Background,Centre,"sb\i stole this from wafer.png",0,0 C,0,132597,,173,91,255 M,0,132597,132641,249,278,231.8214,300.4742 F,2,132597,133264,1,0 S,2,132597,133264,0.3,0.06 P,0,132597,133264,A M,0,132641,132686,231.8214,300.4742,228.863,328.7531 M,0,132686,132730,228.863,328.7531,218.25,304.7609 M,0,132730,132775,218.25,304.7609,207.0085,278.3677 M,0,132775,132820,207.0085,278.3677,195.7669,251.9746 M,0,132820,132864,195.7669,251.9746,184.5254,225.5814
Sprite,Background,Centre,"sb\i stole this from wafer.png",0,0 C,0,132955,,173,91,255 M,0,132955,132999,101,194,120.0994,172.7086 F,2,132955,133533,1,0 S,2,132955,133533,0.3,0.06 P,0,132955,133533,A M,0,132999,133044,120.0994,172.7086,143.4143,156.1806 M,0,133044,133088,143.4143,156.1806,169.7375,145.0266 M,0,133088,133133,169.7375,145.0266,197.9458,140.2306
Sprite,Background,Centre,"sb\i stole this from wafer.png",0,0 C,0,133312,,173,91,255 M,0,133312,133356,345,331,316.8382,326.0086 F,2,133312,133890,1,0 S,2,133312,133890,0.3,0.06 P,0,133312,133890,A M,0,133356,133401,316.8382,326.0086,290.4799,314.9643 M,0,133401,133445,290.4799,314.9643,267.192,298.4128 M,0,133445,133490,267.192,298.4128,248.0877,277.1171
Sprite,Background,Centre,"sb\i stole this from wafer.png",361,240 C,0,133669,,151,151,255 F,2,133669,134069,1,0 S,2,133669,134069,0.3,0.06 P,0,133669,134069,A
Sprite,Background,Centre,"sb\i stole this from wafer.png",273,413 C,0,133847,,151,151,255 F,2,133847,134247,1,0 S,2,133847,134247,0.3,0.06 P,0,133847,134247,A
Sprite,Background,Centre,"sb\i stole this from wafer.png",280,143 C,0,134026,,206,206,255 F,2,134026,134426,1,0 S,2,134026,134426,0.3,0.06 P,0,134026,134426,A
Sprite,Background,Centre,"sb\i stole this from wafer.png",345,331 C,0,134204,,206,206,255 F,2,134204,134604,1,0 S,2,134204,134604,0.3,0.06 P,0,134204,134604,A
Sprite,Background,Centre,"sb\i stole this from wafer.png",0,0 C,0,134383,,205,155,255 M,0,134383,134427,98,243,123.3125,229.5 F,2,134383,135050,1,0 S,2,134383,135050,0.3,0.06 P,0,134383,135050,A M,0,134427,134472,123.3125,229.5,148.625,216 M,0,134472,134516,148.625,216,174.0091,203.3327 M,0,134516,134561,174.0091,203.3327,201.2542,212.3146 M,0,134561,134606,201.2542,212.3146,228.4994,221.2965 M,0,134606,134650,228.4994,221.2965,255.7445,230.2784
Sprite,Background,Centre,"sb\i stole this from wafer.png",0,0 C,0,134740,,205,155,255 M,0,134740,134784,192,402,189.4852,373.4229 F,2,134740,135318,1,0 S,2,134740,135318,0.3,0.06 P,0,134740,135318,A M,0,134784,134829,189.4852,373.4229,186.9704,344.8459 M,0,134829,134873,186.9704,344.8459,184.4557,316.2688 M,0,134873,134918,184.4557,316.2688,181.9409,287.6918
Sprite,Background,Centre,"sb\i stole this from wafer.png",273,413 C,0,135097,,205,155,255 F,2,135097,135497,1,0 S,2,135097,135497,0.3,0.06 P,0,135097,135497,A
Sprite,Background,Centre,"sb\i stole this from wafer.png",95,349 C,0,135276,,205,155,255 F,2,135276,135676,1,0 S,2,135276,135676,0.3,0.06 P,0,135276,135676,A
Sprite,Background,Centre,"sb\i stole this from wafer.png",0,0 C,0,135455,,205,155,255 M,0,135455,135499,345,331,360.9173,307.3369 F,2,135455,136033,1,0 S,2,135455,136033,0.3,0.06 P,0,135455,136033,A M,0,135499,135544,360.9173,307.3369,383.274,289.704 M,0,135544,135588,383.274,289.704,409.9115,279.6652 M,0,135588,135633,409.9115,279.6652,438.3741,278.6925
Sprite,Background,Centre,"sb\i stole this from wafer.png",0,0 C,0,135812,,205,155,255 M,0,135812,135856,527,412,498.5441,410.0995 F,2,135812,136390,1,0 S,2,135812,136390,0.3,0.06 P,0,135812,136390,A M,0,135856,135901,498.5441,410.0995,472.0739,399.6062 M,0,135901,135945,472.0739,399.6062,449.9985,381.6265 M,0,135945,135990,449.9985,381.6265,434.8628,357.4984
Sprite,Background,Centre,"sb\i stole this from wafer.png",0,0 C,0,136169,,205,155,255 M,0,136169,136213,514,221,526.6097,246.5707 F,2,136169,136747,1,0 S,2,136169,136747,0.3,0.06 P,0,136169,136747,A M,0,136213,136258,526.6097,246.5707,530.6036,274.7535 M,0,136258,136302,530.6036,274.7535,525.6826,302.7792 M,0,136302,136347,525.6826,302.7792,511.8756,327.6756
Sprite,Background,Centre,"sb\i stole this from wafer.png",361,199 C,0,136526,,173,91,255 F,2,136526,136926,1,0 S,2,136526,136926,0.3,0.06 P,0,136526,136926,A
Sprite,Background,Centre,"sb\i stole this from wafer.png",227,321 C,0,136705,,173,91,255 F,2,136705,137105,1,0 S,2,136705,137105,0.3,0.06 P,0,136705,137105,A
Sprite,Background,Centre,"sb\i stole this from wafer.png",268,123 C,0,136883,,151,151,255 F,2,136883,137283,1,0 S,2,136883,137283,0.3,0.06 P,0,136883,137283,A
Sprite,Background,Centre,"sb\i stole this from wafer.png",331,287 C,0,137062,,151,151,255 F,2,137062,137462,1,0 S,2,137062,137462,0.3,0.06 P,0,137062,137462,A
Sprite,Background,Centre,"sb\i stole this from wafer.png",0,0 C,0,137240,,206,206,255 M,0,137240,137284,102,172,130.4383,172.1092 F,2,137240,137907,1,0 S,2,137240,137907,0.3,0.06 P,0,137240,137907,A M,0,137284,137329,130.4383,172.1092,156.931,161.4062 M,0,137329,137373,156.931,161.4062,156.8158,176.0465 M,0,137373,137418,156.8158,176.0465,146.6913,202.888 M,0,137418,137463,146.6913,202.888,136.5669,229.7296 M,0,137463,137507,136.5669,229.7296,126.4425,256.5711
Sprite,Background,Centre,"sb\i stole this from wafer.png",0,0 C,0,137597,,206,206,255 M,0,137597,137641,144,392,154.8237,365.4327 F,2,137597,138175,1,0 S,2,137597,138175,0.3,0.06 P,0,137597,138175,A M,0,137641,137686,154.8237,365.4327,165.6474,338.8654 M,0,137686,137730,165.6474,338.8654,193.5934,335.0284 M,0,137730,137775,193.5934,335.0284,222.116,331.9567
Sprite,Background,Centre,"sb\i stole this from wafer.png",331,287 C,0,137955,,206,206,255 F,2,137955,138355,1,0 S,2,137955,138355,0.3,0.06 P,0,137955,138355,A
Sprite,Background,Centre,"sb\i stole this from wafer.png",426,326 C,0,138133,,206,206,255 F,2,138133,138533,1,0 S,2,138133,138533,0.3,0.06 P,0,138133,138533,A
Sprite,Background,Centre,"sb\i stole this from wafer.png",0,0 C,0,138312,,206,206,255 M,0,138312,138356,486,248,505.5689,268.7562 F,2,138312,138890,1,0 S,2,138312,138890,0.3,0.06 P,0,138312,138890,A M,0,138356,138401,505.5689,268.7562,518.0551,294.3587 M,0,138401,138445,518.0551,294.3587,522.3938,322.4988 M,0,138445,138490,522.3938,322.4988,517.7769,350.609
Sprite,Background,Centre,"sb\i stole this from wafer.png",0,0 C,0,138669,,205,155,255 M,0,138669,138713,354,147,376.9613,129.8826 F,2,138669,139336,1,0 S,2,138669,139336,0.3,0.06 P,0,138669,139336,A M,0,138713,138758,376.9613,129.8826,402.333,116.6012 M,0,138758,138802,402.333,116.6012,429.6279,107.9421 M,0,138802,138847,429.6279,107.9421,457.9507,103.7512 M,0,138847,138892,457.9507,103.7512,486.5731,104.5017 M,0,138892,138936,486.5731,104.5017,514.7173,109.7845
Sprite,Background,Centre,"sb\i stole this from wafer.png",0,0 C,0,139026,,205,155,255 M,0,139026,139070,370,226,341.6029,222.4264 F,2,139026,139604,1,0 S,2,139026,139604,0.3,0.06 P,0,139026,139604,A M,0,139070,139115,341.6029,222.4264,314.454,213.4217 M,0,139115,139159,314.454,213.4217,289.5247,199.3999 M,0,139159,139204,289.5247,199.3999,267.9759,180.5852
Sprite,Background,Centre,"sb\i stole this from wafer.png",288,81 C,0,139383,,173,91,255 F,2,139383,139783,1,0 S,2,139383,139783,0.3,0.06 P,0,139383,139783,A
Sprite,Background,Centre,"sb\i stole this from wafer.png",211,266 C,0,139562,,173,91,255 F,2,139562,139962,1,0 S,2,139562,139962,0.3,0.06 P,0,139562,139962,A
Sprite,Background,Centre,"sb\i stole this from wafer.png",296,100 C,0,139740,,151,151,255 F,2,139740,140140,1,0 S,2,139740,140140,0.3,0.06 P,0,139740,140140,A
Sprite,Background,Centre,"sb\i stole this from wafer.png",324,358 C,0,139919,,151,151,255 F,2,139919,140319,1,0 S,2,139919,140319,0.3,0.06 P,0,139919,140319,A
Sprite,Background,Centre,"sb\i stole this from wafer.png",0,0 C,0,140097,,206,206,255 M,0,140097,140141,119,241,136.2998,218.2143 F,2,140097,140764,1,0 S,2,140097,140764,0.3,0.06 P,0,140097,140764,A M,0,140141,140186,136.2998,218.2143,157.9808,199.5803 M,0,140186,140230,157.9808,199.5803,183.0598,185.8657 M,0,140230,140275,183.0598,185.8657,210.5464,177.9984 M,0,140275,140320,210.5464,177.9984,239.0632,175.9846 M,0,140320,140364,239.0632,175.9846,267.3245,180.326
Sprite,Background,Centre,"sb\i stole this from wafer.png",0,0 C,0,140455,,206,206,255 M,0,140455,140499,219,377,208.5547,350.3554 F,2,140455,141033,1,0 S,2,140455,141033,0.3,0.06 P,0,140455,141033,A M,0,140499,140544,208.5547,350.3554,203.6239,322.1839 M,0,140544,140588,203.6239,322.1839,204.2231,293.5833 M,0,140588,140633,204.2231,293.5833,210.7346,265.7065
Sprite,Background,Centre,"sb\i stole this from wafer.png",0,0 C,0,140812,,205,155,255 M,0,140812,140856,478,340,457.0781,359.4619 F,2,140812,141479,1,0 S,2,140812,141479,0.3,0.06 P,0,140812,141479,A M,0,140856,140901,457.0781,359.4619,432.0891,373.3329 M,0,140901,140945,432.0891,373.3329,404.2998,379.9706 M,0,140945,140990,404.2998,379.9706,375.726,379.7161 M,0,140990,141035,375.726,379.7161,348.2733,371.812 M,0,141035,141079,348.2733,371.812,323.5205,357.5311
Sprite,Background,Centre,"sb\i stole this from wafer.png",0,0 C,0,141169,,205,155,255 M,0,141169,141213,462,213,453.1154,240.1881 F,2,141169,141747,1,0 S,2,141169,141747,0.3,0.06 P,0,141169,141747,A M,0,141213,141258,453.1154,240.1881,438.5193,264.76 M,0,141258,141302,438.5193,264.76,418.9781,285.6137 M,0,141302,141347,418.9781,285.6137,395.165,301.4251
Sprite,Background,Centre,"sb\i stole this from wafer.png",364,201 C,0,141526,,173,91,255 F,2,141526,141926,1,0 S,2,141526,141926,0.3,0.06 P,0,141526,141926,A
Sprite,Background,Centre,"sb\i stole this from wafer.png",531,279 C,0,141705,,173,91,255 F,2,141705,142105,1,0 S,2,141705,142105,0.3,0.06 P,0,141705,142105,A
Sprite,Background,Centre,"sb\i stole this from wafer.png",262,218 C,0,141883,,173,91,255 F,2,141883,142283,1,0 S,2,141883,142283,0.3,0.06 P,0,141883,142283,A
Sprite,Background,Centre,"sb\i stole this from wafer.png",429,140 C,0,142062,,173,91,255 F,2,142062,142462,1,0 S,2,142062,142462,0.3,0.06 P,0,142062,142462,A
Sprite,Background,Centre,"sb\i stole this from wafer.png",0,0 C,0,142240,,151,151,255 M,0,142240,142284,362,409,376.617,384.3664 F,2,142240,142818,1,0 S,2,142240,142818,0.3,0.06 P,0,142240,142818,A M,0,142284,142329,376.617,384.3664,387.143,357.7396 M,0,142329,142373,387.143,357.7396,393.4294,329.804 M,0,142373,142418,393.4294,329.804,395.061,301.202
Sprite,Background,Centre,"sb\i stole this from wafer.png",0,0 C,0,142597,,151,151,255 M,0,142597,142641,161,229,175.0597,253.957 F,2,142597,143175,1,0 S,2,142597,143175,0.3,0.06 P,0,142597,143175,A M,0,142641,142686,175.0597,253.957,192.8382,276.4022 M,0,142686,142730,192.8382,276.4022,213.8432,295.8622 M,0,142730,142775,213.8432,295.8622,237.7105,311.7089
Sprite,Background,Centre,"sb\i stole this from wafer.png",0,0 C,0,142955,,206,206,255 M,0,142955,142999,332,89,342.8044,115.4109 F,2,142955,144069,1,0 S,2,142955,144069,0.3,0.06 P,0,142955,144069,A M,0,142999,143044,342.8044,115.4109,344.3318,143.9353 M,0,143044,143088,344.3318,143.9353,336.9728,171.5432 M,0,143088,143133,336.9728,171.5432,322.5725,196.3029 M,0,143133,143178,322.5725,196.3029,308.067,220.9925 M,0,143178,143222,308.067,220.9925,302.0802,248.8782 M,0,143222,143267,302.0802,248.8782,305.4741,277.264 M,0,143267,143312,305.4741,277.264,316.2184,303.7788 M,0,143312,143356,316.2184,303.7788,305.4741,277.264 M,0,143356,143401,305.4741,277.264,302.0802,248.8782 M,0,143401,143446,302.0802,248.8782,308.067,220.9925 M,0,143446,143490,308.067,220.9925,322.5725,196.3029 M,0,143490,143535,322.5725,196.3029,336.9728,171.5432 M,0,143535,143580,336.9728,171.5432,344.3318,143.9353 M,0,143580,143624,344.3318,143.9353,342.8044,115.4109 M,0,143624,143669,342.8044,115.4109,332,89
Sprite,Background,Centre,"sb\i stole this from wafer.png",212,158 C,0,143847,,206,206,255 F,2,143847,144247,1,0 S,2,143847,144247,0.3,0.06 P,0,143847,144247,A
Sprite,Background,Centre,"sb\i stole this from wafer.png",0,0 C,0,144026,,206,206,255 M,0,144026,144070,387,258,412.9258,245.8626 F,2,144026,144604,1,0 S,2,144026,144604,0.3,0.06 P,0,144026,144604,A M,0,144070,144115,412.9258,245.8626,436.1104,229.1002 M,0,144115,144159,436.1104,229.1002,455.8398,208.3788 M,0,144159,144204,455.8398,208.3788,471.0822,184.1613
Sprite,Background,Centre,"sb\i stole this from wafer.png",204,252 C,0,144383,,205,155,255 F,2,144383,144783,1,0 S,2,144383,144783,0.3,0.06 P,0,144383,144783,A
Sprite,Background,Centre,"sb\i stole this from wafer.png",265,408 C,0,144562,,205,155,255 F,2,144562,144962,1,0 S,2,144562,144962,0.3,0.06 P,0,144562,144962,A
Sprite,Background,Centre,"sb\i stole this from wafer.png",346,139 C,0,144740,,173,91,255 F,2,144740,145140,1,0 S,2,144740,145140,0.3,0.06 P,0,144740,145140,A
Sprite,Background,Centre,"sb\i stole this from wafer.png",316,303 C,0,144919,,173,91,255 F,2,144919,145319,1,0 S,2,144919,145319,0.3,0.06 P,0,144919,145319,A
Sprite,Background,Centre,"sb\i stole this from wafer.png",0,0 C,0,145097,,151,151,255 M,0,145097,145141,515,260,492.8415,241.8865 F,2,145097,145675,1,0 S,2,145097,145675,0.3,0.06 P,0,145097,145675,A M,0,145141,145186,492.8415,241.8865,467.6923,228.2236 M,0,145186,145230,467.6923,228.2236,440.2577,220.0857 M,0,145230,145275,440.2577,220.0857,411.7843,217.2465
Sprite,Background,Centre,"sb\i stole this from wafer.png",0,0 C,0,145455,,151,151,255 M,0,145455,145499,265,408,293.3804,404.213 F,2,145455,146033,1,0 S,2,145455,146033,0.3,0.06 P,0,145455,146033,A M,0,145499,145544,293.3804,404.213,320.7151,395.6825 M,0,145544,145588,320.7151,395.6825,345.9337,382.1284 M,0,145588,145633,345.9337,382.1284,368,365
Sprite,Background,Centre,"sb\i stole this from wafer.png",0,0 C,0,145812,,206,206,255 M,0,145812,145856,170,168,141.6615,165.9164 F,2,145812,146479,1,0 S,2,145812,146479,0.3,0.06 P,0,145812,146479,A M,0,145856,145901,141.6615,165.9164,117.2935,151.189 M,0,145901,145945,117.2935,151.189,122.1313,167.7693 M,0,145945,145990,122.1313,167.7693,133.6773,194.0307 M,0,145990,146035,133.6773,194.0307,145.2233,220.2921 M,0,146035,146079,145.2233,220.2921,156.7693,246.5536
Sprite,Background,Centre,"sb\i stole this from wafer.png",0,0 C,0,146169,,206,206,255 M,0,146169,146213,157,330,185.624,328.0917 F,2,146169,146747,1,0 S,2,146169,146747,0.3,0.06 P,0,146169,146747,A M,0,146213,146258,185.624,328.0917,214.2479,326.1835 M,0,146258,146302,214.2479,326.1835,227.4948,302.2895 M,0,146302,146347,227.4948,302.2895,239.106,276.0568
Sprite,Background,Centre,"sb\i stole this from wafer.png",0,0 C,0,146526,,206,206,255 M,0,146526,146570,380,214,355.4476,199.2275 F,2,146526,147104,1,0 S,2,146526,147104,0.3,0.06 P,0,146526,147104,A M,0,146570,146615,355.4476,199.2275,329.0713,188.0565 M,0,146615,146659,329.0713,188.0565,301.4214,180.5497 M,0,146659,146704,301.4214,180.5497,272.9575,177.2121
Sprite,Background,Centre,"sb\i stole this from wafer.png",414,334 C,0,146883,,205,155,255 F,2,146883,147283,1,0 S,2,146883,147283,0.3,0.06 P,0,146883,147283,A
Sprite,Background,Centre,"sb\i stole this from wafer.png",544,295 C,0,147062,,205,155,255 F,2,147062,147462,1,0 S,2,147062,147462,0.3,0.06 P,0,147062,147462,A
Sprite,Background,Centre,"sb\i stole this from wafer.png",428,417 C,0,147240,,173,91,255 F,2,147240,147640,1,0 S,2,147240,147640,0.3,0.06 P,0,147240,147640,A
Sprite,Background,Centre,"sb\i stole this from wafer.png",298,378 C,0,147419,,173,91,255 F,2,147419,147819,1,0 S,2,147419,147819,0.3,0.06 P,0,147419,147819,A
Sprite,Background,Centre,"sb\i stole this from wafer.png",0,0 C,0,147597,,151,151,255 M,0,147597,147641,380,214,402.4743,196.2336 F,2,147597,148175,1,0 S,2,147597,148175,0.3,0.06 P,0,147597,148175,A M,0,147641,147686,402.4743,196.2336,427.344,182.0341 M,0,147686,147730,427.344,182.0341,454.0228,171.6194 M,0,147730,147775,454.0228,171.6194,482.0015,165.4416
Sprite,Background,Centre,"sb\i stole this from wafer.png",0,0 C,0,147955,,151,151,255 M,0,147955,147999,340,303,317.5257,285.2336 F,2,147955,148533,1,0 S,2,147955,148533,0.3,0.06 P,0,147955,148533,A M,0,147999,148044,317.5257,285.2336,292.656,271.0341 M,0,148044,148088,292.656,271.0341,265.9772,260.6194 M,0,148088,148133,265.9772,260.6194,237.9986,254.4416
Sprite,Background,Centre,"sb\i stole this from wafer.png",301,166 C,0,148312,,151,151,255 F,2,148312,148712,1,0 S,2,148312,148712,0.3,0.06 P,0,148312,148712,A
Sprite,Background,Centre,"sb\i stole this from wafer.png",445,291 C,0,148490,,151,151,255 F,2,148490,148890,1,0 S,2,148490,148890,0.3,0.06 P,0,148490,148890,A
Sprite,Background,Centre,"sb\i stole this from wafer.png",0,0 C,0,148669,,206,206,255 M,0,148669,148713,231,332,204.6898,342.9495 F,2,148669,149336,1,0 S,2,148669,149336,0.3,0.06 P,0,148669,149336,A M,0,148713,148758,204.6898,342.9495,187.7763,365.5226 M,0,148758,148802,187.7763,365.5226,177.2744,343.7894 M,0,148802,148847,177.2744,343.7894,166.5809,317.1694 M,0,148847,148892,166.5809,317.1694,155.8874,290.5495 M,0,148892,148936,155.8874,290.5495,145.1939,263.9295
Sprite,Background,Centre,"sb\i stole this from wafer.png",0,0 C,0,149026,,206,206,255 M,0,149026,149070,79,214,98.48349,193.1421 F,2,149026,149604,1,0 S,2,149026,149604,0.3,0.06 P,0,149026,149604,A M,0,149070,149115,98.48349,193.1421,108.6226,166.5162 M,0,149115,149159,108.6226,166.5162,129.3548,180.1494 M,0,149159,149204,129.3548,180.1494,156.9711,186.9989
Sprite,Background,Centre,"sb\i stole this from wafer.png",0,0 C,0,149383,,206,206,255 M,0,149383,149427,412,233,391.7997,253.1436 F,2,149383,149961,1,0 S,2,149383,149961,0.3,0.06 P,0,149383,149961,A M,0,149427,149472,391.7997,253.1436,381.3569,279.6236 M,0,149472,149516,381.3569,279.6236,360.5191,265.787 M,0,149516,149561,360.5191,265.787,332.8877,258.9951
Sprite,Background,Centre,"sb\i stole this from wafer.png",0,0 C,0,149740,,205,155,255 M,0,149740,149784,406,154,434.3432,153.113 F,2,149740,150318,1,0 S,2,149740,150318,0.3,0.06 P,0,149740,150318,A M,0,149784,149829,434.3432,153.113,460.3236,164.2533 M,0,149829,149873,460.3236,164.2533,479.3035,185.1967 M,0,149873,149918,479.3035,185.1967,487.0337,212.4061
Sprite,Background,Centre,"sb\i stole this from wafer.png",0,0 C,0,150097,,205,155,255 M,0,150097,150141,402,332,386.7056,308.1239 F,2,150097,150675,1,0 S,2,150097,150675,0.3,0.06 P,0,150097,150675,A M,0,150141,150186,386.7056,308.1239,383.0208,280.1011 M,0,150186,150230,383.0208,280.1011,391.3675,253.093 M,0,150230,150275,391.3675,253.093,410.9195,232.649
Sprite,Background,Centre,"sb\i stole this from wafer.png",0,0 C,0,150455,,205,155,255 M,0,150455,150499,563,248,549.3505,272.8578 F,2,150455,151033,1,0 S,2,150455,151033,0.3,0.06 P,0,150455,151033,A M,0,150499,150544,549.3505,272.8578,526.5642,289.5906 M,0,150544,150588,526.5642,289.5906,498.89,295.3434 M,0,150588,150633,498.89,295.3434,471.5044,288.2564
Sprite,Background,Centre,"sb\i stole this from wafer.png",548,159 C,0,150812,,173,91,255 F,2,150812,151212,1,0 S,2,150812,151212,0.3,0.06 P,0,150812,151212,A
Sprite,Background,Centre,"sb\i stole this from wafer.png",480,382 C,0,150990,,173,91,255 F,2,150990,151390,1,0 S,2,150990,151390,0.3,0.06 P,0,150990,151390,A
Sprite,Background,Centre,"sb\i stole this from wafer.png",324,199 C,0,151169,,151,151,255 F,2,151169,151569,1,0 S,2,151169,151569,0.3,0.06 P,0,151169,151569,A
Sprite,Background,Centre,"sb\i stole this from wafer.png",484,405 C,0,151347,,151,151,255 F,2,151347,151747,1,0 S,2,151347,151747,0.3,0.06 P,0,151347,151747,A
Sprite,Background,Centre,"sb\i stole this from wafer.png",454,258 C,0,151526,,206,206,255 F,2,151526,151926,1,0 S,2,151526,151926,0.3,0.06 P,0,151526,151926,A
Sprite,Background,Centre,"SB\pixel.png",320,240 C,0,11526,,255,255,255 V,0,11526,,854,480 F,0,11526,13669,0.5,0 F,0,34383,36526,0.5,0 F,0,45812,47954,0.5,0 F,0,57240,58669,0.2,0 F,0,71526,73669,0.5,0 F,0,91526,93669,0.5,0 F,0,102955,105097,0.8,0 F,0,114383,115097,0.2,0 F,0,125812,127954,0.5,0 F,0,128669,130812,0.5,0 F,0,140098,140812,0.2,0 F,0,151526,153669,0.2,0
//Storyboard Layer 1 (Fail)
//Storyboard Layer 2 (Pass)
//Storyboard Layer 3 (Foreground)
//Storyboard Layer 4 (Overlay)
//Storyboard Sound Samples

[TimingPoints]
98,357.142857142857,4,2,1,60,1,0
98,-100,4,2,1,10,0,0
11526,-100,4,2,1,60,0,0
14651,-100,4,2,1,5,0,0
14740,-100,4,2,1,60,0,0
18222,-100,4,2,1,5,0,0
18311,-100,4,2,1,60,0,0
23222,-100,4,2,1,5,0,0
23311,-100,4,2,1,60,0,0
24651,-100,4,2,1,5,0,0
24740,-100,4,2,1,60,0,0
26080,-100,4,2,1,5,0,0
26169,-100,4,2,1,60,0,0
27508,-100,4,2,1,5,0,0
27597,-100,4,2,1,60,0,0
28937,-100,4,2,1,5,0,0
29026,-100,4,2,1,60,0,0
30365,-100,4,2,1,5,0,0
30454,-100,4,2,1,60,0,0
31794,-100,4,2,1,5,0,0
31883,-100,4,2,1,60,0,0
34740,-100,4,2,1,50,0,0
44383,-100,4,2,1,60,0,0
45812,-83.3333333333333,4,2,1,80,0,0
46080,-83.3333333333333,4,2,1,5,0,0
46169,-83.3333333333333,4,2,1,80,0,0
48937,-83.3333333333333,4,2,1,5,0,0
49026,-83.3333333333333,4,2,1,80,0,0
50365,-83.3333333333333,4,2,1,5,0,0
50454,-83.3333333333333,4,2,1,80,0,0
51794,-83.3333333333333,4,2,1,5,0,0
51883,-83.3333333333333,4,2,1,80,0,0
54651,-83.3333333333333,4,2,1,5,0,0
54740,-83.3333333333333,4,2,1,80,0,0
57508,-83.3333333333333,4,2,1,5,0,0
57597,-83.3333333333333,4,2,1,80,0,0
61437,-83.3333333333333,4,2,1,5,0,0
61526,-83.3333333333333,4,2,1,80,0,0
64294,-83.3333333333333,4,2,1,5,0,0
64383,-83.3333333333333,4,2,1,80,0,0
66080,-83.3333333333333,4,2,1,5,0,0
66169,-83.3333333333333,4,2,1,80,0,0
67151,-83.3333333333333,4,2,1,5,0,0
67240,-83.3333333333333,4,2,1,80,0,0
68669,-100,4,2,2,50,0,0
71526,-100,4,2,2,65,0,0
74651,-100,4,2,2,5,0,0
74740,-100,4,2,2,65,0,0
76080,-100,4,2,2,5,0,0
76169,-100,4,2,2,65,0,0
77508,-100,4,2,2,5,0,0
77597,-100,4,2,2,65,0,0
78937,-100,4,2,2,5,0,0
79026,-100,4,2,2,65,0,0
80365,-100,4,2,2,5,0,0
80454,-100,4,2,2,65,0,0
83222,-100,4,2,2,5,0,0
83311,-100,4,2,2,65,0,0
86080,-100,4,2,2,5,0,0
86169,-100,4,2,2,65,0,0
88937,-100,4,2,2,5,0,0
89026,-100,4,2,2,65,0,0
102955,-80,4,2,1,80,0,0
103222,-80,4,2,1,5,0,0
103312,-80,4,2,1,80,0,0
106080,-80,4,2,1,5,0,0
106170,-80,4,2,1,80,0,0
107508,-80,4,2,1,5,0,0
107598,-80,4,2,1,80,0,0
108937,-80,4,2,1,5,0,0
109027,-80,4,2,1,80,0,0
110008,-80,4,2,1,5,0,0
110098,-80,4,2,1,80,0,0
111794,-80,4,2,1,5,0,0
111884,-80,4,2,1,80,0,0
112865,-80,4,2,1,5,0,0
112955,-80,4,2,1,80,0,0
114651,-80,4,2,1,5,0,0
114741,-80,4,2,1,80,0,0
117508,-80,4,2,1,5,0,0
117598,-80,4,2,1,80,0,0
118580,-80,4,2,1,5,0,0
118670,-80,4,2,1,80,0,0
123222,-80,4,2,1,5,0,0
123312,-80,4,2,1,80,0,0
124294,-80,4,2,1,5,0,0
124384,-80,4,2,1,80,0,0
128669,-74.0740740740741,4,2,2,80,0,0
128937,-74.0740740740741,4,2,2,5,0,0
129026,-74.0740740740741,4,2,2,80,0,0
129651,-74.0740740740741,4,2,2,5,0,0
129740,-74.0740740740741,4,2,2,80,0,0
132865,-74.0740740740741,4,2,2,5,0,0
132954,-74.0740740740741,4,2,2,80,0,0
134651,-74.0740740740741,4,2,2,5,0,0
134740,-74.0740740740741,4,2,2,80,0,0
137508,-74.0740740740741,4,2,2,5,0,0
137597,-74.0740740740741,4,2,2,80,0,0
138937,-74.0740740740741,4,2,2,5,0,0
139026,-74.0740740740741,4,2,2,80,0,0
140365,-74.0740740740741,4,2,2,5,0,0
140454,-74.0740740740741,4,2,2,80,0,0
141080,-74.0740740740741,4,2,2,5,0,0
141169,-74.0740740740741,4,2,2,80,0,0
146080,-74.0740740740741,4,2,2,5,0,0
146169,-74.0740740740741,4,2,2,80,0,0
148937,-74.0740740740741,4,2,2,5,0,0
149026,-74.0740740740741,4,2,2,80,0,0
151526,-74.0740740740741,4,2,1,80,0,0

[Colours]
Combo1 : 205,155,255
Combo2 : 173,91,255
Combo3 : 151,151,255
Combo4 : 206,206,255

[HitObjects]
256,192,98,12,0,10097,0:0:0:0:
162,58,11526,6,0,P|208:36|248:33,1,85,2|0,0:0|0:0,0:0:0:0:
337,147,11883,2,0,P|295:141|257:121,1,85,10|0,0:0|0:0,0:0:0:0:
397,66,12240,6,0,P|422:113|422:156,1,85,2|0,0:0|0:0,0:0:0:0:
310,224,12597,2,0,P|314:182|336:146,1,85,10|0,0:0|0:0,0:0:0:0:
395,255,12955,5,2,0:0:0:0:
224,215,13133,1,2,0:0:0:0:
404,279,13312,1,10,0:0:0:0:
217,340,13490,1,0,0:0:0:0:
59,256,13669,2,0,B|81:270|88:298|88:298|102:176,1,170,2|8,0:0|0:0,0:0:0:0:
394,57,14383,6,0,P|347:39|270:78,1,127.5,2|0,0:0|0:0,0:0:0:0:
316,191,14740,2,0,P|339:147|337:105,1,85,10|0,0:0|0:0,0:0:0:0:
220,126,15097,5,2,0:0:0:0:
244,233,15276,1,2,0:0:0:0:
119,141,15455,2,0,L|149:48,1,85,10|0,0:0|0:0,0:0:0:0:
43,95,15812,5,2,0:0:0:0:
43,95,15990,1,0,0:0:0:0:
47,200,16169,2,0,P|89:225|133:227,1,85,10|0,0:0|0:0,0:0:0:0:
244,233,16526,2,0,B|218:231|198:203|198:203|237:329,1,170,2|8,0:0|0:0,0:0:0:0:
361,340,17240,6,0,P|409:322|451:316,1,85,2|0,0:0|0:0,0:0:0:0:
325,256,17597,2,0,P|285:240|243:232,1,85,10|0,0:0|0:0,0:0:0:0:
422,241,17955,6,0,L|452:101,1,127.5,2|0,0:0|0:0,0:0:0:0:
355,31,18312,2,0,L|373:121,1,85,10|0,0:0|0:0,0:0:0:0:
292,121,18669,6,0,B|253:91|200:118|224:135|183:169|127:128,1,170,2|10,0:0|0:0,0:0:0:0:
68,64,19205,1,2,0:0:0:0:
64,180,19383,2,0,B|36:180|18:152|18:152|58:283,1,170,2|8,0:0|0:0,0:0:0:0:
186,287,20097,6,0,P|233:270|278:264,1,85,2|0,0:0|0:0,0:0:0:0:
392,358,20455,2,0,P|350:350|310:335,1,85,10|0,0:0|0:0,0:0:0:0:
363,157,20812,6,0,L|341:253,1,85,2|0,0:0|0:0,0:0:0:0:
195,91,21169,2,0,L|217:187,1,85,10|0,0:0|0:0,0:0:0:0:
281,49,21526,5,2,0:0:0:0:
139,32,21705,1,0,0:0:0:0:
213,173,21883,1,10,0:0:0:0:
363,157,22062,1,2,0:0:0:0:
103,144,22240,2,0,B|81:147|60:130|60:130|94:225,1,127.5,2|0,0:0|0:0,0:0:0:0:
105,237,22597,5,8,0:0:0:0:
139,32,22776,1,8,0:0:0:0:
236,111,22955,6,0,P|294:104|363:132,1,127.5,2|0,0:0|0:0,0:0:0:0:
363,157,23312,2,0,P|324:138|270:133,1,85,10|0,0:0|0:0,0:0:0:0:
303,240,23669,1,0,0:0:0:0:
420,288,23847,2,0,P|373:296|339:323,1,85,2|8,0:0|0:0,0:0:0:0:
287,375,24205,1,2,0:0:0:0:
182,311,24383,6,0,P|138:273|108:182,1,127.5,2|0,0:0|0:0,0:0:0:0:
128,180,24740,2,0,P|144:229|165:259,1,85,10|0,0:0|0:0,0:0:0:0:
100,345,25097,1,0,0:0:0:0:
20,187,25276,2,0,P|45:147|81:115,1,85,2|8,0:0|0:0,0:0:0:0:
229,85,25633,1,2,0:0:0:0:
257,98,25722,1,0,0:0:0:0:
280,86,25812,6,0,B|345:73|345:73|387:130,1,127.5,2|0,0:0|0:0,0:0:0:0:
355,148,26169,2,0,B|330:111|330:111|289:118,1,85,10|0,0:0|0:0,0:0:0:0:
317,224,26526,1,0,0:0:0:0:
389,268,26705,2,0,L|483:255,1,85,2|8,0:0|0:0,0:0:0:0:
338,342,27062,1,2,0:0:0:0:
254,282,27240,6,0,B|199:242|199:242|132:267,1,127.5,2|0,0:0|0:0,0:0:0:0:
150,301,27597,2,0,B|193:287|193:287|228:309,1,85,10|0,0:0|0:0,0:0:0:0:
182,365,27955,1,0,0:0:0:0:
143,179,28133,1,2,0:0:0:0:
185,375,28312,1,8,0:0:0:0:
246,184,28490,1,2,0:0:0:0:
257,161,28580,1,0,0:0:0:0:
248,137,28669,6,0,P|311:129|382:159,1,127.5,2|0,0:0|0:0,0:0:0:0:
373,189,29026,2,0,P|331:168|284:173,1,85,10|0,0:0|0:0,0:0:0:0:
192,250,29383,1,0,0:0:0:0:
175,97,29562,2,0,P|214:68|262:56,1,85,2|8,0:0|0:0,0:0:0:0:
391,18,29919,1,2,0:0:0:0:
411,123,30097,6,0,B|390:163|390:163|415:256,1,127.5,2|0,0:0|0:0,0:0:0:0:
396,270,30455,2,0,L|372:185,1,85,10|0,0:0|0:0,0:0:0:0:
315,114,30812,1,0,0:0:0:0:
286,221,30990,2,0,P|240:224|187:208,1,85,2|8,0:0|0:0,0:0:0:0:
66,229,31347,1,2,0:0:0:0:
63,245,31437,1,0,0:0:0:0:
62,264,31526,6,0,B|116:277|116:277|127:295|127:295|188:311,1,127.5,2|0,0:0|0:0,0:0:0:0:
154,323,31883,2,0,B|116:313|116:313|107:299|107:299|66:289,1,85,10|0,0:0|0:0,0:0:0:0:
0,351,32240,1,0,0:0:0:0:
10,180,32419,2,0,P|58:160|100:160,1,85,2|10,0:0|0:0,0:0:0:0:
162,213,32776,1,2,0:0:0:0:
298,129,32955,6,0,L|374:67,1,85,10|0,0:0|0:0,0:0:0:0:
241,243,33312,2,0,L|149:208,1,85,10|0,0:0|0:0,0:0:0:0:
363,242,33669,2,0,L|378:338,1,85,10|2,0:0|0:0,0:0:0:0:
430,125,34026,1,10,0:0:0:0:
299,201,34205,1,2,0:0:0:0:
376,325,34383,1,4,0:0:0:0:
256,192,42955,12,2,44383,0:0:0:0:
199,289,45276,5,10,0:0:0:0:
211,81,45455,1,10,0:0:0:0:
266,221,45634,1,10,0:0:0:0:
54,204,45812,6,0,P|122:173|205:208,1,152.999995330811,6|0,0:0|0:0,0:0:0:0:
150,352,46169,2,0,P|125:304|128:252,1,101.999996887207,8|0,0:0|0:0,0:0:0:0:
266,221,46526,1,2,0:0:0:0:
45,318,46705,1,0,0:0:0:0:
254,322,46883,2,0,P|307:312|354:282,1,101.999996887207,8|0,0:0|0:0,0:0:0:0:
348,145,47240,5,2,0:0:0:0:
220,100,47419,1,0,0:0:0:0:
343,36,47597,2,0,L|447:13,1,101.999996887207,10|0,0:0|0:0,0:0:0:0:
418,219,47955,1,2,0:0:0:0:
491,138,48133,1,0,0:0:0:0:
348,145,48312,2,0,P|321:186|333:243,1,101.999996887207,10|2,0:0|0:0,0:0:0:0:
405,337,48669,6,0,B|369:315|325:333|348:351|304:381|250:342,1,152.999995330811,2|0,0:0|0:0,0:0:0:0:
161,285,49026,2,0,P|212:254|262:255,1,101.999996887207,8|0,0:0|0:0,0:0:0:0:
127,357,49383,1,0,0:0:0:0:
38,248,49562,1,0,0:0:0:0:
97,113,49740,2,0,P|139:157|149:208,1,101.999996887207,10|0,0:0|0:0,0:0:0:0:
239,58,50097,6,0,B|263:55|282:25|282:25|257:135,1,152.999995330811,2|0,0:0|0:0,0:0:0:0:
396,142,50455,2,0,P|354:186|344:237,1,101.999996887207,10|0,0:0|0:0,0:0:0:0:
413,308,50812,1,2,0:0:0:0:
481,227,50990,1,0,0:0:0:0:
255,283,51169,1,10,0:0:0:0:
323,364,51347,1,2,0:0:0:0:
344,224,51526,6,0,P|293:196|189:211,1,152.999995330811,2|0,0:0|0:0,0:0:0:0:
180,350,51883,2,0,P|226:318|258:277,1,101.999996887207,8|0,0:0|0:0,0:0:0:0:
104,172,52240,1,0,0:0:0:0:
105,275,52419,1,0,0:0:0:0:
181,113,52597,6,0,P|131:84|81:78,1,101.999996887207,10|0,0:0|0:0,0:0:0:0:
229,197,52955,2,0,P|278:188|322:161,1,101.999996887207,2|0,0:0|0:0,0:0:0:0:
309,15,53312,2,0,P|272:64|266:112,1,101.999996887207,10|0,0:0|0:0,0:0:0:0:
426,184,53669,2,0,P|414:134|382:96,1,101.999996887207,2|0,0:0|0:0,0:0:0:0:
355,262,54026,1,10,0:0:0:0:
441,312,54205,1,2,0:0:0:0:
301,336,54383,6,0,P|248:304|170:336,1,152.999995330811
156,368,54740,2,0,P|175:312|165:259,1,101.999996887207,8|0,0:0|0:0,0:0:0:0:
258,213,55097,1,0,0:0:0:0:
156,161,55276,1,0,0:0:0:0:
71,257,55455,6,0,L|41:146,1,101.999996887207,10|0,0:0|0:0,0:0:0:0:
258,213,55812,2,0,L|288:102,1,101.999996887207,2|0,0:0|0:0,0:0:0:0:
215,64,56169,2,0,P|272:37|316:37,1,101.999996887207,10|0,0:0|0:0,0:0:0:0:
470,156,56526,2,0,P|419:152|374:128,1,101.999996887207,2|0,0:0|0:0,0:0:0:0:
473,63,56883,5,10,0:0:0:0:
399,290,57062,1,2,0:0:0:0:
284,114,57240,6,0,P|248:189|272:288,1,152.999995330811,6|0,0:0|0:0,0:0:0:0:
280,289,57597,2,0,L|180:310,1,101.999996887207,8|0,0:0|0:0,0:0:0:0:
113,380,57955,5,2,0:0:0:0:
156,217,58133,1,0,0:0:0:0:
25,316,58312,2,0,L|38:194,1,101.999996887207,8|0,0:0|0:0,0:0:0:0:
46,128,58669,6,0,P|102:141|147:115,1,101.999996887207,2|0,0:0|0:0,0:0:0:0:
324,34,59026,2,0,P|276:20|227:31,1,101.999996887207,10|0,0:0|0:0,0:0:0:0:
274,117,59383,1,2,0:0:0:0:
129,26,59562,1,0,0:0:0:0:
156,217,59740,2,0,L|258:229,1,101.999996887207,10|2,0:0|0:0,0:0:0:0:
371,117,60097,6,0,P|359:166|369:215,1,101.999996887207,2|0,0:0|0:0,0:0:0:0:
473,378,60455,2,0,P|485:328|474:279,1,101.999996887207,8|0,0:0|0:0,0:0:0:0:
387,324,60812,1,0,0:0:0:0:
462,184,60990,1,0,0:0:0:0:
257,228,61169,6,0,L|93:186,1,152.999995330811,10|0,0:0|0:0,0:0:0:0:
69,177,61526,2,0,P|60:127|85:85,1,101.999996887207,2|0,0:0|0:0,0:0:0:0:
227,19,61883,2,0,P|235:68|210:110,1,101.999996887207,10|0,0:0|0:0,0:0:0:0:
132,0,62240,5,2,0:0:0:0:
163,198,62419,1,0,0:0:0:0:
85,85,62597,1,10,0:0:0:0:
292,152,62776,1,2,0:0:0:0:
105,247,62955,6,0,L|210:259,1,101.999996887207,2|0,0:0|0:0,0:0:0:0:
415,293,63312,2,0,L|315:308,1,101.999996887207,8|0,0:0|0:0,0:0:0:0:
221,370,63669,1,0,0:0:0:0:
292,152,63847,1,0,0:0:0:0:
466,371,64026,6,0,P|502:291|457:203,1,152.999995330811,10|0,0:0|0:0,0:0:0:0:
450,208,64383,2,0,L|464:100,1,101.999996887207,2|0,0:0|0:0,0:0:0:0:
279,50,64740,2,0,L|291:151,1,101.999996887207,10|0,0:0|0:0,0:0:0:0:
309,264,65097,1,2,0:0:0:0:
385,46,65276,1,0,0:0:0:0:
222,220,65455,2,0,L|95:229,1,101.999996887207,10|2,0:0|0:0,0:0:0:0:
156,35,65812,6,0,P|87:73|28:-8,1,152.999995330811,2|0,0:0|0:0,0:0:0:0:
2,6,66169,2,0,L|26:127,1,101.999996887207,8|0,0:0|0:0,0:0:0:0:
57,234,66526,1,0,0:0:0:0:
164,312,66705,1,0,0:0:0:0:
306,150,66883,6,0,P|235:118|142:174,1,152.999995330811,10|0,0:0|0:0,0:0:0:0:
157,181,67240,2,0,L|141:52,1,101.999996887207,2|0,0:0|0:0,0:0:0:0:
322,248,67597,2,0,L|300:356,1,101.999996887207,10|0,0:0|0:0,0:0:0:0:
63,154,67955,2,0,L|51:47,1,101.999996887207,2|0,0:0|0:0,0:0:0:0:
224,31,68312,1,10,0:0:0:0:
93,238,68490,1,2,0:0:0:0:
133,0,68669,5,2,0:0:0:0:
440,184,69205,5,2,0:0:0:0:
440,184,69383,2,0,B|331:158|331:158|278:183,1,170,2|0,0:0|0:0,0:0:0:0:
342,260,69919,1,2,0:0:0:0:
164,176,70097,2,0,P|199:266|178:351,1,170,2|0,0:0|0:0,0:0:0:0:
93,332,70633,5,2,0:0:0:0:
93,332,70990,1,0,3:0:0:0:
22,225,71169,1,8,0:0:0:0:
59,103,71347,1,2,0:0:0:0:
164,176,71526,6,0,B|213:149|255:173|255:173|296:194|344:161,1,170,2|8,0:0|0:0,0:0:0:0:
291,83,72062,1,2,0:0:0:0:
212,260,72240,2,0,L|31:298,1,170,2|8,0:0|0:0,0:0:0:0:
152,372,72776,1,2,0:0:0:0:
372,333,72955,6,0,B|355:259|355:259|342:240|342:240|320:145,1,170,2|8,0:0|0:0,0:0:0:0:
433,201,73490,1,2,0:0:0:0:
219,207,73669,2,0,B|171:212|139:175|139:175|93:168|46:218,1,170,2|8,0:0|0:0,0:0:0:0:
212,111,74205,1,0,0:0:0:0:
185,320,74383,6,0,P|244:289|311:330,1,127.5,2|0,0:0|0:0,0:0:0:0:
314,322,74740,2,0,P|314:276|332:238,1,85,10|0,0:0|0:0,0:0:0:0:
404,181,75097,1,0,0:0:0:0:
409,299,75276,2,0,L|392:403,1,85,2|8,0:0|0:0,0:0:0:0:
485,237,75633,1,2,0:0:0:0:
313,144,75812,6,0,P|252:116|173:157,1,127.5,2|0,0:0|0:0,0:0:0:0:
188,152,76169,2,0,P|141:165|95:147,1,85,10|0,0:0|0:0,0:0:0:0:
149,67,76526,1,0,0:0:0:0:
35,311,76705,6,0,L|44:227,1,85,2|8,0:0|0:0,0:0:0:0:
12,135,77062,1,2,0:0:0:0:
139,248,77240,2,0,P|200:260|255:231,1,127.5,2|0,0:0|0:0,0:0:0:0:
271,217,77597,2,0,P|310:202|350:215,1,85,10|0,0:0|0:0,0:0:0:0:
412,290,77955,1,0,0:0:0:0:
408,63,78133,6,0,L|420:147,1,85,2|8,0:0|0:0,0:0:0:0:
349,214,78490,1,2,0:0:0:0:
255,338,78669,2,0,P|278:279|270:216,1,127.5,2|0,0:0|0:0,0:0:0:0:
258,198,79026,2,0,P|219:173|171:176,1,85,10|0,0:0|0:0,0:0:0:0:
102,228,79383,5,0,0:0:0:0:
42,77,79562,1,2,0:0:0:0:
180,76,79740,1,8,0:0:0:0:
12,191,79919,1,2,0:0:0:0:
181,172,80097,6,0,P|203:230|180:306,1,127.5,2|0,0:0|0:0,0:0:0:0:
182,312,80455,2,0,P|226:325|271:299,1,85,10|0,0:0|0:0,0:0:0:0:
345,260,80812,1,0,0:0:0:0:
277,164,80990,1,0,0:0:0:0:
346,358,81169,2,0,L|429:341,1,85,8|2,0:0|0:0,0:0:0:0:
468,221,81526,5,2,0:0:0:0:
340,90,81705,1,2,0:0:0:0:
512,133,81883,1,8,0:0:0:0:
345,260,82062,2,0,L|248:249,1,85,2|0,0:0|0:0,0:0:0:0:
41,206,82419,2,0,L|138:195,1,85,2|8,0:0|0:0,0:0:0:0:
246,112,82776,1,2,0:0:0:0:
169,351,82955,6,0,P|171:290|111:295,1,127.5,2|0,0:0|0:0,0:0:0:0:
104,305,83312,2,0,P|63:326|8:310,2,85,8|0|0,0:0|0:0|0:0,0:0:0:0:
51,228,83847,5,2,0:0:0:0:
118,101,84026,1,10,0:0:0:0:
164,188,84205,1,2,0:0:0:0:
22,88,84383,1,2,0:0:0:0:
104,305,84562,2,0,L|214:290,1,85,2|8,0:0|0:0,0:0:0:0:
408,241,84919,2,0,L|298:226,1,85,2|0,0:0|0:0,0:0:0:0:
164,188,85276,2,0,P|154:146|172:104,1,85,2|8,0:0|0:0,0:0:0:0:
252,60,85633,1,2,0:0:0:0:
237,273,85812,6,0,B|173:251|180:304|100:276,1,127.5,2|0,0:0|0:0,0:0:0:0:
93,273,86169,2,0,L|68:177,1,85,8|0,0:0|0:0,0:0:0:0:
168,108,86526,1,0,0:0:0:0:
1,121,86705,1,0,0:0:0:0:
237,273,86883,2,0,L|217:191,1,85,10|2,0:0|0:0,0:0:0:0:
264,103,87240,5,2,0:0:0:0:
35,204,87419,2,0,P|75:214|113:197,1,85,2|8,0:0|0:0,0:0:0:0:
144,7,87776,2,0,P|159:108|196:81,1,170,2|0,0:0|0:0,0:0:0:0:
276,36,88312,2,0,P|321:22|372:37,1,85,10|2,0:0|0:0,0:0:0:0:
415,244,88669,6,0,P|404:187|441:130,1,127.5
458,121,89026,2,0,P|415:129|360:106,1,85,8|0,0:0|0:0,0:0:0:0:
422,32,89383,5,0,0:0:0:0:
498,190,89562,1,0,0:0:0:0:
376,117,89740,1,8,0:0:0:0:
512,60,89919,1,2,0:0:0:0:
415,244,90097,5,2,0:0:0:0:
322,42,90276,2,0,L|214:36,1,85,2|8,0:0|0:0,0:0:0:0:
7,150,90633,2,0,B|100:109|84:196|177:157,1,170,2|0,0:0|0:0,0:0:0:0:
144,63,91169,1,10,0:0:0:0:
49,236,91347,1,10,0:0:0:0:
15,13,91526,1,2,0:0:0:0:
287,354,102419,5,8,0:0:0:0:
318,107,102597,1,8,0:0:0:0:
419,251,102776,1,8,0:0:0:0:
232,179,102955,6,0,B|195:163|156:188|156:188|124:210|65:197,1,159.375,6|0,0:0|0:0,0:0:0:0:
37,187,103312,2,0,P|11:136|37:74,1,106.25,8|0,0:0|0:0,0:0:0:0:
125,23,103669,1,2,0:0:0:0:
214,268,103847,1,0,0:0:0:0:
318,107,104026,2,0,L|208:85,1,106.25,8|0,0:0|0:0,0:0:0:0:
114,126,104383,5,2,0:0:0:0:
215,0,104562,1,0,0:0:0:0:
193,183,104740,1,10,0:0:0:0:
125,23,104919,1,0,0:0:0:0:
95,236,105097,5,2,0:0:0:0:
213,86,105276,1,0,0:0:0:0:
288,306,105455,2,0,L|185:279,1,106.25,10|2,0:0|0:0,0:0:0:0:
74,108,105812,6,0,B|49:71|49:71|-3:119|52:224,1,159.375,2|0,0:0|0:0,0:0:0:0:
51,216,106169,2,0,P|100:227|155:197,1,106.25,8|0,0:0|0:0,0:0:0:0:
213,86,106526,1,0,0:0:0:0:
241,235,106705,1,0,0:0:0:0:
402,26,106883,6,0,P|428:75|416:134,1,106.25,10|0,0:0|0:0,0:0:0:0:
362,200,107240,2,0,P|335:233|403:318,1,159.375,2|0,0:0|0:0,0:0:0:0:
438,254,107597,2,0,L|426:368,1,106.25,10|0,0:0|0:0,0:0:0:0:
300,363,107955,1,2,0:0:0:0:
485,176,108133,1,0,0:0:0:0:
241,235,108312,1,10,0:0:0:0:
485,314,108490,1,2,0:0:0:0:
324,196,108669,6,0,B|145:205,1,159.375,2|0,0:0|0:0,0:0:0:0:
122,205,109026,2,0,P|110:264|143:316,1,106.25,8|0,0:0|0:0,0:0:0:0:
241,235,109383,1,0,0:0:0:0:
37,340,109562,1,0,0:0:0:0:
311,349,109740,6,0,B|339:250|339:250|319:180,1,159.375,10|0,0:0|0:0,0:0:0:0:
250,14,110097,2,0,P|237:75|266:141,1,106.25,2|0,0:0|0:0,0:0:0:0:
420,203,110455,2,0,P|433:142|404:76,1,106.25,10|0,0:0|0:0,0:0:0:0:
323,195,110812,5,2,0:0:0:0:
368,20,110990,1,0,0:0:0:0:
248,116,111169,1,10,0:0:0:0:
484,150,111347,1,2,0:0:0:0:
323,195,111526,6,0,B|318:243|355:275|355:275|362:321|312:368,1,159.375
298,359,111883,2,0,L|190:351,1,106.25,8|0,0:0|0:0,0:0:0:0:
229,241,112240,1,0,0:0:0:0:
80,352,112419,1,0,0:0:0:0:
135,223,112597,6,0,P|87:165|132:78,1,159.375,10|0,0:0|0:0,0:0:0:0:
151,74,112955,2,0,P|214:90|229:164,1,106.25,2|0,0:0|0:0,0:0:0:0:
228,240,113312,2,0,P|280:243|324:215,1,106.25,10|0,0:0|0:0,0:0:0:0:
345,105,113669,1,2,0:0:0:0:
392,307,113847,1,0,0:0:0:0:
232,122,114026,1,10,0:0:0:0:
454,193,114205,1,2,0:0:0:0:
302,347,114383,6,0,B|131:334,1,159.375,6|0,0:0|0:0,0:0:0:0:
101,324,114740,2,0,P|86:266|118:207,1,106.25,8|0,0:0|0:0,0:0:0:0:
175,138,115097,5,2,0:0:0:0:
228,306,115276,1,0,0:0:0:0:
363,170,115455,2,0,L|259:188,1,106.25,8|0,0:0|0:0,0:0:0:0:
101,224,115812,6,0,P|85:274|101:324,1,106.25,2|0,0:0|0:0,0:0:0:0:
259,188,116169,2,0,P|274:138|258:88,1,106.25,10|0,0:0|0:0,0:0:0:0:
176,139,116526,1,2,0:0:0:0:
353,55,116705,1,0,0:0:0:0:
320,264,116883,2,0,L|211:279,1,106.25,10|2,0:0|0:0,0:0:0:0:
82,89,117240,6,0,P|127:160|77:240,1,159.375,2|0,0:0|0:0,0:0:0:0:
64,246,117597,2,0,L|78:359,1,106.25,8|0,0:0|0:0,0:0:0:0:
214,278,117955,1,0,0:0:0:0:
37,162,118133,1,0,0:0:0:0:
162,365,118312,6,0,B|213:385|247:368|247:368|289:346|342:375,1,159.375,10|0,0:0|0:0,0:0:0:0:
359,366,118669,2,0,P|374:315|359:265,1,106.25,2|0,0:0|0:0,0:0:0:0:
262,91,119026,2,0,P|246:141|261:191,1,106.25,10|0,0:0|0:0,0:0:0:0:
345,143,119383,5,2,0:0:0:0:
211,10,119562,1,0,0:0:0:0:
377,18,119740,1,10,0:0:0:0:
200,144,119919,1,2,0:0:0:0:
434,101,120097,6,0,L|418:232,1,106.25,2|0,0:0|0:0,0:0:0:0:
303,379,120455,2,0,L|292:271,1,106.25,8|0,0:0|0:0,0:0:0:0:
273,102,120812,1,0,0:0:0:0:
209,223,120990,1,0,0:0:0:0:
67,19,121169,6,0,P|46:74|70:139,1,106.25,10|0,0:0|0:0,0:0:0:0:
209,223,121526,2,0,P|156:228|110:205,1,106.25,2|0,0:0|0:0,0:0:0:0:
289,136,121883,2,0,P|309:87|300:36,1,106.25,10|0,0:0|0:0,0:0:0:0:
212,77,122240,5,2,0:0:0:0:
308,240,122419,1,0,0:0:0:0:
392,74,122597,1,10,0:0:0:0:
141,128,122776,1,2,0:0:0:0:
382,260,122955,6,0,B|223:277,1,159.375,2|0,0:0|0:0,0:0:0:0:
181,283,123312,2,0,P|148:334|150:384,1,106.25,8|0,0:0|0:0,0:0:0:0:
243,361,123669,1,0,0:0:0:0:
113,212,123847,1,0,0:0:0:0:
228,69,124026,6,0,B|282:47|314:68|314:68|344:88|392:72,1,159.375,10|0,0:0|0:0,0:0:0:0:
415,49,124383,2,0,P|429:108|392:159,1,106.25,2|0,0:0|0:0,0:0:0:0:
335,334,124740,2,0,P|313:286|324:234,1,106.25,10|0,0:0|0:0,0:0:0:0:
411,278,125097,5,2,0:0:0:0:
228,138,125276,1,0,0:0:0:0:
493,214,125455,1,10,0:0:0:0:
226,335,125633,1,2,0:0:0:0:
323,235,125812,5,2,0:0:0:0:
93,217,128669,6,0,B|117:235|122:264|122:264|152:129,1,172.125000656605,6|0,0:0|0:0,0:0:0:0:
106,73,129026,2,0,B|136:76|157:52|157:52|174:81|207:86,1,114.750000437737,8|0,0:0|0:0,0:0:0:0:
462,114,129383,2,0,B|472:93|497:78|497:78|352:94,1,172.125000656605,2|0,0:0|0:0,0:0:0:0:
310,143,129740,2,0,B|275:98|275:98|306:34,1,114.750000437737,8|0,0:0|0:0,0:0:0:0:
266,237,130097,5,2,0:0:0:0:
369,209,130276,1,0,0:0:0:0:
259,342,130455,5,10,0:0:0:0:
156,314,130634,1,0,0:0:0:0:
160,146,130812,6,0,P|196:195|205:251,1,114.750000437737,2|0,0:0|0:0,0:0:0:0:
71,171,131169,1,10,0:0:0:0:
106,72,131347,1,2,0:0:0:0:
216,87,131526,2,0,P|281:81|330:57,1,114.750000437737,2|0,0:0|0:0,0:0:0:0:
475,188,131883,2,0,P|422:165|365:161,1,114.750000437737,8|0,0:0|0:0,0:0:0:0:
359,329,132240,1,0,0:0:0:0:
422,255,132419,1,0,0:0:0:0:
185,222,132597,6,0,B|161:240|165:274|165:274|119:166,1,172.125000656605,10|0,0:0|0:0,0:0:0:0:
37,138,132955,2,0,P|87:96|138:84,1,114.750000437737,2|0,0:0|0:0,0:0:0:0:
281,275,133312,2,0,P|226:259|184:221,1,114.750000437737,10|0,0:0|0:0,0:0:0:0:
297,184,133669,5,2,0:0:0:0:
209,357,133847,1,0,0:0:0:0:
216,87,134026,5,10,0:0:0:0:
281,275,134204,1,2,0:0:0:0:
34,187,134383,6,0,B|109:147|109:147|200:177,1,172.125000656605,2|0,0:0|0:0,0:0:0:0:
128,346,134740,2,0,L|117:221,1,114.750000437737,8|0,0:0|0:0,0:0:0:0:
209,357,135097,1,0,0:0:0:0:
31,293,135276,1,0,0:0:0:0:
281,275,135455,2,0,P|318:234|384:224,1,114.750000437737,10|0,0:0|0:0,0:0:0:0:
463,356,135812,2,0,P|408:344|367:292,1,114.750000437737,2|0,0:0|0:0,0:0:0:0:
450,165,136169,2,0,P|467:217|442:279,1,114.750000437737,10|0,0:0|0:0,0:0:0:0:
297,143,136526,5,2,0:0:0:0:
163,265,136705,1,0,0:0:0:0:
204,67,136883,5,10,0:0:0:0:
267,231,137062,1,2,0:0:0:0:
38,116,137240,6,0,B|67:123|100:101|100:101|57:215,1,172.125000656605
80,336,137597,2,0,B|102:282|102:282|167:275,1,114.750000437737,8|0,0:0|0:0,0:0:0:0:
267,231,137955,1,0,0:0:0:0:
362,270,138133,1,0,0:0:0:0:
422,192,138312,2,0,P|456:244|451:303,1,114.750000437737,10|0,0:0|0:0,0:0:0:0:
290,91,138669,6,0,P|357:54|455:55,1,172.125000656605,2|0,0:0|0:0,0:0:0:0:
306,170,139026,2,0,P|239:152|197:117,1,114.750000437737,10|0,0:0|0:0,0:0:0:0:
224,25,139383,5,2,0:0:0:0:
147,210,139562,1,0,0:0:0:0:
232,44,139740,5,10,0:0:0:0:
260,302,139919,1,2,0:0:0:0:
55,185,140097,6,0,P|104:137|213:127,1,172.125000656605,6|0,0:0|0:0,0:0:0:0:
155,321,140455,2,0,P|139:254|148:206,1,114.750000437737,8|0,0:0|0:0,0:0:0:0:
414,284,140812,6,0,P|369:317|254:297,1,172.125000656605,2|0,0:0|0:0,0:0:0:0:
398,157,141169,2,0,P|369:216|322:250,1,114.750000437737,8|0,0:0|0:0,0:0:0:0:
300,145,141526,5,2,0:0:0:0:
467,223,141705,1,0,0:0:0:0:
198,162,141883,1,10,0:0:0:0:
365,84,142062,1,0,0:0:0:0:
298,353,142240,6,0,P|325:296|331:242,1,114.750000437737,2|0,0:0|0:0,0:0:0:0:
97,173,142597,2,0,P|132:224|176:257,1,114.750000437737,10|2,0:0|0:0,0:0:0:0:
268,33,142955,6,0,B|304:89|264:164|242:126|216:197|258:257,2,229.500000875473,2|8|0,0:0|0:0|0:0,0:0:0:0:
148,102,143847,1,0,0:0:0:0:
323,202,144026,2,0,P|380:166|412:118,1,114.750000437737,10|0,0:0|0:0,0:0:0:0:
140,196,144383,5,2,0:0:0:0:
201,352,144562,1,0,0:0:0:0:
282,83,144740,5,10,0:0:0:0:
252,247,144919,1,0,0:0:0:0:
451,204,145097,6,0,P|389:167|333:162,1,114.750000437737,2|0,0:0|0:0,0:0:0:0:
201,352,145455,2,0,P|256:340|304:309,1,114.750000437737,10|2,0:0|0:0,0:0:0:0:
106,112,145812,6,0,B|74:117|49:91|49:91|100:207,1,172.125000656605,2|0,0:0|0:0,0:0:0:0:
93,274,146169,2,0,B|153:270|153:270|180:209,1,114.750000437737,8|0,0:0|0:0,0:0:0:0:
316,158,146526,2,0,P|256:129|204:121,1,114.750000437737
350,278,146883,5,10,0:0:0:0:
480,239,147062,1,0,0:0:0:0:
364,361,147240,5,2,0:0:0:0:
234,322,147419,1,0,0:0:0:0:
316,158,147597,6,0,P|357:129|421:109,1,114.750000437737,10|0,0:0|0:0,0:0:0:0:
276,247,147955,2,0,P|235:218|171:198,1,114.750000437737,2|0,0:0|0:0,0:0:0:0:
237,110,148312,1,10,0:0:0:0:
381,235,148490,1,2,0:0:0:0:
167,276,148669,6,0,B|131:284|123:312|123:312|76:195,1,172.125000656605,2|0,0:0|0:0,0:0:0:0:
15,158,149026,2,0,B|41:138|45:108|45:108|66:132|98:131,1,114.750000437737,8|0,0:0|0:0,0:0:0:0:
348,177,149383,2,0,B|321:196|317:226|317:226|296:202|264:203,1,114.750000437737
342,98,149740,6,0,P|406:116|422:175,1,114.750000437737,10|0,0:0|0:0,0:0:0:0:
338,276,150097,2,0,P|321:211|364:168,1,114.750000437737,2|0,0:0|0:0,0:0:0:0:
499,192,150455,2,0,P|451:238|392:222,1,114.750000437737,10|0,0:0|0:0,0:0:0:0:
484,103,150812,5,2,0:0:0:0:
416,326,150990,1,0,0:0:0:0:
260,143,151169,5,10,0:0:0:0:
420,349,151347,1,2,0:0:0:0:
390,202,151526,5,6,0:0:0:0:
