osu file format v14

[General]
AudioFilename: audio.mp3
AudioLeadIn: 0
PreviewTime: 4508
Countdown: 0
SampleSet: Soft
StackLeniency: 0.4
Mode: 0
LetterboxInBreaks: 0
WidescreenStoryboard: 1

[Editor]
Bookmarks: 4508,13564,22621,31678,40734,49791,58847,67904,76961,86017,95074,104130,113187,122244,131300
DistanceSpacing: 1.1
BeatDivisor: 8
GridSize: 16
TimelineZoom: 1.9

[Metadata]
Title:edamame
TitleUnicode:edamame
Artist:bbno$ & Rich Brian
ArtistUnicode:bbno$ & Rich Brian
Creator:Bakugo-
Version:thexo's insane
Source:
Tags:english pop rap hip hop hip-hop hiphop kieg enri bakugo arronchu chu arronchu1207 jamesjan3 thexo chompy flake gokugohan12468 kittyadventure eat ya veggies Diamond Pistols Alexander Leon Gumuchian baby no money mula imanuel le mirai SirMirai cacturne soewarno
BeatmapID:3187649
BeatmapSetID:1557107

[Difficulty]
HPDrainRate:4.9
CircleSize:3.9
OverallDifficulty:7.1
ApproachRate:9
SliderMultiplier:2.36
SliderTickRate:1

[Events]
//Background and Video events
0,0,"88087667_p0.png",0,0
Video,0,"edamame video.mp4"
//Break Periods
2,49791,55700
2,104130,110040
//Storyboard Layer 0 (Background)
//Storyboard Layer 1 (Fail)
//Storyboard Layer 2 (Pass)
//Storyboard Layer 3 (Foreground)
//Storyboard Layer 4 (Overlay)
//Storyboard Sound Samples

[TimingPoints]
-4548,566.037735849057,4,2,1,50,1,0
4508,-100,4,2,1,50,0,0
6135,-100,4,2,1,5,0,0
6206,-100,4,2,1,50,0,0
6984,-100,4,2,1,5,0,0
7055,-100,4,2,1,50,0,0
10734,-133.333333333333,4,2,1,50,0,0
11866,-100,4,2,1,50,0,0
13564,-80,4,2,1,50,0,0
14130,-100,4,2,1,50,0,0
15829,-80,4,2,1,50,0,0
16395,-100,4,2,1,50,0,0
18093,-80,4,2,1,50,0,0
18942,-100,4,2,1,50,0,0
19154,-100,4,2,1,5,0,0
19225,-100,4,2,1,50,0,0
19437,-100,4,2,1,5,0,0
19508,-100,4,2,1,50,0,0
20852,-100,4,2,1,5,0,0
20923,-133.333333333333,4,2,1,50,0,0
21418,-133.333333333333,4,2,1,5,0,0
21489,-133.333333333333,4,2,1,50,0,0
22833,-133.333333333333,4,2,1,5,0,0
22904,-133.333333333333,4,2,1,50,0,0
24956,-133.333333333333,4,2,1,5,0,0
25027,-133.333333333333,4,2,1,50,0,0
26796,-133.333333333333,4,2,1,5,0,0
26866,-133.333333333333,4,2,1,50,0,0
29343,-133.333333333333,4,2,1,5,0,0
29413,-133.333333333333,4,2,1,50,0,0
32173,-133.333333333333,4,2,1,5,0,0
32244,-133.333333333333,4,2,1,50,0,0
35569,-133.333333333333,4,2,1,5,0,0
35640,-133.333333333333,4,2,1,50,0,0
49791,-133.333333333333,4,2,1,30,0,0
56584,-133.333333333333,4,2,1,50,0,0
58847,-100,4,2,1,50,0,0
60475,-100,4,2,1,5,0,0
60546,-100,4,2,1,50,0,0
61324,-100,4,2,1,5,0,0
61395,-100,4,2,1,50,0,0
65074,-133.333333333333,4,2,1,50,0,0
66206,-100,4,2,1,50,0,0
67904,-80,4,2,1,50,0,0
68470,-100,4,2,1,50,0,0
70168,-80,4,2,1,50,0,0
70734,-100,4,2,1,50,0,0
72432,-80,4,2,1,50,0,0
73281,-100,4,2,1,50,0,0
73494,-100,4,2,1,5,0,0
73564,-100,4,2,1,50,0,0
73777,-100,4,2,1,5,0,0
73847,-100,4,2,1,50,0,0
75192,-100,4,2,1,5,0,0
75263,-133.333333333333,4,2,1,50,0,0
75758,-133.333333333333,4,2,1,5,0,0
75829,-133.333333333333,4,2,1,50,0,0
86017,-100,4,2,1,50,0,0
92810,-133.333333333333,4,2,1,50,0,0
95074,-100,4,2,1,50,0,0
104130,-100,4,2,1,30,0,0
110640,-133.333333333333,4,2,1,30,0,0
110923,-133.333333333333,4,2,1,50,0,0
111984,-133.333333333333,4,2,1,5,0,0
112055,-133.333333333333,4,2,1,50,0,0
113187,-100,4,2,1,50,0,0
114814,-100,4,2,1,5,0,0
114885,-100,4,2,1,50,0,0
115663,-100,4,2,1,5,0,0
115734,-100,4,2,1,50,0,0
119413,-133.333333333333,4,2,1,50,0,0
120546,-100,4,2,1,50,0,0
122244,-80,4,2,1,50,0,0
122810,-100,4,2,1,50,0,0
124508,-80,4,2,1,50,0,0
125074,-100,4,2,1,50,0,0
126772,-80,4,2,1,50,0,0
127338,-100,4,2,1,50,0,0
127833,-100,4,2,1,5,0,0
127904,-100,4,2,1,50,0,0
128116,-100,4,2,1,5,0,0
128187,-100,4,2,1,50,0,0
129531,-100,4,2,1,5,0,0
129602,-100,4,2,1,50,0,0
130097,-100,4,2,1,5,0,0
130168,-100,4,2,1,50,0,0
131300,-333.333333333333,4,2,1,50,0,0

[Colours]
Combo1 : 103,175,90
Combo2 : 227,254,75
Combo3 : 134,221,77

[HitObjects]
62,81,4508,6,0,B|33:66|33:66|52:102|58:150,1,118,6|2,0:0|0:0,0:0:0:0:
8,226,4932,1,2,0:0:0:0:
192,263,5074,2,0,P|138:213|89:218,1,118,10|2,0:0|0:0,0:0:0:0:
8,226,5498,1,0,0:0:0:0:
63,343,5640,5,2,0:0:0:0:
63,343,5781,1,2,0:0:0:0:
192,263,5923,2,0,P|204:233|185:254,1,88.5,2|0,0:0|0:0,0:0:0:0:
184,252,6206,2,0,P|193:200|206:168,1,59,10|2,0:0|0:0,0:0:0:0:
281,123,6489,1,2,0:0:0:0:
494,50,6772,6,0,P|438:48|389:27,1,88.5,2|0,0:0|0:0,0:0:0:0:
398,24,7055,2,0,P|421:53|424:77,1,59,2|2,0:0|0:0,0:0:0:0:
352,191,7338,2,0,P|365:156|384:141,1,59,10|0,0:0|0:0,0:0:0:0:
512,155,7621,6,0,L|438:134,1,59,2|0,0:0|0:0,0:0:0:0:
347,78,7904,2,0,L|273:99,1,59,2|0,0:0|0:0,0:0:0:0:
160,124,8187,1,2,0:0:0:0:
217,53,8329,1,2,0:0:0:0:
52,16,8470,2,0,B|31:37|31:37|59:108|70:202,1,177,10|0,0:0|0:0,0:0:0:0:
182,290,9036,5,6,0:0:0:0:
148,217,9178,1,2,0:0:0:0:
86,267,9319,2,0,P|102:349|101:369,1,59,2|2,0:0|0:0,0:0:0:0:
243,169,9602,2,0,P|227:251|228:271,1,59,10|2,0:0|0:0,0:0:0:0:
342,288,9885,1,2,0:0:0:0:
307,217,10027,1,2,0:0:0:0:
228,225,10168,1,2,0:0:0:0:
481,250,10451,5,2,0:0:0:0:
354,84,10734,6,0,B|371:70|380:48|380:48|374:71|380:103,1,88.5000033760072,10|2,0:0|0:0,0:0:0:0:
179,287,11300,6,0,B|162:273|153:251|153:251|159:274|153:306,1,88.5000033760072,2|2,0:0|0:0,0:0:0:0:
361,288,11866,6,0,B|378:271|378:271|363:237|357:180,1,118,10|2,0:0|0:0,0:0:0:0:
378,91,12291,1,2,0:0:0:0:
290,275,12432,6,0,B|312:266|312:266|313:229|332:175,1,118,2|2,0:0|0:0,0:0:0:0:
388,103,12857,1,2,0:0:0:0:
231,233,12998,6,0,B|254:235|254:235|271:201|311:160,1,118,10|2,0:0|0:0,0:0:0:0:
392,118,13423,1,2,0:0:0:0:
292,36,13564,6,0,B|272:25|223:26|178:71|194:147|177:165|138:174,1,221.25,6|0,0:0|0:0,0:0:0:0:
90,96,14130,2,0,P|67:78|59:51,1,59,10|0,0:0|0:0,0:0:0:0:
141,32,14413,1,2,0:0:0:0:
141,32,14555,1,2,0:0:0:0:
1,116,14696,6,0,P|16:166|18:195,1,59,2|0,0:0|0:0,0:0:0:0:
144,234,14980,2,0,P|129:284|127:313,1,59,2|0,0:0|0:0,0:0:0:0:
9,370,15263,5,10,0:0:0:0:
45,296,15404,1,2,0:0:0:0:
128,290,15546,1,2,0:0:0:0:
181,352,15687,1,2,0:0:0:0:
283,276,15829,6,0,B|259:256|248:227|248:227|270:300|275:393,1,221.25,6|0,0:0|0:0,0:0:0:0:
401,326,16395,2,0,P|399:288|387:263,1,59,10|2,0:0|0:0,0:0:0:0:
333,209,16678,1,2,0:0:0:0:
333,209,16819,1,2,0:0:0:0:
436,165,16961,6,0,P|473:175|518:177,1,59,2|0,0:0|0:0,0:0:0:0:
329,73,17244,2,0,P|300:75|272:84,1,59,2|0,0:0|0:0,0:0:0:0:
436,165,17527,5,10,0:0:0:0:
413,84,17668,1,2,0:0:0:0:
329,73,17810,1,2,0:0:0:0:
422,83,17951,1,2,0:0:0:0:
220,28,18093,6,0,B|216:57|216:57|245:139|252:253,1,221.25,6|0,0:0|0:0,0:0:0:0:
190,313,18659,1,10,0:0:0:0:
190,313,18800,1,2,0:0:0:0:
337,230,18942,2,0,P|375:263|379:305,1,88.5,2|0,0:0|0:0,0:0:0:0:
392,307,19225,2,0,P|372:353|333:370,1,88.5,2|0,0:0|0:0,0:0:0:0:
336,382,19508,2,0,P|302:379|280:358,1,59,2|0,0:0|0:0,0:0:0:0:
251,245,19791,1,10,0:0:0:0:
251,245,19932,1,2,0:0:0:0:
190,313,20074,2,0,P|198:335|199:360,2,39.3333333333333,2|2|2,0:0|0:0|0:0,0:0:0:0:
174,299,20357,6,0,B|133:201|202:204|168:98,1,206.5,6|0,0:0|0:0,0:0:0:0:
161,84,20923,6,0,P|157:44|238:59,1,154.875005908013,10|0,0:0|0:0,0:0:0:0:
240,74,21489,1,10,0:0:0:0:
99,151,21630,1,8,0:0:0:0:
106,159,21913,5,8,0:0:0:0:
247,236,22054,1,10,0:0:0:0:
247,236,22339,5,8,0:0:0:0:
106,159,22480,1,8,0:0:0:0:
110,320,22621,2,0,P|127:287|131:245,1,66.3750025320054,6|0,0:0|0:0,0:0:0:0:
126,247,22904,1,2,0:0:0:0:
183,362,23046,5,2,0:0:0:0:
183,362,23329,1,2,0:0:0:0:
256,375,23470,1,2,0:0:0:0:
298,312,23612,1,2,0:0:0:0:
225,294,23753,1,2,0:0:0:0:
256,375,23895,5,2,0:0:0:0:
256,375,24178,1,2,0:0:0:0:
298,312,24319,1,10,0:0:0:0:
370,291,24461,1,2,0:0:0:0:
397,221,24602,1,2,0:0:0:0:
378,302,24744,6,0,P|385:332|388:378,1,66.3750025320054,2|0,0:0|0:0,0:0:0:0:
380,375,25027,1,2,0:0:0:0:
322,225,25168,2,0,P|323:196|335:177,1,44.2500016880036,2|2,0:0|0:0,0:0:0:0:
392,140,25451,1,10,0:0:0:0:
418,69,25593,1,2,0:0:0:0:
364,16,25734,1,2,0:0:0:0:
338,87,25876,5,2,0:0:0:0:
338,87,26159,2,0,P|304:82|282:81,1,44.2500016880036,2|2,0:0|0:0,0:0:0:0:
232,123,26442,1,2,0:0:0:0:
232,123,26583,2,0,P|244:169|246:191,1,66.3750025320054,10|0,0:0|0:0,0:0:0:0:
239,200,26866,1,2,0:0:0:0:
80,112,27008,6,0,P|128:109|154:139,1,88.5000033760072,2|2,0:0|0:0,0:0:0:0:
131,216,27432,2,0,P|149:265|157:313,1,88.5000033760072,2|10,0:0|0:0,0:0:0:0:
117,365,27857,1,2,0:0:0:0:
44,347,27998,1,2,0:0:0:0:
51,271,28140,1,2,0:0:0:0:
28,342,28281,5,2,0:0:0:0:
28,342,28564,1,2,0:0:0:0:
32,266,28706,1,2,0:0:0:0:
16,192,28847,1,10,0:0:0:0:
13,267,28989,1,2,0:0:0:0:
30,194,29130,2,0,P|31:161|26:109,1,66.3750025320054,2|0,0:0|0:0,0:0:0:0:
22,114,29413,1,2,0:0:0:0:
53,45,29555,1,2,0:0:0:0:
118,82,29696,5,2,0:0:0:0:
118,82,29980,1,10,0:0:0:0:
149,151,30121,1,2,0:0:0:0:
214,114,30262,1,2,0:0:0:0:
183,45,30404,1,2,0:0:0:0:
149,151,30546,6,0,P|154:172|158:197,1,44.2500016880036,2|2,0:0|0:0,0:0:0:0:
217,247,30829,1,2,0:0:0:0:
217,247,30970,2,0,P|255:236|320:232,1,88.5000033760072,2|2,0:0|0:0,0:0:0:0:
375,253,31395,1,2,0:0:0:0:
471,12,31678,5,6,0:0:0:0:
398,58,31819,1,2,0:0:0:0:
483,9,31961,2,0,P|471:63|469:90,1,66.3750025320054,2|0,0:0|0:0,0:0:0:0:
478,95,32244,1,10,0:0:0:0:
478,95,32385,1,2,0:0:0:0:
421,153,32527,2,0,P|389:145|360:147,1,44.2500016880036,2|2,0:0|0:0,0:0:0:0:
467,256,32810,2,0,P|452:240|434:228,1,44.2500016880036,2|2,0:0|0:0,0:0:0:0:
308,318,33093,2,0,P|345:309|404:301,1,88.5000033760072,2|10,0:0|0:0,0:0:0:0:
321,281,33517,5,2,0:0:0:0:
264,331,33659,1,2,0:0:0:0:
196,299,33800,1,2,0:0:0:0:
141,351,33942,2,0,P|102:338|82:336,1,44.2500016880036,2|2,0:0|0:0,0:0:0:0:
0,251,34225,2,0,P|21:245|41:237,1,44.2500016880036,2|2,0:0|0:0,0:0:0:0:
141,150,34508,2,0,P|120:144|100:136,2,44.2500016880036,10|2|2,0:0|0:0|0:0,0:0:0:0:
195,98,34932,1,2,0:0:0:0:
266,73,35074,1,2,0:0:0:0:
288,1,35215,1,2,0:0:0:0:
273,83,35357,2,0,P|270:126|270:164,1,66.3750025320054,2|0,0:0|0:0,0:0:0:0:
277,166,35640,6,0,B|292:177|292:177|323:165|363:159,1,88.5000033760072,10|2,0:0|0:0,0:0:0:0:
433,170,36064,1,2,0:0:0:0:
406,277,36206,2,0,P|398:256|395:235,1,44.2500016880036,2|2,0:0|0:0,0:0:0:0:
484,278,36489,2,0,P|480:299|472:320,1,44.2500016880036,2|2,0:0|0:0,0:0:0:0:
416,372,36772,1,10,0:0:0:0:
350,336,36913,1,2,0:0:0:0:
277,355,37055,2,0,P|242:344|217:340,1,44.2500016880036,2|2,0:0|0:0,0:0:0:0:
164,360,37338,1,2,0:0:0:0:
164,360,37480,1,2,0:0:0:0:
169,201,37621,2,0,P|179:244|185:288,1,88.5000033760072,2|10,0:0|0:0,0:0:0:0:
108,151,38187,6,0,P|115:139|130:136,2,29.5000011253357,2|2|2,0:0|0:0|0:0,0:0:0:0:
102,160,38470,2,0,P|104:120|99:55,1,88.5000033760072,6|0,0:0|0:0,0:0:0:0:
101,71,38895,1,0,0:0:0:0:
188,2,39036,2,0,B|182:19|182:19|192:49|196:92,1,88.5000033760072,10|0,0:0|0:0,0:0:0:0:
199,169,39461,1,0,0:0:0:0:
281,89,39602,5,10,0:0:0:0:
251,246,39744,1,8,0:0:0:0:
294,182,40027,5,8,0:0:0:0:
324,339,40169,1,10,0:0:0:0:
358,270,40451,5,8,0:0:0:0:
208,326,40593,1,8,0:0:0:0:
358,270,40734,1,14,0:0:0:0:
97,275,41017,5,2,0:0:0:0:
142,211,41159,2,0,P|139:193|123:165,1,44.2500016880036,2|8,0:0|0:0,0:0:0:0:
127,379,41442,5,2,0:0:0:0:
82,315,41584,2,0,P|85:297|101:269,1,44.2500016880036,2|0,0:0|0:0,0:0:0:0:
240,167,41866,5,2,0:0:0:0:
226,248,42008,1,2,0:0:0:0:
300,114,42291,5,2,0:0:0:0:
286,33,42433,1,10,0:0:0:0:
226,248,42715,5,2,0:0:0:0:
381,242,42857,2,0,P|328:218|288:220,1,88.5000033760072,2|2,0:0|0:0,0:0:0:0:
192,316,43281,1,2,0:0:0:0:
430,304,43564,6,0,P|454:266|453:250,1,44.2500016880036,10|2,0:0|0:0,0:0:0:0:
414,97,43989,5,2,0:0:0:0:
414,97,44130,2,0,P|428:156|434:202,1,88.5000033760072,2|2,0:0|0:0,0:0:0:0:
507,207,44555,1,2,0:0:0:0:
342,141,44696,2,0,P|299:185|315:226,1,88.5000033760072,10|2,0:0|0:0,0:0:0:0:
330,283,45121,1,2,0:0:0:0:
330,283,45263,1,2,0:0:0:0:
130,377,45546,5,2,0:0:0:0:
187,320,45687,2,0,P|213:312|242:310,1,44.2500016880036,2|8,0:0|0:0,0:0:0:0:
114,272,45970,5,2,0:0:0:0:
57,329,46111,2,0,P|31:337|2:339,1,44.2500016880036,2|0,0:0|0:0,0:0:0:0:
0,169,46395,5,2,0:0:0:0:
0,169,46536,2,0,P|16:220|21:271,1,88.5000033760072,2|2,0:0|0:0,0:0:0:0:
114,272,46961,1,10,0:0:0:0:
116,104,47244,5,2,0:0:0:0:
32,84,47385,1,2,0:0:0:0:
169,173,47668,5,2,0:0:0:0:
253,153,47809,1,2,0:0:0:0:
337,7,48093,5,10,0:0:0:0:
337,7,48234,2,0,P|329:66|327:106,1,88.5000033760072,2|2,0:0|0:0,0:0:0:0:
378,172,48659,1,2,0:0:0:0:
453,43,48942,5,2,0:0:0:0:
292,172,49225,5,10,0:0:0:0:
485,247,49508,5,2,0:0:0:0:
460,196,56300,6,0,P|460:213|442:228,2,29.5000011253357,2|2|2,0:0|0:0|0:0,0:0:0:0:
450,192,56583,2,0,P|407:206|351:235,1,88.5000033760072,6|0,0:0|0:0,0:0:0:0:
447,380,57149,6,0,P|395:314|351:339,1,132.750005064011,10|0,0:0|0:0,0:0:0:0:
356,338,57715,1,10,0:0:0:0:
199,378,57857,1,8,0:0:0:0:
192,368,58140,5,8,0:0:0:0:
36,324,58282,1,10,0:0:0:0:
36,324,58564,5,8,0:0:0:0:
152,210,58706,1,8,0:0:0:0:
192,368,58847,6,0,B|147:364|147:364|192:355|239:324,1,118,6|2,0:0|0:0,0:0:0:0:
268,261,59272,1,2,0:0:0:0:
410,377,59413,2,0,B|394:385|394:385|345:357|302:347,1,118,10|2,0:0|0:0,0:0:0:0:
268,261,59838,1,0,0:0:0:0:
352,154,59980,1,2,0:0:0:0:
352,154,60121,1,2,0:0:0:0:
439,257,60263,2,0,P|453:268|438:248,1,88.5,2|0,0:0|0:0,0:0:0:0:
439,243,60546,2,0,P|452:201|454:158,1,59,10|2,0:0|0:0,0:0:0:0:
443,63,60829,1,2,0:0:0:0:
164,66,61112,6,0,P|228:53|237:26,1,88.5,2|0,0:0|0:0,0:0:0:0:
240,24,61395,2,0,P|233:63|232:88,1,59,2|2,0:0|0:0,0:0:0:0:
178,222,61678,2,0,P|175:192|169:163,1,59,10|0,0:0|0:0,0:0:0:0:
304,104,61961,6,0,L|293:172,1,59,2|0,0:0|0:0,0:0:0:0:
236,274,62244,2,0,L|247:342,1,59,2|0,0:0|0:0,0:0:0:0:
408,265,62527,1,2,0:0:0:0:
316,242,62668,1,2,0:0:0:0:
433,355,62810,2,0,P|428:286|399:126,1,177,10|0,0:0|0:0,0:0:0:0:
432,92,63376,5,6,0:0:0:0:
357,44,63517,1,2,0:0:0:0:
445,34,63659,2,0,P|431:108|432:134,1,59,2|2,0:0|0:0,0:0:0:0:
296,138,63942,2,0,P|291:108|282:80,1,59,10|2,0:0|0:0,0:0:0:0:
193,9,64225,1,2,0:0:0:0:
272,1,64366,1,2,0:0:0:0:
282,80,64508,1,2,0:0:0:0:
41,39,64791,5,2,0:0:0:0:
209,193,65074,6,0,B|206:174|212:157|212:157|193:176|190:208,1,88.5000033760072,10|2,0:0|0:0,0:0:0:0:
10,348,65640,6,0,B|12:366|6:383|6:383|26:365|28:332,1,88.5000033760072,2|2,0:0|0:0,0:0:0:0:
229,79,66206,6,0,B|235:108|235:108|217:142|208:196,1,118,10|2,0:0|0:0,0:0:0:0:
236,275,66630,1,2,0:0:0:0:
121,117,66772,6,0,B|150:126|150:126|170:158|212:193,1,118,2|2,0:0|0:0,0:0:0:0:
295,208,67196,1,2,0:0:0:0:
101,230,67338,6,0,B|124:210|124:210|162:208|213:189,1,118,10|2,0:0|0:0,0:0:0:0:
267,124,67762,1,0,0:0:0:0:
341,350,67904,6,0,B|325:372|301:377|262:364|254:332|261:299|307:282|317:263|303:217|285:194,1,221.25,6|0,0:0|0:0,0:0:0:0:
388,132,68470,2,0,P|382:169|366:186,1,59,10|0,0:0|0:0,0:0:0:0:
333,71,68753,1,2,0:0:0:0:
333,71,68895,1,2,0:0:0:0:
264,12,69036,6,0,P|231:21|196:22,1,59,2|0,0:0|0:0,0:0:0:0:
113,121,69319,2,0,P|80:112|45:111,1,59,2|0,0:0|0:0,0:0:0:0:
1,173,69602,1,10,0:0:0:0:
59,232,69744,1,2,0:0:0:0:
60,312,69885,1,2,0:0:0:0:
2,371,70027,1,2,0:0:0:0:
59,232,70168,6,0,B|127:205|206:207|206:207|169:220|156:255,1,221.25,6|0,0:0|0:0,0:0:0:0:
214,335,70734,2,0,P|231:303|227:273,1,59,10|2,0:0|0:0,0:0:0:0:
156,254,71017,1,2,0:0:0:0:
156,254,71159,1,2,0:0:0:0:
291,229,71300,6,0,P|326:224|362:224,1,59,2|0,0:0|0:0,0:0:0:0:
212,114,71583,2,0,P|177:109|141:109,1,59,2|0,0:0|0:0,0:0:0:0:
291,229,71866,5,10,0:0:0:0:
291,146,72008,1,2,0:0:0:0:
370,125,72149,1,2,0:0:0:0:
282,150,72291,1,2,0:0:0:0:
454,78,72432,6,0,B|470:101|470:101|449:184|444:294,1,221.25,6|0,0:0|0:0,0:0:0:0:
396,378,72998,1,10,0:0:0:0:
396,378,73140,1,2,0:0:0:0:
460,216,73281,6,0,P|418:217|378:255,1,88.5,2|0,0:0|0:0,0:0:0:0:
376,257,73564,2,0,P|324:266|282:277,1,88.5,2|0,0:0|0:0,0:0:0:0:
277,283,73847,2,0,P|282:259|284:215,1,59,2|0,0:0|0:0,0:0:0:0:
247,133,74130,1,10,0:0:0:0:
247,133,74272,1,2,0:0:0:0:
191,290,74413,2,0,P|198:307|204:343,2,39.3333333333333,2|2|2,0:0|0:0|0:0,0:0:0:0:
192,273,74696,54,0,B|144:240|106:280|103:300|112:294|88:360|17:313,1,206.5,6|0,0:0|0:0,0:0:0:0:
8,307,75263,6,0,P|3:243|75:274,1,154.875005908013,10|0,0:0|0:0,0:0:0:0:
76,267,75829,1,10,0:0:0:0:
116,138,75970,1,8,0:0:0:0:
110,145,76253,5,8,0:0:0:0:
70,16,76394,1,10,0:0:0:0:
70,16,76678,5,8,0:0:0:0:
110,145,76819,1,8,0:0:0:0:
202,46,76961,6,0,L|264:38,1,44.2500016880036,6|2,0:0|0:0,0:0:0:0:
330,6,77244,1,2,0:0:0:0:
330,6,77385,1,2,0:0:0:0:
419,99,77527,6,0,L|371:92,1,44.2500016880036,10|2,0:0|0:0,0:0:0:0:
268,204,77810,1,2,0:0:0:0:
290,118,77951,1,2,0:0:0:0:
208,148,78093,6,0,L|223:252,1,88.5000033760072,2|2,0:0|0:0,0:0:0:0:
239,321,78517,1,2,0:0:0:0:
338,249,78659,6,0,L|381:242,1,44.2500016880036,10|2,0:0|0:0,0:0:0:0:
469,229,78942,1,2,0:0:0:0:
239,321,79225,6,0,L|196:314,1,44.2500016880036,2|2,0:0|0:0,0:0:0:0:
111,302,79508,1,2,0:0:0:0:
111,302,79649,1,2,0:0:0:0:
8,233,79791,6,0,L|51:226,1,44.2500016880036,10|2,0:0|0:0,0:0:0:0:
112,161,80074,1,2,0:0:0:0:
94,74,80215,1,2,0:0:0:0:
124,168,80357,6,0,L|216:183,1,88.5000033760072,2|2,0:0|0:0,0:0:0:0:
284,132,80781,1,2,0:0:0:0:
342,65,80923,5,10,0:0:0:0:
382,143,81064,1,2,0:0:0:0:
435,72,81206,1,2,0:0:0:0:
394,0,81347,1,0,0:0:0:0:
382,143,81489,6,0,L|392:207,1,44.2500016880036,2|2,0:0|0:0,0:0:0:0:
473,296,81772,2,0,L|480:252,1,44.2500016880036,2|2,0:0|0:0,0:0:0:0:
494,167,82055,1,10,0:0:0:0:
494,167,82196,1,2,0:0:0:0:
390,274,82338,6,0,L|326:264,1,44.2500016880036,2|2,0:0|0:0,0:0:0:0:
178,325,82621,2,0,L|276:309,1,88.5000033760072,2|2,0:0|0:0,0:0:0:0:
338,362,83046,1,2,0:0:0:0:
108,264,83329,5,2,0:0:0:0:
27,300,83471,1,2,0:0:0:0:
7,213,83612,1,2,0:0:0:0:
88,177,83753,6,0,L|80:127,1,44.2500016880036,2|2,0:0|0:0,0:0:0:0:
65,45,84036,1,2,0:0:0:0:
65,45,84178,1,2,0:0:0:0:
167,138,84319,6,0,L|257:123,1,88.5000033760072,10|2,0:0|0:0,0:0:0:0:
304,50,84744,1,2,0:0:0:0:
311,196,84885,2,0,L|302:250,2,44.2500016880036,2|0|2,0:0|0:0|0:0,0:0:0:0:
358,120,85310,5,2,0:0:0:0:
358,120,85593,1,2,0:0:0:0:
432,72,85734,1,2,0:0:0:0:
466,153,85876,1,2,0:0:0:0:
403,265,86017,6,0,P|398:236|396:207,1,59,6|0,0:0|0:0,0:0:0:0:
438,253,86230,2,0,P|432:282|430:311,1,59,2|0,0:0|0:0,0:0:0:0:
472,376,86442,6,0,P|472:353|440:342,1,59,2|10,0:0|0:0,0:0:0:0:
360,377,86725,1,2,0:0:0:0:
249,290,86866,6,0,P|262:320|270:351,1,59,2|2,0:0|0:0,0:0:0:0:
302,271,87079,2,0,P|289:301|281:332,1,59,2|0,0:0|0:0,0:0:0:0:
199,384,87291,6,0,B|195:375|195:375|166:366|139:351,1,59,2|0,0:0|0:0,0:0:0:0:
67,326,87574,1,2,0:0:0:0:
104,215,87716,6,0,B|109:227|109:227|150:240|189:261,1,88.5,10|0,0:0|0:0,0:0:0:0:
178,255,88140,1,2,0:0:0:0:
0,88,88423,5,2,0:0:0:0:
82,119,88564,2,0,P|136:103|154:100,1,59,2|2,0:0|0:0,0:0:0:0:
221,134,88847,1,10,0:0:0:0:
280,67,88989,1,2,0:0:0:0:
207,0,89130,2,0,P|203:37|204:77,1,59,2|2,0:0|0:0,0:0:0:0:
221,134,89414,6,0,P|237:180|246:234,1,88.5,2|2,0:0|0:0,0:0:0:0:
244,219,89838,1,2,0:0:0:0:
10,220,90121,5,2,0:0:0:0:
28,306,90263,1,2,0:0:0:0:
21,211,90404,1,2,0:0:0:0:
101,249,90546,6,0,P|144:239|169:237,1,59,2|2,0:0|0:0,0:0:0:0:
252,350,90829,2,0,P|232:329|214:306,1,59,2|2,0:0|0:0,0:0:0:0:
250,225,91112,1,10,0:0:0:0:
398,258,91253,5,2,0:0:0:0:
334,199,91395,1,2,0:0:0:0:
315,284,91536,1,2,0:0:0:0:
387,357,91678,6,0,P|436:350|489:360,1,88.5,2|2,0:0|0:0,0:0:0:0:
474,355,92102,1,2,0:0:0:0:
511,164,92385,5,2,0:0:0:0:
452,97,92527,2,0,P|462:59|472:52,2,39.3333333333333,2|2|2,0:0|0:0|0:0,0:0:0:0:
453,109,92810,6,0,P|415:113|349:125,1,88.5000033760072,6|0,0:0|0:0,0:0:0:0:
365,121,93234,1,0,0:0:0:0:
224,225,93376,2,0,B|241:231|241:231|271:221|314:217,1,88.5000033760072,10|0,0:0|0:0,0:0:0:0:
394,241,93800,1,0,0:0:0:0:
346,367,93942,5,10,0:0:0:0:
383,246,94083,1,8,0:0:0:0:
158,301,94366,5,8,0:0:0:0:
158,301,94791,1,0,0:0:0:0:
71,125,95074,6,0,P|88:200|95:264,1,118,6|2,0:0|0:0,0:0:0:0:
68,337,95498,1,2,0:0:0:0:
173,218,95640,2,0,P|207:206|255:200,1,59,10|2,0:0|0:0,0:0:0:0:
350,291,95923,2,0,P|321:291|304:269,1,59,2|2,0:0|0:0,0:0:0:0:
429,254,96206,5,2,0:0:0:0:
429,254,96489,1,2,0:0:0:0:
254,122,96772,1,10,0:0:0:0:
254,122,97055,1,2,0:0:0:0:
372,0,97338,6,0,P|356:58|347:127,1,118,2|2,0:0|0:0,0:0:0:0:
363,214,97763,1,2,0:0:0:0:
482,129,97904,2,0,P|453:126|426:137,1,59,10|2,0:0|0:0,0:0:0:0:
275,230,98187,2,0,P|238:219|196:213,1,59,2|2,0:0|0:0,0:0:0:0:
58,231,98470,5,2,0:0:0:0:
103,87,98753,1,2,0:0:0:0:
117,313,99036,1,2,0:0:0:0:
117,313,99319,1,2,0:0:0:0:
6,52,99602,6,0,P|13:80|18:114,1,59,2|2,0:0|0:0,0:0:0:0:
139,219,99885,2,0,P|143:189|150:161,1,59,2|2,0:0|0:0,0:0:0:0:
102,10,100168,6,0,P|117:66|184:60,1,118,10|2,0:0|0:0,0:0:0:0:
248,10,100593,1,2,0:0:0:0:
386,85,100734,5,2,0:0:0:0:
373,96,101017,1,2,0:0:0:0:
322,310,101300,1,10,0:0:0:0:
309,321,101583,1,2,0:0:0:0:
472,204,101866,5,2,0:0:0:0:
468,304,102008,1,2,0:0:0:0:
458,199,102149,2,0,P|460:172|471:135,1,59,2|2,0:0|0:0,0:0:0:0:
343,209,102432,2,0,P|364:224|391:252,1,59,10|2,0:0|0:0,0:0:0:0:
391,104,102715,2,0,P|366:115|329:124,1,59,2|2,0:0|0:0,0:0:0:0:
246,77,102998,5,2,0:0:0:0:
261,62,103281,1,2,0:0:0:0:
176,283,103564,1,10,0:0:0:0:
161,268,103847,1,2,0:0:0:0:
18,43,110640,6,0,P|13:21|0:3,2,29.5000011253357,2|2|2,0:0|0:0|0:0,0:0:0:0:
14,56,110923,2,0,P|28:107|35:159,1,88.5000033760072,6|0,0:0|0:0,0:0:0:0:
144,308,111489,6,0,P|84:230|36:235,1,154.875005908013,10|0,0:0|0:0,0:0:0:0:
26,244,112055,1,10,0:0:0:0:
173,184,112196,1,8,0:0:0:0:
185,196,112480,5,8,0:0:0:0:
332,259,112621,1,10,0:0:0:0:
332,259,112904,5,8,0:0:0:0:
313,100,113045,1,8,0:0:0:0:
185,196,113187,6,0,B|195:219|199:234|199:234|199:209|208:157,1,118,6|2,0:0|0:0,0:0:0:0:
186,64,113612,1,2,0:0:0:0:
30,101,113753,2,0,P|67:144|123:134,1,118,10|2,0:0|0:0,0:0:0:0:
186,64,114178,1,0,0:0:0:0:
63,3,114319,1,2,0:0:0:0:
63,3,114461,1,2,0:0:0:0:
39,202,114602,2,0,P|63:180|50:208,1,88.5,2|0,0:0|0:0,0:0:0:0:
39,211,114885,2,0,P|46:259|48:289,1,59,10|2,0:0|0:0,0:0:0:0:
12,372,115168,1,2,0:0:0:0:
315,281,115451,6,0,P|276:327|238:319,1,88.5,2|0,0:0|0:0,0:0:0:0:
241,317,115734,2,0,P|254:355|256:384,1,59,2|2,0:0|0:0,0:0:0:0:
189,214,116017,2,0,P|176:252|174:281,1,59,10|0,0:0|0:0,0:0:0:0:
269,192,116300,6,0,L|335:181,1,59,2|0,0:0|0:0,0:0:0:0:
454,247,116583,2,0,L|520:258,1,59,2|0,0:0|0:0,0:0:0:0:
456,75,116866,1,2,0:0:0:0:
418,162,117008,1,2,0:0:0:0:
511,154,117149,2,0,P|404:117|315:98,1,177,10|0,0:0|0:0,0:0:0:0:
255,27,117715,5,6,0:0:0:0:
262,132,117857,1,2,0:0:0:0:
244,16,117998,2,0,P|201:6|179:6,1,59,2|2,0:0|0:0,0:0:0:0:
69,111,118281,2,0,P|112:101|134:101,1,59,10|2,0:0|0:0,0:0:0:0:
172,240,118564,1,2,0:0:0:0:
180,160,118706,1,2,0:0:0:0:
126,100,118847,1,2,0:0:0:0:
86,328,119130,5,2,0:0:0:0:
331,277,119413,6,0,B|356:274|382:264|382:264|367:274|357:290,1,88.5000033760072,10|2,0:0|0:0,0:0:0:0:
506,96,119980,6,0,B|481:93|455:83|455:83|470:93|480:109,1,88.5000033760072,2|2,0:0|0:0,0:0:0:0:
248,309,120546,6,0,B|267:321|267:321|304:302|364:287,1,118,10|2,0:0|0:0,0:0:0:0:
434,309,120970,1,2,0:0:0:0:
248,225,121112,6,0,B|267:237|267:237|304:218|364:203,1,118,2|2,0:0|0:0,0:0:0:0:
434,225,121536,1,2,0:0:0:0:
248,141,121678,6,0,B|267:153|267:153|304:134|364:119,1,118,10|2,0:0|0:0,0:0:0:0:
434,141,122102,1,0,0:0:0:0:
231,61,122244,6,0,B|195:62|163:79|160:156|137:216|82:230,1,221.25,6|0,0:0|0:0,0:0:0:0:
4,134,122810,2,0,P|17:160|22:189,1,59,10|0,0:0|0:0,0:0:0:0:
6,287,123093,1,2,0:0:0:0:
6,287,123234,1,2,0:0:0:0:
117,343,123376,6,0,P|67:354|52:363,1,59,2|0,0:0|0:0,0:0:0:0:
261,261,123659,2,0,P|233:249|204:246,1,59,2|0,0:0|0:0,0:0:0:0:
280,349,123942,5,10,0:0:0:0:
359,326,124083,1,2,0:0:0:0:
397,252,124225,1,2,0:0:0:0:
476,229,124366,1,2,0:0:0:0:
427,368,124508,6,0,B|437:333|437:333|428:239|442:125,1,221.25,6|0,0:0|0:0,0:0:0:0:
512,25,125074,2,0,P|500:60|496:96,1,59,10|2,0:0|0:0,0:0:0:0:
419,28,125357,1,2,0:0:0:0:
419,28,125498,1,2,0:0:0:0:
331,109,125640,6,0,P|341:157|343:195,1,59,2|0,0:0|0:0,0:0:0:0:
217,296,125923,2,0,P|221:267|229:239,1,59,2|0,0:0|0:0,0:0:0:0:
202,92,126206,5,10,0:0:0:0:
180,171,126347,1,2,0:0:0:0:
229,238,126489,1,2,0:0:0:0:
170,164,126630,1,2,0:0:0:0:
60,311,126772,6,0,B|49:361|134:369|170:324|119:238|92:213,1,221.25,6|0,0:0|0:0,0:0:0:0:
13,146,127338,1,10,0:0:0:0:
13,146,127480,1,2,0:0:0:0:
81,46,127621,6,0,P|141:58|165:84,1,88.5,2|0,0:0|0:0,0:0:0:0:
164,88,127904,2,0,P|144:30|154:-3,1,88.5,2|0,0:0|0:0,0:0:0:0:
161,0,128187,2,0,P|195:16|202:37,1,59,2|0,0:0|0:0,0:0:0:0:
230,136,128470,1,10,0:0:0:0:
230,136,128612,1,2,0:0:0:0:
288,36,128753,2,0,P|298:3|310:-12,2,39.3333333333333,2|2|2,0:0|0:0|0:0,0:0:0:0:
290,49,129036,6,0,P|386:61|499:81,1,206.5,6|0,0:0|0:0,0:0:0:0:
500,91,129602,54,0,B|519:145|470:172|450:169|459:162|389:168|416:249,1,206.5,10|0,0:0|0:0,0:0:0:0:
424,260,130168,1,10,0:0:0:0:
324,142,130310,1,8,0:0:0:0:
331,152,130593,5,8,0:0:0:0:
231,270,130735,1,10,0:0:0:0:
231,270,131017,5,8,0:0:0:0:
331,152,131159,1,8,0:0:0:0:
179,125,131300,6,0,P|146:129|115:134,1,61.9499981094361,6|0,0:0|0:0,0:0:0:0:
