osu file format v14

[General]
AudioFilename: audio.mp3
AudioLeadIn: 0
PreviewTime: 4508
Countdown: 0
SampleSet: Soft
StackLeniency: 0.3
Mode: 0
LetterboxInBreaks: 0
WidescreenStoryboard: 1

[Editor]
DistanceSpacing: 1.1
BeatDivisor: 8
GridSize: 8
TimelineZoom: 2.5

[Metadata]
Title:edamame
TitleUnicode:edamame
Artist:bbno$ & Rich Brian
ArtistUnicode:bbno$ & Rich Brian
Creator:Bakugo-
Version:hanging low
Source:
Tags:english pop rap hip hop hip-hop hiphop kieg enri bakugo arronchu chu arronchu1207 jamesjan3 thexo chompy flake gokugohan12468 kittyadventure eat ya veggies Diamond Pistols Alexander Leon Gumuchian baby no money mula imanuel le mirai SirMirai cacturne soewarno
BeatmapID:3180981
BeatmapSetID:1557107

[Difficulty]
HPDrainRate:5
CircleSize:4.4
OverallDifficulty:9
ApproachRate:9.4
SliderMultiplier:3.4
SliderTickRate:1

[Events]
//Background and Video events
0,0,"88087667_p0.png",0,0
Video,0,"edamame video.mp4"
//Break Periods
//Storyboard Layer 0 (Background)
//Storyboard Layer 1 (Fail)
//Storyboard Layer 2 (Pass)
//Storyboard Layer 3 (Foreground)
//Storyboard Layer 4 (Overlay)
//Storyboard Sound Samples

[TimingPoints]
-4548,566.037735849057,4,2,0,50,1,0
4508,-100,4,2,1,50,0,0
13564,-59.1715976331361,4,2,1,50,0,0
14696,-100,4,2,1,50,0,0
15829,-59.1715976331361,4,2,1,50,0,0
16961,-100,4,2,1,50,0,0
18093,-59.1715976331361,4,2,1,50,0,0
19225,-100,4,2,1,50,0,0
35640,-59.1715976331361,4,2,1,50,0,0
37621,-100,4,2,1,50,0,0
40734,-90.9090909090909,4,2,1,50,0,0
41159,-90.9090909090909,4,2,1,50,0,0
41583,-100,4,2,1,50,0,0
42008,-111.111111111111,4,2,1,50,0,0
42432,-125,4,2,1,50,0,0
42857,-142.857142857143,4,2,1,50,0,0
43281,-166.666666666667,4,2,1,50,0,0
45263,-90.9090909090909,4,2,1,50,0,0
45687,-90.9090909090909,4,2,1,50,0,0
46111,-100,4,2,1,50,0,0
46536,-111.111111111111,4,2,1,50,0,0
46960,-125,4,2,1,50,0,0
47385,-142.857142857143,4,2,1,50,0,0
47809,-166.666666666667,4,2,1,50,0,0
49225,-90.9090909090909,4,2,1,50,0,0
49791,-90.9090909090909,4,2,1,30,0,0
56584,-90.9090909090909,4,2,1,50,0,0
58847,-71.4285714285714,4,2,1,50,0,0
59272,-90.9090909090909,4,2,1,50,0,0
67904,-59.1715976331361,4,2,1,50,0,0
69026,-90.9090909090909,4,2,1,50,0,0
70168,-59.1715976331361,4,2,1,50,0,0
71300,-90.9090909090909,4,2,1,50,0,0
71866,-59.1715976331361,4,2,1,50,0,0
73281,-90.9090909090909,4,2,1,50,0,0
86017,-70.4225352112676,4,2,1,50,0,0
86230,-83.3333333333333,4,2,1,50,0,0
86442,-90.9090909090909,4,2,1,50,0,0
86866,-70.4225352112676,4,2,1,50,0,0
87079,-83.3333333333333,4,2,1,50,0,0
87291,-90.9090909090909,4,2,1,50,0,0
87715,-70.4225352112676,4,2,1,50,0,0
87928,-83.3333333333333,4,2,1,50,0,0
88140,-90.9090909090909,4,2,1,50,0,0
89413,-70.4225352112676,4,2,1,50,0,0
89555,-70.4225352112676,4,2,1,5,0,0
89626,-83.3333333333333,4,2,1,50,0,0
89768,-83.3333333333333,4,2,1,5,0,0
89838,-90.9090909090909,4,2,1,50,0,0
91678,-70.4225352112676,4,2,1,50,0,0
91819,-70.4225352112676,4,2,1,5,0,0
91891,-83.3333333333333,4,2,1,50,0,0
92032,-83.3333333333333,4,2,1,5,0,0
92103,-90.9090909090909,4,2,1,50,0,0
92385,-90.9090909090909,4,2,1,50,0,0
96206,-52.6315789473684,4,2,1,50,0,0
104130,-52.6315789473684,4,2,1,30,0,0
110923,-52.6315789473684,4,2,1,50,0,0
113187,-59.1715976331361,4,2,1,50,0,0
113612,-80,4,2,1,50,0,0
122244,-59.1715976331361,4,2,1,50,0,0
123376,-80,4,2,1,50,0,0
124508,-59.1715976331361,4,2,1,50,0,0
125640,-80,4,2,1,50,0,0
126772,-59.1715976331361,4,2,1,50,0,0
127621,-80,4,2,1,50,0,0
127904,-80,4,2,1,50,0,0

[Colours]
Combo1 : 103,175,90
Combo2 : 227,254,75
Combo3 : 134,221,77

[HitObjects]
240,48,4508,6,0,L|226:151,1,85,6|0,0:0|0:0,0:0:0:0:
261,264,4791,1,2,0:0:0:0:
366,178,4932,1,2,0:0:0:0:
135,253,5074,6,0,L|146:168,1,85,10|0,0:0|0:0,0:0:0:0:
92,52,5357,1,2,0:0:0:0:
20,157,5498,1,0,0:0:0:0:
30,321,5640,5,2,0:0:0:0:
145,168,5781,1,2,0:0:0:0:
159,359,5923,1,2,0:0:0:0:
20,157,6206,5,10,0:0:0:0:
106,292,6347,1,2,0:0:0:0:
253,225,6489,1,2,0:0:0:0:
361,70,6772,6,0,L|265:57,1,85,2|0,0:0|0:0,0:0:0:0:
450,189,7055,2,0,L|354:176,1,85,2|2,0:0|0:0,0:0:0:0:
362,306,7338,2,0,B|386:293|386:293|401:318|401:318|375:332|375:332,1,85,10|0,0:0|0:0,0:0:0:0:
145,314,7621,6,0,B|130:279|130:279|144:217,1,85,2|0,0:0|0:0,0:0:0:0:
257,305,7904,2,0,B|267:259|267:259|252:224,1,85,2|0,0:0|0:0,0:0:0:0:
198,71,8187,1,2,0:0:0:0:
273,152,8329,1,2,0:0:0:0:
382,139,8470,1,10,0:0:0:0:
430,39,8612,1,2,0:0:0:0:
314,54,8753,1,2,0:0:0:0:
314,54,9036,5,6,0:0:0:0:
382,139,9178,1,2,0:0:0:0:
356,246,9319,1,2,0:0:0:0:
252,285,9461,1,2,0:0:0:0:
273,152,9602,5,10,0:0:0:0:
252,285,9744,1,2,0:0:0:0:
79,151,9885,1,2,0:0:0:0:
100,284,10027,1,2,0:0:0:0:
179,81,10168,6,0,B|191:38|191:38|170:-2,1,85,2|0,0:0|0:0,0:0:0:0:
14,50,10451,2,0,L|100:47,1,85,2|0,0:0|0:0,0:0:0:0:
322,87,10734,6,0,B|310:44|310:44|331:4,1,85,10|2,0:0|0:0,0:0:0:0:
487,56,11017,2,0,L|401:53,1,85,2|0,0:0|0:0,0:0:0:0:
199,176,11300,6,0,L|112:162,1,85,2|0,0:0|0:0,0:0:0:0:
298,178,11583,2,0,L|385:164,1,85,2|0,0:0|0:0,0:0:0:0:
223,323,11866,2,0,B|251:289|251:289|284:334,1,85,10|0,0:0|0:0,0:0:0:0:
112,343,12149,5,2,0:0:0:0:
374,349,12291,1,2,0:0:0:0:
199,176,12432,1,2,0:0:0:0:
150,247,12574,1,2,0:0:0:0:
347,249,12715,1,2,0:0:0:0:
298,178,12857,1,2,0:0:0:0:
169,68,12998,5,10,0:0:0:0:
252,288,13140,1,2,0:0:0:0:
335,68,13281,1,2,0:0:0:0:
17,232,13564,6,0,B|62:240|62:240|83:172|83:172|61:166|61:166|53:171|53:171|29:165|29:165|52:93|52:93|108:108,1,287.300005370216,6|2,0:0|0:0,0:0:0:0:
199,176,13989,1,0,0:0:0:0:
190,155,14130,1,10,0:0:0:0:
252,288,14413,1,2,0:0:0:0:
243,309,14554,1,2,0:0:0:0:
347,188,14696,6,0,L|445:172,1,85,2|0,0:0|0:0,0:0:0:0:
388,100,14980,2,0,L|486:84,1,85,2|0,0:0|0:0,0:0:0:0:
453,274,15263,1,10,0:0:0:0:
402,341,15404,1,2,0:0:0:0:
316,345,15546,1,2,0:0:0:0:
252,288,15687,1,2,0:0:0:0:
347,188,15829,6,0,B|286:191|290:273|393:281|435:220|442:168|420:119|374:90,1,287.300005370216,6|2,0:0|0:0,0:0:0:0:
292,48,16253,1,0,0:0:0:0:
296,61,16395,1,10,0:0:0:0:
299,74,16536,1,2,0:0:0:0:
216,48,16678,1,2,0:0:0:0:
147,100,16819,1,2,0:0:0:0:
144,186,16961,6,0,L|38:168,1,85,2|0,0:0|0:0,0:0:0:0:
198,285,17244,2,0,L|92:267,1,85,2|0,0:0|0:0,0:0:0:0:
266,349,17527,1,10,0:0:0:0:
348,305,17669,1,2,0:0:0:0:
331,214,17810,1,2,0:0:0:0:
238,200,17952,1,2,0:0:0:0:
198,285,18093,6,0,B|270:223|200:132|183:182|120:85|202:5,1,287.300005370216,6|2,0:0|0:0,0:0:0:0:
301,44,18517,1,0,0:0:0:0:
279,35,18659,1,10,0:0:0:0:
319,126,18800,1,2,0:0:0:0:
417,149,18942,1,2,0:0:0:0:
492,82,19083,1,2,0:0:0:0:
338,227,19225,6,0,L|320:329,1,85,2|0,0:0|0:0,0:0:0:0:
432,317,19508,1,2,0:0:0:0:
425,294,19649,1,0,0:0:0:0:
338,227,19791,1,10,0:0:0:0:
229,246,19932,1,2,0:0:0:0:
174,342,20074,5,2,0:0:0:0:
126,322,20168,5,2,0:0:0:0:
118,271,20263,5,2,0:0:0:0:
152,233,20357,5,6,0:0:0:0:
152,233,20923,5,10,0:0:0:0:
57,124,21489,5,10,0:0:0:0:
56,132,21630,1,8,0:0:0:0:
147,23,21913,5,8,0:0:0:0:
148,31,22054,1,10,0:0:0:0:
283,136,22338,5,8,0:0:0:0:
262,210,22480,1,8,0:0:0:0:
244,284,22621,2,0,L|334:271,1,85,6|0,0:0|0:0,0:0:0:0:
424,243,22904,1,2,0:0:0:0:
419,258,23046,1,2,0:0:0:0:
468,98,23329,5,2,0:0:0:0:
401,59,23471,1,2,0:0:0:0:
326,73,23612,1,2,0:0:0:0:
283,136,23754,1,2,0:0:0:0:
389,160,23895,1,2,0:0:0:0:
223,90,24178,5,2,0:0:0:0:
283,136,24319,1,10,0:0:0:0:
289,212,24461,1,2,0:0:0:0:
253,279,24602,1,2,0:0:0:0:
185,189,24744,2,0,B|123:173|123:173|87:187|87:187|-3:162,1,170,2|2,0:0|0:0,0:0:0:0:
91,71,25168,1,2,0:0:0:0:
97,87,25310,1,2,0:0:0:0:
105,104,25451,5,10,0:0:0:0:
116,179,25593,1,2,0:0:0:0:
122,254,25734,1,2,0:0:0:0:
129,330,25876,1,2,0:0:0:0:
253,279,26159,5,2,0:0:0:0:
329,225,26300,1,2,0:0:0:0:
418,254,26442,1,2,0:0:0:0:
437,345,26583,1,10,0:0:0:0:
437,345,26725,1,2,0:0:0:0:
418,254,26866,1,2,0:0:0:0:
329,225,27008,1,2,0:0:0:0:
253,279,27150,6,0,L|236:176,1,85,2|2,0:0|0:0,0:0:0:0:
159,165,27433,2,0,L|256:201,1,85,2|2,0:0|0:0,0:0:0:0:
313,93,27716,1,10,0:0:0:0:
165,80,27857,5,2,0:0:0:0:
92,123,27998,1,2,0:0:0:0:
79,207,28140,1,2,0:0:0:0:
130,280,28281,2,0,B|147:309|147:309|117:377,1,85,2|0,0:0|0:0,0:0:0:0:
253,279,28564,2,0,B|236:308|236:308|266:376,1,85,2|2,0:0|0:0,0:0:0:0:
191,214,28847,1,10,0:0:0:0:
191,128,28989,1,2,0:0:0:0:
153,18,29130,2,0,B|189:44|189:44|223:19,1,85,2|0,0:0|0:0,0:0:0:0:
355,62,29413,5,2,0:0:0:0:
440,101,29555,1,2,0:0:0:0:
442,194,29696,1,2,0:0:0:0:
358,149,29980,5,10,0:0:0:0:
358,149,30121,1,2,0:0:0:0:
361,242,30263,1,2,0:0:0:0:
441,288,30404,1,2,0:0:0:0:
295,315,30546,5,2,0:0:0:0:
361,242,30687,1,2,0:0:0:0:
441,288,30829,1,2,0:0:0:0:
277,191,30970,2,0,B|209:179|209:179|173:194|173:194|91:176,1,170,2|2,0:0|0:0,0:0:0:0:
128,78,31395,1,2,0:0:0:0:
128,78,31678,5,6,0:0:0:0:
65,146,31819,1,2,0:0:0:0:
98,233,31961,2,0,B|111:266|111:266|87:325,1,85,2|0,0:0|0:0,0:0:0:0:
181,340,32244,1,10,0:0:0:0:
272,324,32385,1,2,0:0:0:0:
222,244,32527,1,2,0:0:0:0:
313,228,32668,1,2,0:0:0:0:
365,305,32810,5,2,0:0:0:0:
409,223,32951,1,2,0:0:0:0:
389,123,33093,6,0,B|355:154|355:154|314:123,1,85,2|0,0:0|0:0,0:0:0:0:
405,43,33376,1,10,0:0:0:0:
421,37,33517,1,2,0:0:0:0:
436,30,33659,1,2,0:0:0:0:
351,19,33800,1,2,0:0:0:0:
266,9,33942,5,2,0:0:0:0:
290,98,34083,1,2,0:0:0:0:
177,157,34225,1,2,0:0:0:0:
201,68,34366,1,2,0:0:0:0:
293,183,34508,5,10,0:0:0:0:
317,272,34649,1,2,0:0:0:0:
204,331,34791,1,2,0:0:0:0:
228,242,34932,1,2,0:0:0:0:
288,359,35074,5,2,0:0:0:0:
145,271,35215,1,2,0:0:0:0:
369,205,35357,1,2,0:0:0:0:
95,164,35640,6,0,B|169:129|147:223|68:258|5:213|21:135|56:64|112:44,1,287.300005370216,10|2,0:0|0:0,0:0:0:0:
159,25,36064,1,2,0:0:0:0:
165,37,36206,1,2,0:0:0:0:
237,82,36347,1,2,0:0:0:0:
323,78,36489,1,2,0:0:0:0:
395,32,36630,1,2,0:0:0:0:
204,173,36772,5,10,0:0:0:0:
237,82,36913,1,2,0:0:0:0:
271,243,37055,5,2,0:0:0:0:
175,259,37196,1,2,0:0:0:0:
299,158,37338,5,2,0:0:0:0:
360,233,37479,1,2,0:0:0:0:
275,327,37621,6,0,L|268:183,1,85,2|0,0:0|0:0,0:0:0:0:
179,343,37904,2,0,L|172:199,1,85,10|0,0:0|0:0,0:0:0:0:
92,130,38187,5,2,0:0:0:0:
68,154,38281,5,2,0:0:0:0:
59,187,38376,5,2,0:0:0:0:
65,220,38470,5,6,0:0:0:0:
182,133,39036,5,10,0:0:0:0:
36,24,39602,5,10,0:0:0:0:
40,42,39744,1,8,0:0:0:0:
186,115,40027,5,8,0:0:0:0:
182,133,40169,1,10,0:0:0:0:
178,343,40451,5,8,0:0:0:0:
170,307,40593,1,8,0:0:0:0:
164,273,40734,6,0,L|262:261,1,93.5000028533936,14|0,0:0|0:0,0:0:0:0:
365,205,41017,5,2,0:0:0:0:
274,144,41159,2,0,L|176:132,1,93.5000028533936,2|8,0:0|0:0,0:0:0:0:
82,60,41442,5,2,0:0:0:0:
199,30,41583,2,0,L|297:18,1,85,2|0,0:0|0:0,0:0:0:0:
413,54,41866,5,2,0:0:0:0:
487,241,42008,2,0,L|463:131,1,76.4999976654053,2|0,0:0|0:0,0:0:0:0:
413,54,42291,5,2,0:0:0:0:
354,248,42432,2,0,L|378:138,1,68,10|0,0:0|0:0,0:0:0:0:
421,324,42715,5,2,0:0:0:0:
294,360,42857,2,0,L|197:353,1,59.4999981842042,2|0,0:0|0:0,0:0:0:0:
35,300,43140,5,2,0:0:0:0:
162,264,43282,2,0,L|259:271,1,50.9999984436036,2|0,0:0|0:0,0:0:0:0:
59,66,43564,5,10,0:0:0:0:
82,205,43706,1,2,0:0:0:0:
412,74,43989,5,2,0:0:0:0:
309,35,44131,1,2,0:0:0:0:
290,363,44413,5,2,0:0:0:0:
314,344,44555,1,2,0:0:0:0:
335,326,44696,5,10,0:0:0:0:
371,249,44838,1,2,0:0:0:0:
315,185,44980,1,2,0:0:0:0:
231,191,45121,1,2,0:0:0:0:
179,273,45263,2,0,P|151:237|145:184,1,93.5000028533936,2|0,0:0|0:0,0:0:0:0:
148,91,45546,5,2,0:0:0:0:
74,160,45687,2,0,P|43:194|0:210,1,93.5000028533936,2|8,0:0|0:0,0:0:0:0:
48,348,45970,5,2,0:0:0:0:
175,357,46112,2,0,P|223:343|252:310,1,85,2|0,0:0|0:0,0:0:0:0:
231,191,46395,5,2,0:0:0:0:
452,118,46536,2,0,P|403:106|352:110,1,76.4999976654053,2|0,0:0|0:0,0:0:0:0:
231,191,46819,5,2,0:0:0:0:
441,282,46961,2,0,P|376:280|349:272,1,68,10|0,0:0|0:0,0:0:0:0:
375,184,47244,5,2,0:0:0:0:
267,71,47385,2,0,P|239:61|191:62,1,59.4999981842042,2|0,0:0|0:0,0:0:0:0:
25,144,47668,5,2,0:0:0:0:
128,265,47810,2,0,P|162:274|199:274,1,50.9999984436036,2|0,0:0|0:0,0:0:0:0:
299,311,48093,1,10,0:0:0:0:
223,346,48234,1,2,0:0:0:0:
282,119,48517,5,2,0:0:0:0:
375,184,48658,1,2,0:0:0:0:
128,265,48942,5,2,0:0:0:0:
168,138,49083,1,0,0:0:0:0:
25,200,49225,2,0,L|-4:97,1,93.5000028533936,10|2,0:0|0:0,0:0:0:0:
256,209,49508,2,0,L|281:118,1,93.5000028533936,2|2,0:0|0:0,0:0:0:0:
155,4,49791,5,2,0:0:0:0:
73,42,50074,1,2,0:0:0:0:
73,42,50215,1,2,0:0:0:0:
73,42,50357,1,10,0:0:0:0:
67,135,50640,1,2,0:0:0:0:
143,188,50923,1,2,0:0:0:0:
200,261,51206,1,2,0:0:0:0:
200,261,51347,1,2,0:0:0:0:
200,261,51489,1,10,0:0:0:0:
147,338,51772,1,2,0:0:0:0:
457,216,52055,5,2,0:0:0:0:
419,134,52338,1,2,0:0:0:0:
419,134,52479,1,2,0:0:0:0:
419,134,52621,1,10,0:0:0:0:
326,128,52904,1,2,0:0:0:0:
273,204,53187,1,2,0:0:0:0:
200,261,53470,1,2,0:0:0:0:
200,261,53611,1,2,0:0:0:0:
200,261,53753,1,10,0:0:0:0:
123,208,54036,1,2,0:0:0:0:
374,209,54319,5,2,0:0:0:0:
326,128,54602,1,2,0:0:0:0:
326,128,54744,1,2,0:0:0:0:
326,128,54885,1,10,0:0:0:0:
273,204,55168,1,2,0:0:0:0:
325,289,55451,1,2,0:0:0:0:
255,351,55734,1,2,0:0:0:0:
255,351,55876,1,2,0:0:0:0:
255,351,56017,1,10,0:0:0:0:
176,300,56300,5,2,0:0:0:0:
153,277,56395,5,2,0:0:0:0:
143,247,56489,5,2,0:0:0:0:
144,216,56583,5,6,0:0:0:0:
86,109,57149,1,10,0:0:0:0:
266,113,57715,1,10,0:0:0:0:
271,129,57857,1,8,0:0:0:0:
165,23,58140,1,8,0:0:0:0:
160,39,58282,1,10,0:0:0:0:
338,47,58564,1,8,0:0:0:0:
356,42,58706,1,8,0:0:0:0:
375,35,58847,6,0,B|384:-5|463:-9|479:35|470:80|457:111|431:149|386:183,1,237.999992736817,6|2,0:0|0:0,0:0:0:0:
387,261,59272,1,2,0:0:0:0:
291,200,59413,6,0,L|184:187,1,93.5000028533936,10|0,0:0|0:0,0:0:0:0:
96,207,59696,1,2,0:0:0:0:
161,286,59838,1,0,0:0:0:0:
250,95,59980,5,2,0:0:0:0:
96,207,60121,1,2,0:0:0:0:
246,318,60263,1,2,0:0:0:0:
113,49,60546,5,10,0:0:0:0:
291,200,60688,1,2,0:0:0:0:
116,354,60829,1,2,0:0:0:0:
250,95,61112,6,0,B|294:74|294:74|348:86,1,93.5000028533936,2|0,0:0|0:0,0:0:0:0:
291,200,61395,2,0,B|334:209|334:209|378:188,1,93.5000028533936,2|2,0:0|0:0,0:0:0:0:
462,118,61678,2,0,P|454:119|468:114,1,93.5000028533936,10|0,0:0|0:0,0:0:0:0:
219,261,61961,2,0,B|203:213|203:213|215:160,1,93.5000028533936,2|0,0:0|0:0,0:0:0:0:
309,368,62244,2,0,B|325:320|325:320|313:267,1,93.5000028533936,2|0,0:0|0:0,0:0:0:0:
187,328,62527,5,2,0:0:0:0:
111,272,62668,1,2,0:0:0:0:
106,178,62810,1,10,0:0:0:0:
175,116,62951,1,2,0:0:0:0:
111,353,63093,1,2,0:0:0:0:
330,136,63376,5,6,0:0:0:0:
417,103,63517,1,2,0:0:0:0:
341,231,63659,5,2,0:0:0:0:
254,198,63800,1,2,0:0:0:0:
432,203,63942,5,10,0:0:0:0:
464,290,64083,1,2,0:0:0:0:
397,356,64225,1,2,0:0:0:0:
306,334,64366,1,2,0:0:0:0:
241,105,64508,6,0,L|254:198,1,93.5000028533936,2|0,0:0|0:0,0:0:0:0:
186,35,64791,2,0,B|230:14|230:14|288:25,1,93.5000028533936,2|0,0:0|0:0,0:0:0:0:
104,68,65074,2,0,B|126:110|126:110|171:124,1,93.5000028533936,10|2,0:0|0:0,0:0:0:0:
371,38,65357,2,0,B|355:82|355:82|313:103,1,93.5000028533936,2|0,0:0|0:0,0:0:0:0:
252,197,65640,5,2,0:0:0:0:
304,250,65781,1,0,0:0:0:0:
240,359,65923,1,2,0:0:0:0:
306,334,66064,1,0,0:0:0:0:
162,184,66206,2,0,L|63:170,1,93.5000028533936,10|0,0:0|0:0,0:0:0:0:
140,69,66489,1,2,0:0:0:0:
127,53,66630,1,2,0:0:0:0:
110,37,66772,5,2,0:0:0:0:
208,9,66913,1,2,0:0:0:0:
281,81,67055,1,2,0:0:0:0:
244,176,67196,1,2,0:0:0:0:
345,158,67338,5,10,0:0:0:0:
281,81,67480,1,2,0:0:0:0:
180,101,67621,1,2,0:0:0:0:
140,274,67904,6,0,B|190:271|206:203|164:158|98:158|47:184|12:227|9:278|41:317,1,287.300005370216,6|2,0:0|0:0,0:0:0:0:
223,360,68329,1,0,0:0:0:0:
216,343,68470,1,10,0:0:0:0:
345,158,68753,1,2,0:0:0:0:
332,188,68894,1,2,0:0:0:0:
327,85,69036,6,0,P|370:86|415:125,1,93.5000028533936,2|0,0:0|0:0,0:0:0:0:
345,264,69319,2,0,P|299:261|262:233,1,93.5000028533936,2|0,0:0|0:0,0:0:0:0:
440,203,69602,5,10,0:0:0:0:
436,229,69744,1,2,0:0:0:0:
242,157,69885,5,2,0:0:0:0:
238,131,70027,1,2,0:0:0:0:
430,253,70168,6,0,B|370:190|286:254|321:273|232:330|159:245,1,287.300005370216,6|2,0:0|0:0,0:0:0:0:
84,175,70593,1,0,0:0:0:0:
81,203,70734,1,10,0:0:0:0:
78,231,70876,1,2,0:0:0:0:
11,155,71017,1,2,0:0:0:0:
87,89,71159,1,2,0:0:0:0:
184,173,71300,6,0,L|356:190,1,93.5000028533936,2|0,0:0|0:0,0:0:0:0:
285,96,71583,2,0,L|457:113,1,93.5000028533936,2|0,0:0|0:0,0:0:0:0:
486,0,71866,6,0,B|447:53|483:95|551:137|476:167|439:198|490:285,1,287.300005370216,10|2,0:0|0:0,0:0:0:0:
415,340,72291,1,2,0:0:0:0:
203,304,72432,6,0,B|136:298|126:237|156:176|226:174|277:193|312:235|303:296,1,287.300005370216,6|2,0:0|0:0,0:0:0:0:
272,363,72857,1,0,0:0:0:0:
75,309,72998,5,10,0:0:0:0:
19,232,73140,1,2,0:0:0:0:
33,142,73281,6,0,B|74:165|74:165|131:146,1,93.5000028533936,2|2,0:0|0:0,0:0:0:0:
45,37,73564,2,0,B|89:22|89:22|130:45,1,93.5000028533936,2|0,0:0|0:0,0:0:0:0:
206,106,73847,1,2,0:0:0:0:
289,116,73989,1,0,0:0:0:0:
371,129,74130,1,10,0:0:0:0:
454,140,74272,1,2,0:0:0:0:
305,303,74413,5,2,0:0:0:0:
291,261,74508,5,2,0:0:0:0:
304,219,74602,5,2,0:0:0:0:
341,196,74696,5,6,0:0:0:0:
410,324,75263,5,10,0:0:0:0:
215,293,75829,5,10,0:0:0:0:
222,314,75970,1,8,0:0:0:0:
221,188,76253,5,8,0:0:0:0:
235,171,76394,1,10,0:0:0:0:
115,226,76678,5,8,0:0:0:0:
94,223,76819,1,8,0:0:0:0:
75,220,76961,5,6,0:0:0:0:
40,133,77102,1,2,0:0:0:0:
97,58,77244,1,2,0:0:0:0:
190,57,77385,1,2,0:0:0:0:
355,184,77527,5,10,0:0:0:0:
297,257,77668,1,2,0:0:0:0:
203,245,77810,1,2,0:0:0:0:
156,165,77951,1,2,0:0:0:0:
241,350,78093,6,0,L|249:256,1,93.5000028533936,2|0,0:0|0:0,0:0:0:0:
261,155,78376,1,2,0:0:0:0:
265,127,78517,1,2,0:0:0:0:
270,99,78659,5,10,0:0:0:0:
369,74,78800,1,2,0:0:0:0:
432,155,78942,2,0,L|414:262,1,93.5000028533936,2|0,0:0|0:0,0:0:0:0:
362,335,79225,5,2,0:0:0:0:
305,286,79366,1,2,0:0:0:0:
230,278,79508,1,2,0:0:0:0:
163,311,79649,1,2,0:0:0:0:
262,348,79791,5,10,0:0:0:0:
230,278,79932,1,2,0:0:0:0:
237,203,80074,1,2,0:0:0:0:
273,138,80215,1,2,0:0:0:0:
432,155,80357,6,0,P|390:180|333:178,1,93.5000028533936,2|0,0:0|0:0,0:0:0:0:
347,27,80640,1,2,0:0:0:0:
350,45,80781,1,2,0:0:0:0:
353,63,80923,5,10,0:0:0:0:
261,45,81064,1,2,0:0:0:0:
194,110,81206,2,0,B|189:60|189:60|147:34,1,93.5000028533936,2|0,0:0|0:0,0:0:0:0:
106,108,81489,5,2,0:0:0:0:
63,180,81630,1,2,0:0:0:0:
91,259,81772,1,2,0:0:0:0:
169,288,81913,1,2,0:0:0:0:
297,217,82055,5,10,0:0:0:0:
223,176,82196,1,2,0:0:0:0:
139,189,82338,1,2,0:0:0:0:
91,259,82480,1,2,0:0:0:0:
169,288,82621,6,0,B|219:284|219:284|265:318,1,93.5000028533936,2|0,0:0|0:0,0:0:0:0:
331,283,82904,1,2,0:0:0:0:
366,355,83046,2,0,B|416:359|416:359|450:333,1,93.5000028533936,2|8,0:0|0:0,0:0:0:0:
485,266,83329,1,2,0:0:0:0:
463,185,83470,1,2,0:0:0:0:
438,104,83612,1,2,0:0:0:0:
407,25,83753,5,2,0:0:0:0:
356,92,83895,1,2,0:0:0:0:
380,172,84036,1,2,0:0:0:0:
463,185,84178,1,2,0:0:0:0:
438,104,84319,5,10,0:0:0:0:
356,92,84461,1,0,0:0:0:0:
301,155,84602,1,2,0:0:0:0:
320,237,84744,1,2,0:0:0:0:
219,204,84885,6,0,B|170:194|170:194|126:219,1,93.5000028533936,2|0,0:0|0:0,0:0:0:0:
320,237,85168,1,2,0:0:0:0:
235,301,85310,2,0,B|197:322|197:322|148:312,1,93.5000028533936,2|10,0:0|0:0,0:0:0:0:
51,261,85593,1,2,0:0:0:0:
43,234,85734,1,2,0:0:0:0:
36,206,85876,1,2,0:0:0:0:
55,81,86017,6,0,L|177:67,1,120.699993922272,6|0,0:0|0:0,0:0:0:0:
228,91,86230,2,0,L|116:103,1,101.999996887207,2|0,0:0|0:0,0:0:0:0:
286,38,86442,2,0,B|310:78|310:78|295:136,1,93.5000028533936,2|10,0:0|0:0,0:0:0:0:
223,211,86725,1,2,0:0:0:0:
113,311,86866,6,0,L|235:325,1,120.699993922272,2|2,0:0|0:0,0:0:0:0:
286,301,87079,2,0,L|174:289,1,101.999996887207,2|0,0:0|0:0,0:0:0:0:
347,353,87291,2,0,B|371:313|371:313|356:255,1,93.5000028533936,2|0,0:0|0:0,0:0:0:0:
320,203,87574,1,2,0:0:0:0:
258,146,87715,6,0,P|199:136|146:169,1,120.699993922272,10|2,0:0|0:0,0:0:0:0:
126,200,87928,2,0,P|157:161|156:109,1,101.999996887207
187,35,88140,2,0,P|234:62|290:53,1,93.5000028533936,2|0,0:0|0:0,0:0:0:0:
307,39,88423,5,2,0:0:0:0:
406,65,88564,1,2,0:0:0:0:
463,151,88706,1,2,0:0:0:0:
427,247,88847,1,10,0:0:0:0:
327,276,88989,1,2,0:0:0:0:
241,219,89130,1,2,0:0:0:0:
151,167,89272,1,2,0:0:0:0:
58,212,89413,6,0,L|42:341,1,120.699993922272,2|0,0:0|0:0,0:0:0:0:
71,380,89626,2,0,L|85:260,1,101.999996887207,2|0,0:0|0:0,0:0:0:0:
172,283,89838,2,0,B|154:331|154:331|181:375,1,93.5000028533936,2|10,0:0|0:0,0:0:0:0:
268,320,90121,1,2,0:0:0:0:
303,174,90263,1,2,0:0:0:0:
434,113,90404,1,2,0:0:0:0:
447,100,90546,5,2,0:0:0:0:
399,30,90687,1,2,0:0:0:0:
315,20,90829,1,2,0:0:0:0:
242,61,90970,1,2,0:0:0:0:
205,137,91112,1,10,0:0:0:0:
126,165,91253,1,2,0:0:0:0:
139,81,91395,5,2,0:0:0:0:
128,244,91536,1,2,0:0:0:0:
268,322,91678,6,0,L|284:193,1,120.699993922272,2|2,0:0|0:0,0:0:0:0:
319,252,91891,2,0,L|305:372,1,101.999996887207,2|0,0:0|0:0,0:0:0:0:
432,257,92103,2,0,B|415:301|415:301|441:349,1,93.5000028533936,2|10,0:0|0:0,0:0:0:0:
490,297,92385,1,2,0:0:0:0:
394,169,92527,5,2,0:0:0:0:
367,142,92621,5,2,0:0:0:0:
330,136,92715,5,2,0:0:0:0:
292,143,92810,5,6,0:0:0:0:
383,352,93376,1,10,0:0:0:0:
103,235,93942,5,10,0:0:0:0:
109,254,94083,1,8,0:0:0:0:
196,79,94366,5,8,0:0:0:0:
196,79,95074,5,6,0:0:0:0:
288,42,95215,1,2,0:0:0:0:
244,187,95357,1,2,0:0:0:0:
109,120,95498,1,2,0:0:0:0:
307,126,95640,1,10,0:0:0:0:
160,198,95781,1,2,0:0:0:0:
262,218,95923,1,2,0:0:0:0:
227,155,96064,1,2,0:0:0:0:
211,301,96206,6,0,B|254:271|299:307|279:311|318:346|366:319,1,161.499995687485,2|0,0:0|0:0,0:0:0:0:
350,244,96489,2,0,B|297:250|288:308|305:297|300:349|246:361,1,161.499995687485,2|0,0:0|0:0,0:0:0:0:
211,301,96772,2,0,B|254:271|299:307|279:311|318:346|366:319,1,161.499995687485,10|0,0:0|0:0,0:0:0:0:
350,244,97055,2,0,B|297:250|288:308|305:297|300:349|246:361,1,161.499995687485,2|0,0:0|0:0,0:0:0:0:
262,218,97338,5,2,0:0:0:0:
299,146,97480,1,2,0:0:0:0:
266,72,97621,1,2,0:0:0:0:
188,48,97763,1,2,0:0:0:0:
23,120,97904,5,10,0:0:0:0:
66,188,98046,1,2,0:0:0:0:
147,196,98187,1,2,0:0:0:0:
207,140,98329,1,2,0:0:0:0:
438,203,98470,6,0,B|395:173|350:209|370:213|331:248|283:221,1,161.499995687485,2|0,0:0|0:0,0:0:0:0:
299,146,98753,2,0,B|351:151|360:209|343:198|348:250|402:262,1,161.499995687485,2|0,0:0|0:0,0:0:0:0:
438,203,99036,1,2,0:0:0:0:
299,146,99319,1,2,0:0:0:0:
391,104,99602,5,2,0:0:0:0:
327,53,99744,1,2,0:0:0:0:
248,70,99885,1,2,0:0:0:0:
207,140,100027,1,2,0:0:0:0:
299,146,100168,5,10,0:0:0:0:
248,70,100310,1,0,0:0:0:0:
150,60,100451,1,2,0:0:0:0:
83,127,100593,1,2,0:0:0:0:
204,286,100734,6,0,B|172:205|172:205|216:121,1,161.499995687485,2|0,0:0|0:0,0:0:0:0:
291,286,101017,2,0,B|323:205|323:205|279:121,1,161.499995687485,2|0,0:0|0:0,0:0:0:0:
204,286,101300,2,0,B|172:205|172:205|216:121,1,161.499995687485,10|0,0:0|0:0,0:0:0:0:
291,286,101583,2,0,B|323:205|323:205|279:121,1,161.499995687485,2|0,0:0|0:0,0:0:0:0:
225,65,101866,5,2,0:0:0:0:
304,9,102008,1,2,0:0:0:0:
389,53,102149,1,2,0:0:0:0:
386,150,102291,1,2,0:0:0:0:
475,114,102432,5,10,0:0:0:0:
389,53,102574,1,2,0:0:0:0:
304,99,102715,1,2,0:0:0:0:
296,195,102857,1,2,0:0:0:0:
453,271,102998,6,0,P|384:262|297:328,1,161.499995687485,2|0,0:0|0:0,0:0:0:0:
151,157,103281,2,0,P|216:201|295:194,1,161.499995687485,2|0,0:0|0:0,0:0:0:0:
453,271,103564,2,0,P|384:262|297:328,1,161.499995687485,10|0,0:0|0:0,0:0:0:0:
151,157,103847,2,0,P|216:201|295:194,1,161.499995687485,2|0,0:0|0:0,0:0:0:0:
230,48,104130,5,2,0:0:0:0:
135,27,104413,1,2,0:0:0:0:
69,98,104696,1,10,0:0:0:0:
113,184,104980,1,2,0:0:0:0:
113,184,105121,1,2,0:0:0:0:
113,184,105263,1,2,0:0:0:0:
190,242,105546,1,2,0:0:0:0:
183,338,105829,1,10,0:0:0:0:
91,369,106112,1,2,0:0:0:0:
434,323,106395,5,2,0:0:0:0:
455,228,106678,1,2,0:0:0:0:
384,162,106961,1,10,0:0:0:0:
298,206,107245,1,2,0:0:0:0:
298,206,107386,1,2,0:0:0:0:
298,206,107528,1,2,0:0:0:0:
240,283,107811,1,2,0:0:0:0:
144,276,108094,1,10,0:0:0:0:
113,184,108377,1,2,0:0:0:0:
256,46,108659,5,2,0:0:0:0:
162,20,108942,1,2,0:0:0:0:
94,89,109225,1,10,0:0:0:0:
148,169,109508,1,2,0:0:0:0:
148,169,109649,1,2,0:0:0:0:
148,169,109791,1,2,0:0:0:0:
244,156,110074,1,2,0:0:0:0:
333,192,110357,1,10,0:0:0:0:
367,283,110640,5,2,0:0:0:0:
402,259,110734,5,2,0:0:0:0:
416,218,110829,5,2,0:0:0:0:
408,175,110923,5,6,0:0:0:0:
223,335,111489,5,10,0:0:0:0:
80,150,112055,5,10,0:0:0:0:
86,171,112196,1,8,0:0:0:0:
204,53,112480,5,8,0:0:0:0:
198,74,112621,1,10,0:0:0:0:
278,189,112904,5,8,0:0:0:0:
291,163,113046,1,8,0:0:0:0:
395,326,113187,6,0,B|469:314|472:253|414:191|327:228|263:268|254:349|273:378,1,287.300005370216,6|2,0:0|0:0,0:0:0:0:
169,361,113612,1,2,0:0:0:0:
66,306,113753,6,0,L|51:180,1,106.25,10|0,0:0|0:0,0:0:0:0:
101,70,114036,1,2,0:0:0:0:
112,92,114178,1,0,0:0:0:0:
126,115,114319,5,2,0:0:0:0:
307,105,114461,1,2,0:0:0:0:
224,264,114602,1,2,0:0:0:0:
219,33,114885,5,10,0:0:0:0:
115,233,115026,1,2,0:0:0:0:
343,221,115168,1,2,0:0:0:0:
485,46,115451,6,0,L|370:32,1,106.25,2|0,0:0|0:0,0:0:0:0:
412,117,115734,2,0,L|297:103,1,106.25,2|2,0:0|0:0,0:0:0:0:
216,173,116017,2,0,P|207:176|225:160,1,106.25,10|0,0:0|0:0,0:0:0:0:
384,275,116300,6,0,B|348:241|348:241|292:243,1,106.25,2|0,0:0|0:0,0:0:0:0:
343,358,116583,2,0,B|287:360|287:360|250:325,1,106.25,2|0,0:0|0:0,0:0:0:0:
180,260,116866,1,2,0:0:0:0:
172,279,117008,1,2,0:0:0:0:
164,298,117149,5,10,0:0:0:0:
87,208,117291,1,2,0:0:0:0:
166,122,117432,1,2,0:0:0:0:
330,136,117715,5,6,0:0:0:0:
417,103,117856,1,2,0:0:0:0:
341,231,117998,5,2,0:0:0:0:
254,198,118139,1,2,0:0:0:0:
432,203,118281,5,10,0:0:0:0:
464,290,118422,1,2,0:0:0:0:
397,356,118564,1,2,0:0:0:0:
306,334,118705,1,2,0:0:0:0:
241,105,118847,6,0,L|256:215,1,106.25,2|0,0:0|0:0,0:0:0:0:
183,33,119130,2,0,B|227:12|227:12|285:23,1,106.25,2|0,0:0|0:0,0:0:0:0:
92,52,119413,2,0,B|117:100|117:100|168:116,1,106.25,10|2,0:0|0:0,0:0:0:0:
378,27,119696,2,0,B|359:78|359:78|310:103,1,106.25,2|0,0:0|0:0,0:0:0:0:
188,286,119980,6,0,L|161:180,1,106.25,2|0,0:0|0:0,0:0:0:0:
310,295,120263,2,0,L|337:189,1,106.25,2|0,0:0|0:0,0:0:0:0:
162,184,120545,2,0,L|51:168,1,106.25,10|0,0:0|0:0,0:0:0:0:
336,192,120829,5,2,0:0:0:0:
423,164,120970,1,2,0:0:0:0:
345,109,121112,5,2,0:0:0:0:
257,145,121253,1,2,0:0:0:0:
229,236,121395,1,2,0:0:0:0:
286,311,121536,1,2,0:0:0:0:
381,324,121678,1,10,0:0:0:0:
442,251,121819,1,2,0:0:0:0:
423,164,121961,1,2,0:0:0:0:
82,154,122244,6,0,B|141:88|224:166|191:174|270:244|335:190,1,287.300005370216,6|2,0:0|0:0,0:0:0:0:
272,62,122668,1,0,0:0:0:0:
276,78,122810,1,10,0:0:0:0:
139,332,123093,5,2,0:0:0:0:
122,292,123234,1,2,0:0:0:0:
105,252,123376,2,0,P|161:237|250:277,1,106.25,2|0,0:0|0:0,0:0:0:0:
468,176,123659,2,0,P|403:204|333:189,1,106.25,2|0,0:0|0:0,0:0:0:0:
401,25,123942,1,10,0:0:0:0:
386,49,124083,1,2,0:0:0:0:
384,77,124225,5,2,0:0:0:0:
308,34,124366,1,2,0:0:0:0:
220,68,124508,6,0,B|193:169|193:169|201:217|201:217|166:355,1,287.300005370216,6|2,0:0|0:0,0:0:0:0:
100,232,124932,1,0,0:0:0:0:
105,252,125074,1,10,0:0:0:0:
199,219,125215,1,2,0:0:0:0:
257,301,125357,1,2,0:0:0:0:
339,244,125498,1,2,0:0:0:0:
386,332,125640,6,0,B|421:289|421:289|411:231,1,106.25,2|0,0:0|0:0,0:0:0:0:
324,154,125923,2,0,B|315:103|315:103|350:60,1,106.25,2|0,0:0|0:0,0:0:0:0:
246,33,126206,5,10,0:0:0:0:
111,0,126347,1,2,0:0:0:0:
25,146,126489,1,2,0:0:0:0:
188,95,126630,1,2,0:0:0:0:
159,252,126772,6,0,B|197:198|147:130|81:169|46:209|50:273|67:331|98:355,1,287.300005370216,6|2,0:0|0:0,0:0:0:0:
187,352,127196,1,0,0:0:0:0:
217,334,127338,5,10,0:0:0:0:
296,368,127480,1,2,0:0:0:0:
363,314,127621,2,0,L|387:162,1,106.25,2|2,0:0|0:0,0:0:0:0:
265,260,127904,2,0,L|245:132,1,106.25,2|0,0:0|0:0,0:0:0:0:
349,105,128187,1,2,0:0:0:0:
272,46,128329,1,0,0:0:0:0:
177,59,128470,1,10,0:0:0:0:
134,144,128612,1,2,0:0:0:0:
265,260,128753,5,2,0:0:0:0:
259,225,128847,5,2,0:0:0:0:
254,190,128941,5,2,0:0:0:0:
248,155,129036,5,6,0:0:0:0:
140,274,129602,5,10,0:0:0:0:
412,301,130168,5,10,0:0:0:0:
417,323,130310,1,8,0:0:0:0:
272,46,130593,5,8,0:0:0:0:
267,68,130735,1,10,0:0:0:0:
410,153,131017,5,8,0:0:0:0:
303,144,131159,1,8,0:0:0:0:
417,323,131300,1,6,0:0:0:0:
