osu file format v14

[General]
AudioFilename: audio.mp3
AudioLeadIn: 0
PreviewTime: 4508
Countdown: 0
SampleSet: Soft
StackLeniency: 0.2
Mode: 0
LetterboxInBreaks: 0
WidescreenStoryboard: 0

[Editor]
DistanceSpacing: 1.1
BeatDivisor: 8
GridSize: 32
TimelineZoom: 2.5

[Metadata]
Title:edamame
TitleUnicode:edamame
Artist:bbno$ & Rich Brian
ArtistUnicode:bbno$ & Rich Brian
Creator:Bakugo-
Version:gokugohan12468's another
Source:
Tags:english pop rap hip hop hip-hop hiphop kieg enri bakugo arronchu chu arronchu1207 jamesjan3 thexo chompy flake gokugohan12468 kittyadventure eat ya veggies Diamond Pistols Alexander Leon Gumuchian baby no money mula imanuel le mirai SirMirai cacturne soewarno
BeatmapID:3188140
BeatmapSetID:1557107

[Difficulty]
HPDrainRate:6.1
CircleSize:3.5
OverallDifficulty:8.5
ApproachRate:8.9
SliderMultiplier:3.2
SliderTickRate:1

[Events]
//Background and Video events
0,0,"The legend of the 4 legendary legend cavaliers of the legend.jpg",0,0
Video,0,"edamame video.mp4"
//Break Periods
//Storyboard Layer 0 (Background)
//Storyboard Layer 1 (Fail)
//Storyboard Layer 2 (Pass)
//Storyboard Layer 3 (Foreground)
//Storyboard Layer 4 (Overlay)
//Storyboard Sound Samples

[TimingPoints]
-4548,566.037735849057,4,2,0,50,1,0
2810,-133.333333333333,4,2,0,50,0,0
3234,-133.333333333333,4,2,99,5,0,0
3376,-133.333333333333,4,2,0,50,0,0
3517,-133.333333333333,4,2,99,5,0,0
3659,-133.333333333333,4,2,0,50,0,0
4366,-133.333333333333,4,2,99,5,0,0
4508,-100,4,2,1,50,0,0
6772,-100,4,2,1,50,0,0
6984,-100,4,2,99,5,0,0
7055,-100,4,2,1,50,0,0
7408,-100,4,2,99,5,0,0
7621,-100,4,2,1,50,0,0
7691,-100,4,2,99,5,0,0
7904,-100,4,2,1,50,0,0
7974,-100,4,2,99,5,0,0
8187,-100,4,2,1,50,0,0
8965,-100,4,2,99,5,0,0
9036,-100,4,2,1,50,0,0
10238,-100,4,2,99,5,0,0
10451,-100,4,2,1,50,0,0
10663,-100,4,2,99,5,0,0
10734,-100,4,2,1,50,0,0
13493,-100,4,2,99,5,0,0
13564,-66.6666666666667,4,2,1,50,0,0
13988,-66.6666666666667,4,2,99,5,0,0
14130,-66.6666666666667,4,2,1,50,0,0
14696,-100,4,2,1,50,0,0
15192,-100,4,2,99,5,0,0
15263,-100,4,2,1,50,0,0
15757,-100,4,2,99,5,0,0
15829,-66.6666666666667,4,2,1,50,0,0
16253,-66.6666666666667,4,2,99,5,0,0
16395,-66.6666666666667,4,2,1,50,0,0
16536,-100,4,2,1,50,0,0
16961,-100,4,2,1,50,0,0
18021,-100,4,2,99,5,0,0
18093,-86.9565217391304,4,2,1,50,0,0
18517,-86.9565217391304,4,2,99,5,0,0
18659,-66.6666666666667,4,2,1,50,0,0
18942,-100,4,2,1,50,0,0
19225,-100,4,2,1,50,0,0
20357,-125,4,2,1,50,0,0
20781,-125,4,2,99,5,0,0
20923,-100,4,2,1,50,0,0
21489,-100,4,2,1,50,0,0
22621,-133.333333333333,4,2,1,50,0,0
24036,-133.333333333333,4,2,99,5,0,0
24178,-133.333333333333,4,2,1,50,0,0
35640,-133.333333333333,4,2,1,50,0,0
38187,-133.333333333333,4,2,1,50,0,0
38470,-117.647058823529,4,2,1,50,0,0
38894,-117.647058823529,4,2,99,5,0,0
39036,-153.846153846154,4,2,1,50,0,1
39460,-153.846153846154,4,2,99,5,0,1
39602,-100,4,2,1,50,0,1
40735,-133.333333333333,4,2,1,50,0,0
49791,-200,4,2,1,30,0,0
56583,-133.333333333333,4,2,1,50,0,0
57007,-133.333333333333,4,2,99,5,0,0
57149,-100,4,2,1,50,0,0
57573,-100,4,2,99,5,0,0
57715,-117.647058823529,4,2,1,50,0,0
58281,-133.333333333333,4,2,1,50,0,0
58848,-100,4,2,1,50,0,1
61112,-100,4,2,1,50,0,0
61323,-100,4,2,99,5,0,0
61394,-100,4,2,1,50,0,0
61747,-100,4,2,99,5,0,0
61960,-100,4,2,1,50,0,0
62030,-100,4,2,99,5,0,0
62243,-100,4,2,1,50,0,0
62313,-100,4,2,99,5,0,0
62526,-100,4,2,1,50,0,0
63304,-100,4,2,99,5,0,0
63375,-100,4,2,1,50,0,0
64577,-100,4,2,99,5,0,0
64790,-100,4,2,1,50,0,0
65002,-100,4,2,99,5,0,0
65073,-100,4,2,1,50,0,0
67832,-100,4,2,99,5,0,0
67904,-66.6666666666667,4,2,1,50,0,0
68327,-66.6666666666667,4,2,99,5,0,0
68469,-66.6666666666667,4,2,1,50,0,0
69035,-100,4,2,1,50,0,0
69531,-100,4,2,99,5,0,0
69602,-100,4,2,1,50,0,0
70096,-100,4,2,99,5,0,0
70168,-66.6666666666667,4,2,1,50,0,0
70592,-66.6666666666667,4,2,99,5,0,0
70734,-66.6666666666667,4,2,1,50,0,0
70875,-100,4,2,1,50,0,0
72360,-100,4,2,99,5,0,0
72432,-80,4,2,1,50,0,0
72856,-66.6666666666667,4,2,99,5,0,0
72998,-66.6666666666667,4,2,1,50,0,0
73564,-100,4,2,1,50,0,0
74696,-117.647058823529,4,2,1,50,0,0
75120,-117.647058823529,4,2,99,5,0,0
75262,-100,4,2,1,50,0,0
76961,-117.647058823529,4,2,1,50,0,0
86017,-80,4,2,1,50,0,0
86159,-80,4,2,99,5,0,0
86230,-80,4,2,1,50,0,0
86371,-80,4,2,99,5,0,0
86442,-80,4,2,1,50,0,0
86796,-80,4,2,99,5,0,0
86867,-80,4,2,1,50,0,0
87645,-80,4,2,99,5,0,0
87716,-80,4,2,1,50,0,0
87857,-80,4,2,99,5,0,0
87928,-80,4,2,1,50,0,0
88069,-80,4,2,99,5,0,0
88140,-80,4,2,1,50,0,0
88423,-100,4,2,1,50,0,0
89413,-80,4,2,1,50,0,0
89555,-80,4,2,99,5,0,0
89626,-80,4,2,1,50,0,0
89767,-80,4,2,99,5,0,0
89838,-80,4,2,1,50,0,0
90546,-100,4,2,1,50,0,0
91678,-80,4,2,1,50,0,0
91819,-80,4,2,99,5,0,0
91890,-80,4,2,1,50,0,0
92031,-80,4,2,99,5,0,0
92102,-80,4,2,1,50,0,0
92810,-133.333333333333,4,2,1,50,0,0
93234,-133.333333333333,4,2,99,5,0,0
93376,-100,4,2,1,50,0,1
93800,-100,4,2,99,5,0,1
93942,-90.9090909090909,4,2,1,50,0,1
94367,-133.333333333333,4,2,1,50,0,0
94791,-200,4,2,1,50,0,0
95074,-117.647058823529,4,2,1,50,0,0
96206,-100,4,2,1,50,0,0
96375,-100,4,2,1,50,0,0
96418,-100,4,2,99,5,0,0
96489,-100,4,2,1,50,0,0
96701,-100,4,2,99,5,0,0
96772,-100,4,2,1,50,0,0
96984,-100,4,2,99,5,0,0
97055,-100,4,2,1,50,0,0
97267,-100,4,2,99,5,0,0
97338,-117.647058823529,4,2,1,50,0,0
98470,-100,4,2,1,50,0,0
98682,-100,4,2,99,5,0,0
98753,-100,4,2,1,50,0,0
98965,-100,4,2,99,5,0,0
99036,-100,4,2,1,50,0,0
99248,-100,4,2,99,5,0,0
99319,-100,4,2,1,50,0,0
99531,-100,4,2,99,5,0,0
99602,-117.647058823529,4,2,1,50,0,0
100734,-66.6666666666667,4,2,1,50,0,0
100946,-66.6666666666667,4,2,99,5,0,0
101017,-66.6666666666667,4,2,1,50,0,0
101229,-66.6666666666667,4,2,99,5,0,0
101300,-66.6666666666667,4,2,1,50,0,0
101512,-66.6666666666667,4,2,99,5,0,0
101583,-66.6666666666667,4,2,1,50,0,0
101795,-66.6666666666667,4,2,99,5,0,0
101866,-117.647058823529,4,2,1,50,0,0
102998,-66.6666666666667,4,2,1,50,0,0
103210,-66.6666666666667,4,2,99,5,0,0
103281,-66.6666666666667,4,2,1,50,0,0
103493,-66.6666666666667,4,2,99,5,0,0
103564,-66.6666666666667,4,2,1,50,0,0
103776,-66.6666666666667,4,2,99,5,0,0
103847,-66.6666666666667,4,2,1,50,0,0
104059,-66.6666666666667,4,2,99,5,0,0
104130,-200,4,2,1,30,0,0
110923,-133.333333333333,4,2,1,50,0,0
111347,-133.333333333333,4,2,99,5,0,0
111489,-100,4,2,1,50,0,0
111913,-100,4,2,99,5,0,0
112055,-117.647058823529,4,2,1,50,0,0
112480,-117.647058823529,4,2,1,50,0,0
112621,-133.333333333333,4,2,1,50,0,0
112904,-133.333333333333,4,2,1,50,0,0
113187,-90.9090909090909,4,2,1,50,0,1
115452,-90.9090909090909,4,2,1,50,0,0
115663,-90.9090909090909,4,2,99,5,0,0
115734,-90.9090909090909,4,2,1,50,0,0
116087,-90.9090909090909,4,2,99,5,0,0
116300,-90.9090909090909,4,2,1,50,0,0
116370,-90.9090909090909,4,2,99,5,0,0
116583,-90.9090909090909,4,2,1,50,0,0
116653,-90.9090909090909,4,2,99,5,0,0
116866,-90.9090909090909,4,2,1,50,0,0
117644,-90.9090909090909,4,2,99,5,0,0
117715,-90.9090909090909,4,2,1,50,0,0
118917,-90.9090909090909,4,2,99,5,0,0
119130,-90.9090909090909,4,2,1,50,0,0
119342,-90.9090909090909,4,2,99,5,0,0
119413,-90.9090909090909,4,2,1,50,0,0
122172,-90.9090909090909,4,2,99,5,0,0
122244,-66.6666666666667,4,2,1,50,0,0
122668,-66.6666666666667,4,2,99,5,0,0
122810,-66.6666666666667,4,2,1,50,0,0
123376,-90.9090909090909,4,2,1,50,0,0
123871,-90.9090909090909,4,2,99,5,0,0
123942,-90.9090909090909,4,2,1,50,0,0
124436,-90.9090909090909,4,2,99,5,0,0
124508,-66.6666666666667,4,2,1,50,0,0
124932,-66.6666666666667,4,2,99,5,0,0
125074,-90.9090909090909,4,2,1,50,0,0
125640,-90.9090909090909,4,2,1,50,0,0
126700,-90.9090909090909,4,2,99,5,0,0
126772,-80,4,2,1,50,0,0
127196,-80,4,2,99,5,0,0
127338,-66.6666666666667,4,2,1,50,0,0
127621,-90.9090909090909,4,2,1,50,0,0
127904,-90.9090909090909,4,2,1,50,0,0
129036,-111.111111111111,4,2,1,50,0,0
129460,-111.111111111111,4,2,99,5,0,0
129602,-90.9090909090909,4,2,1,50,0,0
131300,-285.714285714286,4,2,1,50,0,0
131866,-285.714285714286,4,2,99,5,0,0

[Colours]
Combo1 : 255,159,113
Combo2 : 227,254,75
Combo3 : 134,221,77
Combo4 : 103,175,90

[HitObjects]
30,50,2810,6,0,B|136:61|81:117|185:127,1,180.000006866455,2|0,0:0|0:0,0:0:0:0:
300,50,3376,2,0,P|270:56|243:69,1,60.0000022888184,2|0,0:0|0:0,0:0:0:0:
245,190,3659,6,0,L|249:229,2,40.000001525879,2|2|2,0:0|0:0|0:0,0:0:0:0:
330,200,3942,6,0,B|434:189|379:133|485:122,1,180.000006866455,2|0,3:0|0:0,0:0:0:0:
480,210,4508,6,0,P|504:227|475:222,1,80,6|0,0:0|0:0,0:0:0:0:
505,365,4791,1,2,0:0:0:0:
410,290,4932,1,2,0:0:0:0:
330,330,5074,2,0,P|290:333|251:345,1,80,10|0,0:0|0:0,0:0:0:0:
20,195,5357,5,2,0:0:0:0:
75,255,5498,1,0,0:0:0:0:
155,235,5640,5,2,0:0:0:0:
195,65,5781,1,2,0:0:0:0:
140,140,5923,2,0,P|178:151|218:155,1,80,2|0,0:0|0:0,0:0:0:0:
285,95,6206,5,10,0:0:0:0:
370,125,6347,1,2,0:0:0:0:
450,80,6489,2,0,P|464:44|446:9,1,80,2|0,0:0|0:0,0:0:0:0:
505,190,6772,6,0,P|446:205|388:220,1,120,2|0,0:0|0:0,0:0:0:0:
375,215,7055,2,0,P|361:251|379:286,1,80,2|2,0:0|0:0,0:0:0:0:
395,365,7338,6,0,L|433:356,1,40,10|0,0:0|0:0,0:0:0:0:
240,290,7621,6,0,L|278:298,1,40,2|0,0:0|0:0,0:0:0:0:
35,370,7904,6,0,L|73:361,1,40,2|0,0:0|0:0,0:0:0:0:
85,365,8187,5,2,0:0:0:0:
120,280,8329,1,2,0:0:0:0:
20,190,8470,5,10,0:0:0:0:
75,55,8612,1,2,0:0:0:0:
210,110,8753,1,2,0:0:0:0:
210,110,8895,2,0,L|216:149,1,40,2|0,0:0|0:0,0:0:0:0:
280,200,9036,5,6,0:0:0:0:
365,185,9178,1,2,0:0:0:0:
390,105,9319,2,0,P|379:68|343:56,1,80,2|2,0:0|0:0,0:0:0:0:
280,200,9602,5,10,0:0:0:0:
410,260,9744,1,2,0:0:0:0:
470,140,9885,2,0,P|495:110|487:73,1,80,2|2,0:0|0:0,0:0:0:0:
450,0,10168,6,0,L|413:15,1,40,2|0,0:0|0:0,0:0:0:0:
200,230,10451,6,0,P|140:219|81:210,1,120,2|0,0:0|0:0,0:0:0:0:
70,200,10734,1,10,0:0:0:0:
5,255,10876,1,2,0:0:0:0:
55,325,11017,2,0,P|92:333|124:310,1,80,2|0,0:0|0:0,0:0:0:0:
25,120,11300,6,0,P|63:110|103:104,1,80,2|0,0:0|0:0,0:0:0:0:
165,40,11583,2,0,P|204:46|243:55,1,80,2|0,0:0|0:0,0:0:0:0:
390,105,11866,2,0,P|317:94|297:165,1,160,10|2,0:0|0:0,0:0:0:0:
500,245,12291,5,2,0:0:0:0:
445,305,12432,2,0,P|406:314|368:326,1,80,2|2,0:0|0:0,0:0:0:0:
297,164,12715,2,0,P|335:173|373:185,1,80,2|2,0:0|0:0,0:0:0:0:
295,370,12998,5,10,0:0:0:0:
215,345,13140,1,2,0:0:0:0:
205,265,13281,1,2,0:0:0:0:
125,240,13423,2,0,P|109:240|123:247,1,40,2|0,0:0|0:0,0:0:0:0:
55,54,13564,6,0,B|80:93|80:155|80:155|134:108|134:108|178:168|178:168|200:102|233:77,1,360.000013732911,6|0,0:0|0:0,0:0:0:0:
330,150,14130,6,0,P|280:212|338:157,1,240.000009155274,10|2,0:0|0:0,0:0:0:0:
505,30,14555,5,2,0:0:0:0:
435,75,14696,2,0,P|415:40|417:1,1,80,2|0,0:0|0:0,0:0:0:0:
505,135,14980,2,0,P|457:169|445:226,1,120,2|0,0:0|0:0,0:0:0:0:
449,237,15263,5,10,0:0:0:0:
490,310,15404,1,2,0:0:0:0:
430,375,15546,1,2,0:0:0:0:
355,330,15687,2,0,L|315:325,1,40,2|0,0:0|0:0,0:0:0:0:
150,340,15829,6,0,B|135:206|135:206|214:191|167:274|167:274|218:283|207:340|164:349,1,360.000013732911,6|0,0:0|0:0,0:0:0:0:
65,355,16395,5,10,0:0:0:0:
10,290,16536,2,0,P|20:251|48:224,2,80,2|2|2,0:0|0:0|0:0,0:0:0:0:
40,40,16961,6,0,P|58:74|93:92,1,80,2|0,0:0|0:0,0:0:0:0:
145,160,17244,2,0,P|184:163|220:146,1,80,2|0,0:0|0:0,0:0:0:0:
445,125,17527,5,10,0:0:0:0:
456,46,17668,1,2,0:0:0:0:
377,35,17810,1,2,0:0:0:0:
366,114,17951,2,0,L|362:153,1,40,2|0,0:0|0:0,0:0:0:0:
290,210,18093,6,0,B|296:286|259:361|259:361|323:353|376:381,1,276.000005264282,6|0,0:0|0:0,0:0:0:0:
460,360,18659,5,10,0:0:0:0:
460,360,18800,1,2,0:0:0:0:
510,190,18942,2,0,P|458:192|436:215,1,80,2|2,0:0|0:0,0:0:0:0:
366,114,19225,6,0,P|442:103|486:39,1,160,2|2,0:0|0:0,0:0:0:0:
300,50,19649,1,0,0:0:0:0:
240,120,19791,2,0,P|230:158|243:195,1,80,10|2,0:0|0:0,0:0:0:0:
216,275,20074,6,0,P|223:301|220:327,2,53.3333333333333,2|2|2,0:0|0:0|0:0,0:0:0:0:
143,306,20357,6,0,P|260:305|312:361,1,192,6|0,0:0|0:0,0:0:0:0:
400,360,20923,6,0,P|392:321|408:284,1,80,10|0,0:0|0:0,0:0:0:0:
490,170,21206,2,0,P|459:195|420:200,1,80
230,110,21489,5,10,0:0:0:0:
275,185,21630,2,0,P|312:198|335:229,1,80,8|0,0:0|0:0,0:0:0:0:
230,110,21913,5,8,0:0:0:0:
142,111,22055,2,0,P|112:136|73:140,1,80,10|0,0:0|0:0,0:0:0:0:
230,110,22338,5,8,0:0:0:0:
275,35,22480,1,8,0:0:0:0:
360,50,22621,6,0,P|417:66|477:66,1,120.000004577637,6|2,0:0|0:0,0:0:0:0:
505,245,23046,1,2,0:0:0:0:
440,190,23187,2,0,P|411:182|381:179,1,60.0000022888184,8|2,0:0|0:0,0:0:0:0:
206,282,23470,5,2,0:0:0:0:
192,199,23612,1,2,0:0:0:0:
275,185,23753,1,2,0:0:0:0:
288,268,23895,2,0,P|292:297|300:326,1,60.0000022888184,2|0,0:0|0:0,0:0:0:0:
368,375,24178,5,2,0:0:0:0:
206,282,24319,2,0,P|176:286|148:297,1,60.0000022888184,10|2,0:0|0:0,0:0:0:0:
100,140,24602,2,0,P|129:135|157:124,1,60.0000022888184,2|2,0:0|0:0,0:0:0:0:
200,50,24885,5,0,0:0:0:0:
380,80,25027,1,2,0:0:0:0:
295,35,25168,2,0,L|284:95,1,60.0000022888184,2|2,0:0|0:0,0:0:0:0:
360,230,25451,2,0,L|349:170,2,60.0000022888184,10|2|2,0:0|0:0|0:0,0:0:0:0:
380,80,25876,5,2,0:0:0:0:
500,165,26017,2,0,L|440:154,1,60.0000022888184,0|2,0:0|0:0,0:0:0:0:
300,305,26300,5,2,0:0:0:0:
205,295,26442,1,2,0:0:0:0:
185,204,26583,2,0,L|125:215,1,60.0000022888184,10|2,0:0|0:0,0:0:0:0:
50,160,26866,1,2,0:0:0:0:
70,70,27008,1,2,0:0:0:0:
165,55,27149,6,0,L|225:44,1,60.0000022888184,0|2,0:0|0:0,0:0:0:0:
240,120,27432,2,0,L|300:109,1,60.0000022888184,2|2,0:0|0:0,0:0:0:0:
500,165,27715,1,10,0:0:0:0:
435,225,27857,2,0,L|424:285,2,60.0000022888184,2|2|2,0:0|0:0|0:0,0:0:0:0:
359,349,28281,6,0,P|324:304|266:302,1,120.000004577637,2|2,0:0|0:0,0:0:0:0:
195,355,28706,1,2,0:0:0:0:
45,275,28847,1,10,0:0:0:0:
85,195,28989,1,2,0:0:0:0:
170,220,29130,2,0,P|173:190|178:160,1,60.0000022888184,2|0,0:0|0:0,0:0:0:0:
385,135,29413,5,2,0:0:0:0:
355,15,29555,1,2,0:0:0:0:
245,100,29696,2,0,P|274:97|304:92,1,60.0000022888184,2|0,0:0|0:0,0:0:0:0:
510,210,29980,2,0,P|480:205|450:201,1,60.0000022888184,10|2,0:0|0:0,0:0:0:0:
385,135,30263,1,2,0:0:0:0:
410,280,30404,1,2,0:0:0:0:
340,220,30546,6,0,P|310:224|280:228,1,60.0000022888184,2|2,0:0|0:0,0:0:0:0:
178,160,30829,1,2,0:0:0:0:
110,260,30970,1,2,0:0:0:0:
210,330,31112,1,8,0:0:0:0:
195,245,31253,1,2,0:0:0:0:
195,245,31395,1,2,0:0:0:0:
40,325,31536,5,0,0:0:0:0:
195,245,31678,1,6,0:0:0:0:
90,175,31819,1,2,0:0:0:0:
110,260,31961,2,0,L|122:318,1,60.0000022888184,2|0,0:0|0:0,0:0:0:0:
178,160,32244,5,10,0:0:0:0:
199,75,32385,1,2,0:0:0:0:
278,38,32527,1,2,0:0:0:0:
357,74,32668,1,2,0:0:0:0:
480,20,32810,6,0,P|458:40|445:67,1,60.0000022888184,2|2,0:0|0:0,0:0:0:0:
345,165,33093,2,0,P|343:194|351:223,1,60.0000022888184,2|0,0:0|0:0,0:0:0:0:
485,285,33376,6,0,P|460:268|431:261,1,60.0000022888184,10|2,0:0|0:0,0:0:0:0:
305,305,33659,2,0,P|280:321|251:328,1,60.0000022888184,2|2,0:0|0:0,0:0:0:0:
175,375,33942,5,2,0:0:0:0:
175,285,34083,1,2,0:0:0:0:
90,250,34225,1,2,0:0:0:0:
90,340,34366,1,2,0:0:0:0:
252,238,34508,2,0,P|253:209|257:179,1,60.0000022888184,10|2,0:0|0:0,0:0:0:0:
158,132,34791,2,0,P|162:161|163:191,1,60.0000022888184,2|2,0:0|0:0,0:0:0:0:
5,135,35074,5,2,0:0:0:0:
60,60,35215,2,0,P|89:54|118:48,2,60.0000022888184,2|2|2,0:0|0:0|0:0,0:0:0:0:
10,225,35640,2,0,B|81:233|81:233|92:255|115:266,1,120.000004577637,10|2,0:0|0:0,0:0:0:0:
163,192,36064,1,2,0:0:0:0:
251,239,36206,5,2,0:0:0:0:
325,170,36347,1,2,0:0:0:0:
285,25,36489,2,0,L|276:84,1,60.0000022888184,2|2,0:0|0:0,0:0:0:0:
325,170,36772,5,10,0:0:0:0:
420,130,36913,1,2,0:0:0:0:
415,285,37055,2,0,L|406:225,1,60.0000022888184,2|2,0:0|0:0,0:0:0:0:
485,350,37338,5,2,0:0:0:0:
330,320,37480,1,2,0:0:0:0:
255,370,37621,2,0,P|226:362|205:341,1,60.0000022888184,2|0,0:0|0:0,0:0:0:0:
190,224,37904,2,0,P|175:250|151:267,1,60.0000022888184,10|0,0:0|0:0,0:0:0:0:
115,355,38187,6,0,L|75:346,2,40.000001525879,2|2|2,0:0|0:0|0:0,0:0:0:0:
205,341,38470,6,0,P|211:239|244:143,1,204.000003890991,6|0,0:0|0:0,0:0:0:0:
125,5,39036,6,0,P|99:76|143:138,1,155.999992858887,10|0,0:0|0:0,0:0:0:0:
265,55,39602,5,10,0:0:0:0:
335,115,39744,2,0,P|374:108|414:104,1,80,8|0,0:0|0:0,0:0:0:0:
350,20,40027,5,8,0:0:0:0:
244,143,40168,2,0,P|250:182|254:222,1,80,10|0,0:0|0:0,0:0:0:0:
180,270,40451,1,8,0:0:0:0:
340,205,40593,1,8,0:0:0:0:
104,220,40735,6,0,P|88:276|111:330,1,120.000004577637,14|2,0:0|0:0,0:0:0:0:
320,320,41159,2,0,L|260:309,1,60.0000022888184,2|8,0:0|0:0,0:0:0:0:
180,270,41442,1,2,0:0:0:0:
254,222,41583,2,0,L|243:162,1,60.0000022888184,2|0,0:0|0:0,0:0:0:0:
410,100,41866,5,2,0:0:0:0:
330,55,42008,2,0,L|319:115,1,60.0000022888184,2|0,0:0|0:0,0:0:0:0:
160,130,42291,1,2,0:0:0:0:
243,163,42432,2,0,L|254:223,1,60.0000022888184,10|0,0:0|0:0,0:0:0:0:
320,320,42715,5,2,0:0:0:0:
378,252,42857,2,0,P|363:227|338:211,1,60.0000022888184,2|0,0:0|0:0,0:0:0:0:
243,163,43140,1,2,0:0:0:0:
180,270,43281,2,0,P|159:290|130:299,1,60.0000022888184,2|0,0:0|0:0,0:0:0:0:
35,175,43564,5,10,0:0:0:0:
101,120,43706,2,0,L|161:130,1,60.0000022888184,2|0,0:0|0:0,0:0:0:0:
250,20,43989,1,2,0:0:0:0:
330,55,44130,2,0,L|390:45,1,60.0000022888184,2|0,0:0|0:0,0:0:0:0:
500,200,44413,6,0,L|440:190,1,60.0000022888184,2|2,0:0|0:0,0:0:0:0:
370,145,44696,2,0,P|349:165|341:194,1,60.0000022888184,10|2,0:0|0:0,0:0:0:0:
270,245,44980,2,0,P|267:274|277:302,1,60.0000022888184,2|2,0:0|0:0,0:0:0:0:
460,335,45263,6,0,P|426:287|368:284,1,120.000004577637,2|2,0:0|0:0,0:0:0:0:
220,365,45687,2,0,P|192:354|162:357,1,60.0000022888184,2|8,0:0|0:0,0:0:0:0:
10,160,45970,1,2,0:0:0:0:
75,225,46112,2,0,P|104:227|132:216,1,60.0000022888184,2|0,0:0|0:0,0:0:0:0:
200,50,46395,5,2,0:0:0:0:
115,85,46536,2,0,P|98:109|94:138,1,60.0000022888184,2|0,0:0|0:0,0:0:0:0:
200,270,46819,1,2,0:0:0:0:
220,185,46961,2,0,P|207:158|183:140,1,60.0000022888184,10|0,0:0|0:0,0:0:0:0:
285,250,47244,5,2,0:0:0:0:
310,165,47385,2,0,P|310:135|325:108,1,60.0000022888184,2|0,0:0|0:0,0:0:0:0:
263,337,47668,1,2,0:0:0:0:
200,270,47810,2,0,P|172:257|142:259,1,60.0000022888184,2|0,0:0|0:0,0:0:0:0:
350,320,48093,5,10,0:0:0:0:
370,230,48234,2,0,P|389:207|417:196,1,60.0000022888184,2|2,0:0|0:0,0:0:0:0:
263,337,48517,1,2,0:0:0:0:
310,165,48659,2,0,P|310:135|325:108,1,60.0000022888184,2|0,0:0|0:0,0:0:0:0:
220,185,48942,6,0,P|200:162|194:131,1,60.0000022888184,2|0,0:0|0:0,0:0:0:0:
200,270,49225,2,0,P|170:264|146:245,1,60.0000022888184,10|2,0:0|0:0,0:0:0:0:
263,337,49508,2,0,P|240:356|209:362,1,60.0000022888184,2|2,0:0|0:0,0:0:0:0:
350,320,49791,6,0,P|388:326|418:352,2,80,2|2|10,0:0|0:0|0:0,0:0:0:0:
455,255,50498,1,0,0:0:0:0:
370,230,50640,2,0,L|362:190,1,40,2|0,0:0|0:0,0:0:0:0:
270,170,50923,6,0,L|295:138,1,40,2|0,0:0|0:0,0:0:0:0:
290,40,51206,2,0,L|326:56,1,40,2|2,0:0|0:0,0:0:0:0:
420,30,51489,2,0,L|407:109,1,80,10|2,0:0|0:0,0:0:0:0:
270,170,51913,1,0,0:0:0:0:
200,120,52055,6,0,L|160:127,2,40,2|0|2,0:0|0:0|0:0,0:0:0:0:
270,170,52480,1,2,0:0:0:0:
190,210,52621,2,0,L|107:225,1,80,10|2,0:0|0:0,0:0:0:0:
260,260,53187,6,0,L|253:300,1,40,2|0,0:0|0:0,0:0:0:0:
350,270,53470,2,0,L|343:230,1,40,2|2,0:0|0:0,0:0:0:0:
283,91,53753,2,0,L|270:170,1,80,10|2,0:0|0:0,0:0:0:0:
475,65,54178,5,0,0:0:0:0:
395,30,54319,2,0,L|356:42,1,40,2|0,0:0|0:0,0:0:0:0:
283,91,54602,2,0,L|244:78,1,40,2|2,0:0|0:0,0:0:0:0:
170,20,54885,2,0,P|130:18|99:42,1,80,10|2,0:0|0:0,0:0:0:0:
40,120,55310,1,0,0:0:0:0:
130,130,55451,6,0,L|126:169,1,40,2|0,0:0|0:0,0:0:0:0:
50,215,55734,2,0,L|53:254,1,40,2|2,0:0|0:0,0:0:0:0:
110,320,56017,1,10,0:0:0:0:
110,320,56300,6,0,L|134:330,2,26.6666666666667,2|2|2,0:0|0:0|0:0,0:0:0:0:
165,250,56583,6,0,P|251:256|286:334,1,180.000006866455,6|0,0:0|0:0,0:0:0:0:
370,325,57149,6,0,B|430:365|509:358|531:303|495:244|444:263,1,240,10|0,0:0|0:0,0:0:0:0:
370,210,57715,5,10,0:0:0:0:
450,170,57857,2,0,P|443:136|442:102,1,68.0000012969971,8|0,0:0|0:0,0:0:0:0:
255,25,58140,5,8,0:0:0:0:
180,75,58281,2,0,P|173:104|172:134,1,60.0000022888184,10|0,0:0|0:0,0:0:0:0:
110,205,58564,5,8,0:0:0:0:
255,170,58706,1,8,0:0:0:0:
40,145,58848,6,0,P|13:132|30:156,1,80,6|0,0:0|0:0,0:0:0:0:
5,330,59130,1,2,0:0:0:0:
160,285,59272,1,2,0:0:0:0:
220,350,59413,2,0,P|259:353|297:367,1,80,10|0,0:0|0:0,0:0:0:0:
380,330,59696,5,2,0:0:0:0:
380,330,59838,1,0,0:0:0:0:
460,290,59980,5,2,0:0:0:0:
405,140,60121,1,2,0:0:0:0:
332,187,60263,2,0,P|292:184|255:170,1,80,2|0,0:0|0:0,0:0:0:0:
200,20,60546,5,10,0:0:0:0:
120,70,60687,1,2,0:0:0:0:
155,155,60829,2,0,P|169:192|172:232,1,80,2|0,0:0|0:0,0:0:0:0:
10,360,61112,6,0,P|36:307|92:292,1,120,2|0,0:0|0:0,0:0:0:0:
100,310,61395,2,0,P|139:313|166:341,1,80,2|2,0:0|0:0,0:0:0:0:
250,335,61678,6,0,P|253:354|250:374,1,40,10|0,0:0|0:0,0:0:0:0:
155,155,61961,6,0,P|151:174|154:194,1,40,2|0,0:0|0:0,0:0:0:0:
255,15,62244,6,0,P|258:34|255:54,1,40,2|0,0:0|0:0,0:0:0:0:
245,65,62527,5,2,0:0:0:0:
160,45,62668,1,2,0:0:0:0:
85,95,62810,5,10,0:0:0:0:
340,50,62951,1,2,0:0:0:0:
340,50,63093,1,2,0:0:0:0:
340,140,63234,2,0,P|359:134|378:130,1,40,2|0,0:0|0:0,0:0:0:0:
460,170,63376,5,6,0:0:0:0:
415,245,63517,1,2,0:0:0:0:
470,320,63659,2,0,P|431:329|393:342,1,80,2|2,0:0|0:0,0:0:0:0:
310,365,63942,5,10,0:0:0:0:
295,275,64083,1,2,0:0:0:0:
220,340,64225,2,0,P|182:326|143:317,1,80,2|2,0:0|0:0,0:0:0:0:
95,240,64508,6,0,P|75:243|56:250,1,40,2|0,0:0|0:0,0:0:0:0:
25,30,64791,6,0,P|58:77|116:81,1,120,2|0,0:0|0:0,0:0:0:0:
130,75,65074,1,10,0:0:0:0:
205,20,65215,1,2,0:0:0:0:
275,85,65357,2,0,L|264:164,1,80,2|0,0:0|0:0,0:0:0:0:
490,270,65640,6,0,L|479:190,1,80,2|0,0:0|0:0,0:0:0:0:
395,200,65923,2,0,L|405:279,1,80,2|0,0:0|0:0,0:0:0:0:
455,355,66206,2,0,B|413:314|413:314|312:328,1,160,10|2,0:0|0:0,0:0:0:0:
140,315,66630,5,2,0:0:0:0:
65,355,66772,2,0,P|27:348|6:315,1,80,2|2,0:0|0:0,0:0:0:0:
90,190,67055,2,0,P|128:197|149:230,1,80,2|2,0:0|0:0,0:0:0:0:
10,140,67338,5,10,0:0:0:0:
50,72,67480,1,2,0:0:0:0:
124,47,67621,1,2,0:0:0:0:
197,77,67763,2,0,B|203:85|205:96|205:96|209:86|217:81,1,40,2|0,0:0|0:0,0:0:0:0:
285,135,67904,6,0,B|345:227|345:227|388:171|388:171|447:216|447:216|479:115,1,360.000013732911,6|0,0:0|0:0,0:0:0:0:
400,70,68470,6,0,P|360:1|392:73,1,240.000009155274,10|2,0:0|0:0,0:0:0:0:
405,295,68895,5,2,0:0:0:0:
335,345,69036,2,0,P|296:339|269:310,1,80,2|0,0:0|0:0,0:0:0:0:
135,315,69319,2,0,P|185:285|198:228,1,120,2|0,0:0|0:0,0:0:0:0:
195,215,69602,5,10,0:0:0:0:
140,140,69744,1,2,0:0:0:0:
50,160,69885,1,2,0:0:0:0:
45,255,70027,2,0,L|83:243,1,40,2|0,0:0|0:0,0:0:0:0:
230,120,70168,6,0,B|254:-15|254:-15|312:-17|318:39|274:51|274:51|308:82|296:131|248:125,1,360.000013732911,6|0,0:0|0:0,0:0:0:0:
380,75,70734,5,10,0:0:0:0:
440,130,70876,2,0,P|479:126|506:98,2,80,2|2|2,0:0|0:0|0:0,0:0:0:0:
500,350,71300,6,0,P|477:318|439:307,1,80,2|0,0:0|0:0,0:0:0:0:
390,240,71583,2,0,P|351:244|327:274,1,80,2|0,0:0|0:0,0:0:0:0:
75,335,71866,5,10,0:0:0:0:
56,248,72008,1,2,0:0:0:0:
142,230,72149,1,2,0:0:0:0:
161,317,72291,2,0,P|180:311|199:307,1,40,2|0,0:0|0:0,0:0:0:0:
267,198,72432,6,0,B|199:201|141:230|141:230|139:135|101:68,1,300,6|0,0:0|0:0,0:0:0:0:
275,20,72998,5,10,0:0:0:0:
193,57,73140,2,0,B|210:84|211:115|211:115|236:103|269:108,2,120.000004577637,2|2|2,0:0|0:0|0:0,0:0:0:0:
385,119,73564,6,0,P|308:131|267:197,1,160,2|2,0:0|0:0,0:0:0:0:
295,285,73989,1,0,0:0:0:0:
495,235,74130,2,0,P|470:204|432:197,1,80,10|2,0:0|0:0,0:0:0:0:
400,275,74413,6,0,P|386:297|393:322,2,53.3333333333333,2|2|2,0:0|0:0|0:0,0:0:0:0:
481,338,74696,6,0,P|395:285|295:285,1,204.000003890991,6|0,0:0|0:0,0:0:0:0:
225,345,75263,6,0,P|186:353|150:337,1,80,10|0,0:0|0:0,0:0:0:0:
165,205,75546,2,0,P|203:196|239:212,1,80
95,265,75829,5,10,0:0:0:0:
35,195,75970,2,0,P|30:155|23:115,1,80,8|0,0:0|0:0,0:0:0:0:
165,205,76253,5,8,0:0:0:0:
215,110,76395,2,0,P|219:70|226:30,1,80,10|0,0:0|0:0,0:0:0:0:
130,40,76678,5,8,0:0:0:0:
310,95,76819,1,8,0:0:0:0:
375,35,76961,5,6,0:0:0:0:
455,75,77102,1,2,0:0:0:0:
438,161,77244,1,2,0:0:0:0:
351,174,77385,1,2,0:0:0:0:
341,261,77527,1,10,0:0:0:0:
418,299,77668,1,2,0:0:0:0:
482,238,77810,2,0,P|501:267|504:300,1,68.0000012969971,2|2,0:0|0:0,0:0:0:0:
231,310,78093,6,0,P|275:261|342:261,1,136.000002593994,2|2,0:0|0:0,0:0:0:0:
312,343,78517,1,2,0:0:0:0:
146,355,78659,2,0,P|144:321|140:287,1,68.0000012969971,10|2,0:0|0:0,0:0:0:0:
180,140,78942,2,0,P|181:173|185:207,1,68.0000012969971,2|0,0:0|0:0,0:0:0:0:
50,270,79225,5,2,0:0:0:0:
35,180,79366,1,2,0:0:0:0:
165,50,79508,1,2,0:0:0:0:
180,140,79649,1,2,0:0:0:0:
0,90,79791,2,0,P|34:88|68:84,1,68.0000012969971,10|2,0:0|0:0,0:0:0:0:
250,80,80074,2,0,P|283:76|317:74,1,68.0000012969971,2|2,0:0|0:0,0:0:0:0:
510,50,80357,6,0,B|469:42|460:10|460:10|439:37|398:31,1,136.000002593994,2|2,0:0|0:0,0:0:0:0:
345,160,80781,1,2,0:0:0:0:
435,175,80923,2,0,P|468:170|493:148,1,68.0000012969971,10|2,0:0|0:0,0:0:0:0:
285,230,81206,2,0,P|272:261|279:293,1,68.0000012969971,2|0,0:0|0:0,0:0:0:0:
355,345,81489,6,0,L|422:336,1,68.0000012969971,2|2,0:0|0:0,0:0:0:0:
285,230,81772,2,0,L|217:221,1,68.0000012969971,2|2,0:0|0:0,0:0:0:0:
435,175,82055,1,10,0:0:0:0:
455,79,82196,1,2,0:0:0:0:
361,61,82338,1,2,0:0:0:0:
345,160,82480,1,2,0:0:0:0:
255,25,82621,6,0,B|182:31|207:62|128:69,1,136.000002593994,2|2,0:0|0:0,0:0:0:0:
55,25,83046,1,2,0:0:0:0:
40,210,83187,2,0,P|54:180|84:164,1,68.0000012969971,8|2,0:0|0:0,0:0:0:0:
105,275,83470,2,0,P|135:260|150:230,1,68.0000012969971,2|2,0:0|0:0,0:0:0:0:
300,360,83753,5,2,0:0:0:0:
280,264,83895,1,2,0:0:0:0:
374,246,84036,1,2,0:0:0:0:
390,345,84178,1,2,0:0:0:0:
280,264,84319,2,0,L|266:197,1,68.0000012969971,10|0,0:0|0:0,0:0:0:0:
331,93,84602,2,0,L|345:160,1,68.0000012969971,2|2,0:0|0:0,0:0:0:0:
155,90,84885,6,0,P|196:37|264:29,1,136.000002593994,2|2,0:0|0:0,0:0:0:0:
240,115,85310,1,2,0:0:0:0:
374,246,85451,2,0,B|447:252|422:283|501:290,1,136.000002593994,10|2,0:0|0:0,0:0:0:0:
495,200,85876,1,2,0:0:0:0:
210,330,86017,22,0,P|162:337|123:307,1,100,6|0,0:0|0:0,0:0:0:0:
130,295,86230,38,0,P|91:264|43:272,1,100,2|0,0:0|0:0,0:0:0:0:
35,265,86442,6,0,P|21:285|20:310,2,50,2|0|10,0:0|0:0|0:0,0:0:0:0:
30,90,86725,6,0,P|54:84|74:70,1,50,2|0,0:0|0:0,0:0:0:0:
85,60,86867,6,0,L|94:159,1,100,2|2,0:0|0:0,0:0:0:0:
105,165,87079,1,2,0:0:0:0:
115,170,87150,1,2,0:0:0:0:
300,35,87291,2,0,P|251:37|225:77,1,100,2|2,0:0|0:0,0:0:0:0:
480,40,87574,6,0,L|472:89,1,50,2|0,0:0|0:0,0:0:0:0:
470,15,87716,6,0,L|455:113,1,100,10|2,0:0|0:0,0:0:0:0:
445,105,87928,38,0,L|430:203,1,100,2|0,0:0|0:0,0:0:0:0:
445,210,88140,6,0,L|437:259,2,50,2|0|2,0:0|0:0|0:0,0:0:0:0:
490,340,88423,21,2,0:0:0:0:
340,270,88564,1,2,0:0:0:0:
300,355,88706,1,2,0:0:0:0:
200,340,88847,1,10,0:0:0:0:
185,245,88989,1,2,0:0:0:0:
270,200,89130,2,0,P|286:164|276:126,1,80,2|2,0:0|0:0,0:0:0:0:
300,35,89413,6,0,L|200:48,1,100,2|0,0:0|0:0,0:0:0:0:
210,35,89626,6,0,L|110:48,1,100,2|0,0:0|0:0,0:0:0:0:
120,35,89838,38,0,L|70:41,2,50,2|0|10,0:0|0:0|0:0,0:0:0:0:
15,120,90121,37,2,0:0:0:0:
75,190,90263,1,2,0:0:0:0:
165,170,90404,1,2,0:0:0:0:
50,280,90546,38,0,P|45:318|66:352,1,80,2|2,0:0|0:0,0:0:0:0:
155,330,90829,2,0,P|160:292|139:258,1,80,2|2,0:0|0:0,0:0:0:0:
270,120,91112,6,0,P|275:158|254:192,1,80,10|2,0:0|0:0,0:0:0:0:
165,170,91395,2,0,P|159:131|180:97,1,80,2|2,0:0|0:0,0:0:0:0:
340,65,91678,6,0,P|381:89|391:137,1,100,2|2,0:0|0:0,0:0:0:0:
404,140,91890,6,0,P|399:188|359:216,1,100,2|0,0:0|0:0,0:0:0:0:
370,230,92102,38,0,P|349:241|322:241,2,50,2|0|10,0:0|0:0|0:0,0:0:0:0:
510,370,92385,1,2,0:0:0:0:
465,295,92527,38,0,L|475:229,2,66.6666666666667,2|2|2,0:0|0:0|0:0,0:0:0:0:
385,335,92810,38,0,B|284:318|310:364|207:347,1,180.000006866455,6|0,0:0|0:0,0:0:0:0:
100,360,93376,6,0,B|160:295|151:211|56:188|38:259,1,240,10|0,0:0|0:0,0:0:0:0:
40,70,93942,5,10,0:0:0:0:
105,135,94083,2,0,P|147:131|170:95,1,88.000002685547,8|0,0:0|0:0,0:0:0:0:
295,20,94367,2,0,P|259:65|273:121,1,120.000004577637,8|0,0:0|0:0,0:0:0:0:
320,190,94791,2,0,L|359:182,1,40,2|2,0:0|0:0,0:0:0:0:
510,225,95074,6,0,B|443:211|443:211|431:245|397:258,1,136.000002593994,6|2,0:0|0:0,0:0:0:0:
375,345,95498,1,2,0:0:0:0:
285,365,95640,1,10,0:0:0:0:
205,320,95781,1,2,0:0:0:0:
200,230,95923,1,2,0:0:0:0:
200,230,96065,1,2,0:0:0:0:
40,60,96206,6,0,P|99:50|157:37,1,120,2|0,0:0|0:0,0:0:0:0:
175,125,96489,6,0,P|115:134|57:147,1,120,2|0,0:0|0:0,0:0:0:0:
35,50,96772,6,0,P|94:40|152:27,1,120,10|0,0:0|0:0,0:0:0:0:
175,135,97055,6,0,P|115:144|57:157,1,120,2|0,0:0|0:0,0:0:0:0:
50,170,97338,5,2,0:0:0:0:
20,260,97480,1,2,0:0:0:0:
85,330,97621,1,2,0:0:0:0:
180,315,97763,1,2,0:0:0:0:
225,225,97904,1,10,0:0:0:0:
325,205,98046,1,2,0:0:0:0:
395,275,98187,1,2,0:0:0:0:
355,365,98329,1,2,0:0:0:0:
380,115,98470,6,0,P|430:145|487:132,1,120,2|0,0:0|0:0,0:0:0:0:
500,45,98753,6,0,P|449:14|392:27,1,120,2|0,0:0|0:0,0:0:0:0:
380,125,99036,6,0,P|430:155|487:142,1,120,2|0,0:0|0:0,0:0:0:0:
500,35,99319,6,0,P|449:4|392:17,1,120,2|0,0:0|0:0,0:0:0:0:
393,26,99602,5,2,0:0:0:0:
300,40,99744,1,2,0:0:0:0:
210,20,99885,2,0,B|198:54|198:54|213:82,1,68.0000012969971,2|2,0:0|0:0,0:0:0:0:
240,200,100168,2,0,P|186:160|121:173,1,136.000002593994,10|2,0:0|0:0,0:0:0:0:
45,135,100593,1,2,0:0:0:0:
225,290,100734,6,0,B|325:285|281:233|389:228,1,180.000006866455,2|0,0:0|0:0,0:0:0:0:
240,200,101017,6,0,B|336:250|273:278|363:325,1,180.000006866455,2|0,0:0|0:0,0:0:0:0:
220,300,101300,6,0,B|320:295|276:243|384:238,1,180.000006866455,10|0,0:0|0:0,0:0:0:0:
235,210,101583,6,0,B|331:260|268:288|358:335,1,180.000006866455,2|0,0:0|0:0,0:0:0:0:
362,325,101866,5,2,0:0:0:0:
384,238,102008,1,2,0:0:0:0:
471,260,102149,1,2,0:0:0:0:
449,347,102291,1,2,0:0:0:0:
235,210,102432,5,10,0:0:0:0:
213,123,102574,1,2,0:0:0:0:
148,232,102715,1,2,0:0:0:0:
125,145,102857,1,2,0:0:0:0:
465,115,102998,6,0,B|365:110|409:58|301:53,1,180.000006866455,2|0,0:0|0:0,0:0:0:0:
450,25,103281,6,0,B|354:75|417:103|327:150,1,180.000006866455,2|0,0:0|0:0,0:0:0:0:
470,125,103564,6,0,B|370:120|414:68|306:63,1,180.000006866455,10|0,0:0|0:0,0:0:0:0:
455,35,103847,6,0,B|359:85|422:113|332:160,1,180.000006866455,2|0,0:0|0:0,0:0:0:0:
327,150,104130,6,0,P|319:189|309:228,2,80,2|2|10,0:0|0:0|0:0,0:0:0:0:
360,300,104838,1,0,0:0:0:0:
270,310,104980,2,0,P|250:305|230:302,1,40,2|2,0:0|0:0,0:0:0:0:
140,370,105263,6,0,L|147:330,1,40,2|0,0:0|0:0,0:0:0:0:
170,200,105546,2,0,L|162:239,1,40,2|0,0:0|0:0,0:0:0:0:
75,275,105829,2,0,B|37:270|38:287|-3:283,1,80,10|2,0:0|0:0,0:0:0:0:
10,130,106253,5,2,0:0:0:0:
75,75,106395,2,0,P|92:85|102:101,1,40,2|0,0:0|0:0,0:0:0:0:
170,200,106678,2,0,P|165:180|169:161,1,40,2|0,0:0|0:0,0:0:0:0:
190,75,106961,2,0,P|222:52|261:50,1,80,10|2,0:0|0:0,0:0:0:0:
460,25,107527,6,0,P|449:41|445:61,1,40,2|0,0:0|0:0,0:0:0:0:
370,110,107810,2,0,P|371:129|380:147,1,40,2|0,0:0|0:0,0:0:0:0:
420,235,108093,2,0,P|380:232|346:253,1,80,10|2,0:0|0:0,0:0:0:0:
115,370,108517,5,0,0:0:0:0:
200,350,108659,2,0,P|200:330|195:310,1,40,2|0,0:0|0:0,0:0:0:0:
240,230,108942,2,0,P|233:211|220:196,1,40,2|0,0:0|0:0,0:0:0:0:
235,105,109225,2,0,P|200:86|160:87,1,80,10|2,0:0|0:0,0:0:0:0:
10,50,109649,5,2,0:0:0:0:
75,0,109791,2,0,P|87:15|93:34,1,40,2|0,0:0|0:0,0:0:0:0:
161,87,110074,2,0,P|148:102|142:121,1,40,2|0,0:0|0:0,0:0:0:0:
70,170,110357,1,10,0:0:0:0:
70,170,110640,6,0,P|59:161|47:157,2,26.6666666666667,2|2|2,0:0|0:0|0:0,0:0:0:0:
150,210,110923,6,0,P|66:227|39:308,1,180.000006866455,6|0,0:0|0:0,0:0:0:0:
290,330,111489,6,0,B|127:295|127:295|163:312|181:342,1,240,10|0,0:0|0:0,0:0:0:0:
370,290,112055,5,10,0:0:0:0:
280,170,112196,2,0,P|288:202|294:236,1,68.0000012969971,8|0,0:0|0:0,0:0:0:0:
500,40,112480,5,8,0:0:0:0:
430,90,112621,2,0,P|422:118|416:148,1,60.0000022888184,10|0,0:0|0:0,0:0:0:0:
475,215,112904,5,8,0:0:0:0:
335,90,113046,1,8,0:0:0:0:
200,200,113187,6,0,P|169:205|197:192,1,88.000002685547,6|0,0:0|0:0,0:0:0:0:
280,170,113470,1,2,0:0:0:0:
20,80,113612,1,2,0:0:0:0:
95,25,113753,2,0,P|107:67|114:110,1,88.000002685547,10|0,0:0|0:0,0:0:0:0:
40,275,114036,5,2,0:0:0:0:
115,330,114178,1,0,0:0:0:0:
200,290,114319,1,2,0:0:0:0:
200,200,114461,1,2,0:0:0:0:
275,345,114602,2,0,B|296:338|310:320|310:320|319:339|340:350,1,88.000002685547,2|0,0:0|0:0,0:0:0:0:
475,215,114885,5,10,0:0:0:0:
490,130,115027,1,2,0:0:0:0:
355,195,115168,2,0,B|337:189|323:177|323:177|324:203|351:216,1,88.000002685547,2|0,0:0|0:0,0:0:0:0:
475,40,115452,6,0,B|413:44|413:44|412:47|412:47|345:53,1,132.00000402832,2|0,0:0|0:0,0:0:0:0:
335,50,115734,2,0,B|353:44|367:32|367:32|366:58|339:71,1,88.000002685547,2|2,0:0|0:0,0:0:0:0:
260,110,116017,6,0,L|216:102,1,44.0000013427735,10|0,0:0|0:0,0:0:0:0:
380,300,116300,6,0,L|423:292,1,44.0000013427735,2|0,0:0|0:0,0:0:0:0:
150,170,116583,6,0,L|106:162,1,44.0000013427735,2|0,0:0|0:0,0:0:0:0:
100,155,116866,5,2,0:0:0:0:
80,245,117008,1,2,0:0:0:0:
15,355,117149,5,10,0:0:0:0:
80,245,117291,1,2,0:0:0:0:
190,330,117432,1,2,0:0:0:0:
190,330,117574,2,0,L|234:322,1,44.0000013427735,2|0,0:0|0:0,0:0:0:0:
300,375,117715,5,6,0:0:0:0:
280,250,117857,1,2,0:0:0:0:
325,175,117998,2,0,L|411:159,1,88.000002685547,2|2,0:0|0:0,0:0:0:0:
480,215,118281,5,10,0:0:0:0:
460,85,118423,1,2,0:0:0:0:
390,35,118564,2,0,L|304:51,1,88.000002685547,2|2,0:0|0:0,0:0:0:0:
215,65,118847,6,0,P|204:53|216:63,1,44.0000013427735,2|0,0:0|0:0,0:0:0:0:
35,195,119130,6,0,P|98:192|131:246,1,132.00000402832,2|0,0:0|0:0,0:0:0:0:
125,255,119413,1,10,0:0:0:0:
100,340,119555,1,2,0:0:0:0:
185,375,119696,2,0,P|228:365|271:356,1,88.000002685547,2|0,0:0|0:0,0:0:0:0:
360,365,119980,6,0,P|371:323|350:285,1,88.000002685547,2|0,0:0|0:0,0:0:0:0:
264,166,120263,2,0,P|254:208|275:246,1,88.000002685547,2|0,0:0|0:0,0:0:0:0:
340,120,120546,2,0,B|461:130|461:130|434:135|413:153,1,176.000005371094,10|2,0:0|0:0,0:0:0:0:
474,216,120970,5,2,0:0:0:0:
500,20,121112,2,0,P|458:11|425:38,1,88.000002685547,2|2,0:0|0:0,0:0:0:0:
340,120,121395,2,0,L|330:32,1,88.000002685547,2|2,0:0|0:0,0:0:0:0:
264,166,121678,5,10,0:0:0:0:
180,186,121819,1,2,0:0:0:0:
107,142,121961,1,2,0:0:0:0:
86,59,122102,2,0,B|77:58|71:46|71:46|64:56|70:68,1,44.0000013427735,2|0,0:0|0:0,0:0:0:0:
15,155,122244,6,0,B|35:201|26:267|26:267|60:254|83:233|83:233|100:259|125:283|125:283|136:225|180:186,1,360.000013732911,6|0,0:0|0:0,0:0:0:0:
280,255,122810,6,0,P|224:313|290:266,1,240.000009155274,10|2,0:0|0:0,0:0:0:0:
380,205,123234,5,2,0:0:0:0:
440,270,123376,2,0,P|482:263|507:228,1,88.000002685547,2|0,0:0|0:0,0:0:0:0:
500,115,123659,2,0,B|438:110|438:110|437:112|437:112|369:107,1,132.00000402832,2|0,0:0|0:0,0:0:0:0:
360,115,123942,5,10,0:0:0:0:
330,25,124083,1,2,0:0:0:0:
240,30,124225,1,2,0:0:0:0:
225,120,124366,2,0,L|218:163,1,44.0000013427735,2|0,0:0|0:0,0:0:0:0:
40,190,124508,6,0,B|25:58|25:58|85:46|97:105|63:126|63:126|102:135|109:187|52:197,1,360.000013732911,6|0,0:0|0:0,0:0:0:0:
35,365,125074,5,10,0:0:0:0:
100,310,125215,2,0,P|142:314|173:345,2,88.000002685547,2|2|2,0:0|0:0|0:0,0:0:0:0:
280,360,125640,6,0,P|262:320|273:278,1,88.000002685547,2|0,0:0|0:0,0:0:0:0:
240,180,125923,2,0,P|214:214|172:226,1,88.000002685547,2|0,0:0|0:0,0:0:0:0:
25,60,126206,5,10,0:0:0:0:
110,40,126347,1,2,0:0:0:0:
185,90,126489,1,2,0:0:0:0:
270,70,126631,2,0,B|281:59|281:48|281:48|279:54|266:59,1,44.0000013427735,2|0,0:0|0:0,0:0:0:0:
326,136,126772,6,0,B|364:203|366:298|366:298|424:269|492:266,1,300,6|0,0:0|0:0,0:0:0:0:
505,175,127338,5,10,0:0:0:0:
505,175,127480,1,2,0:0:0:0:
492,266,127621,2,0,L|483:353,1,88.000002685547,2|2,0:0|0:0,0:0:0:0:
280,275,127904,6,0,P|329:206|413:211,1,176.000005371094,2|2,0:0|0:0,0:0:0:0:
370,290,128329,1,0,0:0:0:0:
210,195,128470,2,0,P|182:162|185:119,1,88.000002685547,10|2,0:0|0:0,0:0:0:0:
250,60,128753,6,0,L|308:63,2,58.6666684570313,2|2|2,0:0|0:0|0:0,0:0:0:0:
185,119,129036,6,0,B|126:96|104:53|104:53|89:99|36:135,1,215.999993408203,6|0,0:0|0:0,0:0:0:0:
117,183,129602,6,0,P|125:226|132:269,1,88.000002685547,10|0,0:0|0:0,0:0:0:0:
290,240,129885,2,0,P|281:197|274:154,1,88.000002685547
65,335,130168,5,10,0:0:0:0:
145,375,130310,2,0,P|188:366|231:359,1,88.000002685547,8|0,0:0|0:0,0:0:0:0:
290,240,130592,5,8,0:0:0:0:
361,169,130734,2,0,P|318:160|275:153,1,88.000002685547,10|0,0:0|0:0,0:0:0:0:
170,20,131017,5,8,0:0:0:0:
117,183,131159,1,8,0:0:0:0:
170,20,131300,6,0,P|114:29|59:37,1,111.999996582031,6|0,0:0|0:0,0:0:0:0:
