osu file format v14

[General]
AudioFilename: audio.mp3
AudioLeadIn: 0
PreviewTime: 4508
Countdown: 0
SampleSet: Soft
StackLeniency: 0.4
Mode: 0
LetterboxInBreaks: 0
WidescreenStoryboard: 1

[Editor]
Bookmarks: 4508,13564,22621,40734,49791,58847,67904,76961,95074,104130,113187,122244,131300
DistanceSpacing: 1.5
BeatDivisor: 8
GridSize: 8
TimelineZoom: 2.5

[Metadata]
Title:edamame
TitleUnicode:edamame
Artist:bbno$ & Rich Brian
ArtistUnicode:bbno$ & Rich Brian
Creator:Bakugo-
Version:flakesjan's extra
Source:
Tags:english pop rap hip hop hip-hop hiphop kieg enri bakugo arronchu chu arronchu1207 jamesjan3 thexo chompy flake gokugohan12468 kittyadventure eat ya veggies Diamond Pistols Alexander Leon Gumuchian baby no money mula imanuel le mirai SirMirai cacturne soewarno
BeatmapID:3182641
BeatmapSetID:1557107

[Difficulty]
HPDrainRate:4
CircleSize:4.2
OverallDifficulty:8.5
ApproachRate:9.2
SliderMultiplier:2
SliderTickRate:1

[Events]
//Background and Video events
0,0,"88087667_p0.png",0,0
Video,0,"edamame video.mp4"
//Break Periods
//Storyboard Layer 0 (Background)
//Storyboard Layer 1 (Fail)
//Storyboard Layer 2 (Pass)
//Storyboard Layer 3 (Foreground)
//Storyboard Layer 4 (Overlay)
//Storyboard Sound Samples

[TimingPoints]
-4548,566.037735849057,4,2,0,50,1,0
4508,-50,4,2,1,50,0,0
6772,-40,4,2,1,50,0,0
7055,-50,4,2,1,50,0,0
7338,-44.4444444444445,4,2,1,50,0,0
7621,-50,4,2,1,50,0,0
8470,-66.6666666666667,4,2,1,50,0,0
9036,-40,4,2,1,50,0,0
10451,-50,4,2,1,50,0,0
11583,-40,4,2,1,50,0,0
11866,-66.6666666666667,4,2,1,50,0,0
12432,-50,4,2,1,50,0,0
12998,-40,4,2,1,50,0,0
13564,-40,4,2,1,50,0,0
14413,-50,4,2,1,50,0,0
15829,-40,4,2,1,50,0,0
16536,-50,4,2,1,50,0,0
17527,-57.1428571428571,4,2,1,50,0,0
18093,-40,4,2,1,50,0,0
18659,-50,4,2,1,50,0,0
20357,-40,4,2,1,50,0,0
20923,-100,4,2,1,50,0,0
21489,-66.6666666666667,4,2,1,50,0,0
21913,-57.1428571428571,4,2,1,50,0,0
22621,-50,4,2,1,50,0,0
31112,-66.6666666666667,4,2,1,50,0,0
31678,-40,4,2,1,50,0,0
31961,-50,4,2,1,50,0,0
32810,-66.6666666666667,4,2,1,50,0,0
33093,-44.4444444444445,4,2,1,50,0,0
33942,-66.6666666666667,4,2,1,50,0,0
35357,-44.4444444444445,4,2,1,50,0,0
35640,-66.6666666666667,4,2,1,50,0,0
36206,-40,4,2,1,50,0,0
36772,-50,4,2,1,50,0,0
37621,-44.4444444444445,4,2,1,50,0,0
37904,-66.6666666666667,4,2,1,50,0,0
39036,-100,4,2,1,50,0,0
39602,-66.6666666666667,4,2,1,50,0,0
40026,-57.1428571428571,4,2,1,50,0,0
40734,-50,4,2,1,50,0,0
41442,-57.1428571428571,4,2,1,50,0,0
41866,-66.6666666666667,4,2,1,50,0,0
42291,-80,4,2,1,50,0,0
43564,-100,4,2,1,50,0,0
45543,-50,4,2,1,50,0,0
46112,-57.1428571428571,4,2,1,50,0,0
46536,-66.6666666666667,4,2,1,50,0,0
46961,-80,4,2,1,50,0,0
47243,-100,4,2,1,50,0,0
48942,-36.3636363636364,4,2,1,50,0,0
49225,-50,4,2,1,50,0,0
49649,-57.1428571428571,4,2,1,50,0,0
49791,-200,4,2,1,30,0,0
51489,-66.6666666666667,4,2,1,30,0,0
52055,-200,4,2,1,30,0,0
53753,-80,4,2,1,30,0,0
54319,-200,4,2,1,30,0,0
56017,-66.6666666666667,4,2,1,30,0,0
56583,-66.6666666666667,4,2,1,50,0,0
57149,-100,4,2,1,50,0,0
57715,-57.1428571428571,4,2,1,50,0,0
58139,-50,4,2,1,50,0,0
58847,-50,4,2,1,50,0,0
61112,-40,4,2,1,50,0,0
61395,-50,4,2,1,50,0,0
61678,-44.4444444444445,4,2,1,50,0,0
61961,-50,4,2,1,50,0,0
62810,-66.6666666666667,4,2,1,50,0,0
63376,-40,4,2,1,50,0,0
64791,-50,4,2,1,50,0,0
65923,-40,4,2,1,50,0,0
66206,-66.6666666666667,4,2,1,50,0,0
66772,-50,4,2,1,50,0,0
67338,-40,4,2,1,50,0,0
67904,-40,4,2,1,50,0,0
68753,-50,4,2,1,50,0,0
70166,-40,4,2,1,50,0,0
70876,-50,4,2,1,50,0,0
71867,-57.1428571428571,4,2,1,50,0,0
72432,-40,4,2,1,50,0,0
72999,-50,4,2,1,50,0,0
74696,-40,4,2,1,50,0,0
75263,-100,4,2,1,50,0,0
75970,-57.1428571428571,4,2,1,50,0,0
76395,-50,4,2,1,50,0,0
76961,-50,4,2,1,50,0,0
81206,-40,4,2,1,50,0,0
81489,-50,4,2,1,50,0,0
89980,-66.6666666666667,4,2,1,50,0,0
90546,-50,4,2,1,50,0,0
92810,-66.6666666666667,4,2,1,50,0,0
93376,-100,4,2,1,50,0,0
93942,-66.6666666666667,4,2,1,50,0,0
94366,-57.1428571428571,4,2,1,50,0,0
94791,-133.333333333333,4,2,1,50,0,0
95074,-50,4,2,1,50,0,0
96206,-40,4,2,1,50,0,0
97338,-50,4,2,1,50,0,0
102998,-100,4,2,1,50,0,0
104130,-100,4,2,1,30,0,0
110923,-100,4,2,1,50,0,0
111489,-100,4,2,1,50,0,0
112196,-57.1428571428571,4,2,1,50,0,0
112621,-50,4,2,1,50,0,0
113187,-50,4,2,1,50,0,0
115451,-40,4,2,1,50,0,0
115734,-50,4,2,1,50,0,0
116017,-44.4444444444445,4,2,1,50,0,0
116300,-50,4,2,1,50,0,0
117149,-66.6666666666667,4,2,1,50,0,0
117715,-40,4,2,1,50,0,0
119130,-50,4,2,1,50,0,0
120262,-40,4,2,1,50,0,0
120545,-66.6666666666667,4,2,1,50,0,0
121111,-50,4,2,1,50,0,0
121677,-40,4,2,1,50,0,0
122244,-40,4,2,1,50,0,0
123093,-50,4,2,1,50,0,0
124508,-40,4,2,1,50,0,0
125074,-50,4,2,1,50,0,0
126772,-40,4,2,1,50,0,0
127338,-50,4,2,1,50,0,0
129036,-40,4,2,1,50,0,0
129602,-100,4,2,1,50,0,0
130168,-66.6666666666667,4,2,1,50,0,0
130592,-57.1428571428571,4,2,1,50,0,0
131300,-133.333333333333,4,2,1,50,0,0

[Colours]
Combo1 : 103,175,90
Combo2 : 235,102,95
Combo3 : 134,221,77

[HitObjects]
143,331,4508,6,0,P|109:221|36:226,1,200,6|2,0:0|0:0,0:0:0:0:
125,191,4932,1,2,0:0:0:0:
17,359,5074,2,0,P|44:308|83:290,1,99.9999999999999,10|0,0:0|0:0,0:0:0:0:
290,250,5357,5,2,0:0:0:0:
290,250,5498,1,0,0:0:0:0:
254,342,5640,5,2,0:0:0:0:
225,175,5781,1,2,0:0:0:0:
384,233,5923,2,0,P|439:213|505:200,1,99.9999999999999,2|0,0:0|0:0,0:0:0:0:
303,211,6206,5,10,0:0:0:0:
249,261,6347,1,2,0:0:0:0:
317,284,6489,1,2,0:0:0:0:
0,91,6772,6,0,L|212:62,1,187.5,2|0,0:0|0:0,0:0:0:0:
154,0,7055,2,0,P|117:34|118:83,1,99.9999999999999,2|2,0:0|0:0,0:0:0:0:
240,119,7338,2,0,P|261:76|236:11,1,112.500004291535,10|0,0:0|0:0,0:0:0:0:
74,262,7621,6,0,B|43:272|43:272|14:244|36:208,1,99.9999999999999,2|0,0:0|0:0,0:0:0:0:
214,218,7904,6,0,B|250:232|250:232|266:283|246:331|212:356|159:344,1,200,2|2,0:0|0:0,0:0:0:0:
118,193,8329,1,2,0:0:0:0:
285,297,8470,6,0,B|387:374|467:342|473:262|403:279|410:303,1,225.000008583069,10|0,0:0|0:0,0:0:0:0:
409,297,9036,6,0,L|401:374,1,62.5,2|0,0:0|0:0,0:0:0:0:
358,239,9178,1,2,0:0:0:0:
417,186,9320,1,2,0:0:0:0:
467,244,9461,1,2,0:0:0:0:
237,45,9602,5,10,0:0:0:0:
343,101,9744,1,2,0:0:0:0:
312,34,9885,1,2,0:0:0:0:
270,111,10027,1,2,0:0:0:0:
510,17,10168,5,2,0:0:0:0:
510,17,10451,6,0,B|499:5|499:5|441:38|404:164,2,200,2|10|2,0:0|0:0|0:0,0:0:0:0:
281,291,11300,6,0,P|305:230|346:226,1,99.9999999999999,2|0,0:0|0:0,0:0:0:0:
315,373,11583,2,0,P|296:291|194:252,1,187.5,2|0,0:0|0:0,0:0:0:0:
145,197,11866,6,0,B|106:197|73:231|94:242|74:274|12:274,1,150.000005722046,10|2,0:0|0:0,0:0:0:0:
50,124,12291,1,2,0:0:0:0:
208,250,12432,6,0,B|170:299|109:269|126:255|64:225|17:282,1,200,2|2,0:0|0:0,0:0:0:0:
139,384,12857,1,2,0:0:0:0:
232,176,12998,6,0,B|172:152|112:225|143:230|99:307|15:268,1,250,10|2,0:0|0:0,0:0:0:0:
50,124,13423,1,0,0:0:0:0:
213,257,13564,6,0,B|297:338|492:301|404:160|308:142|257:276|367:332,1,375,6|0,0:0|0:0,0:0:0:0:
402,344,14130,1,10,0:0:0:0:
338,50,14413,5,2,0:0:0:0:
359,181,14555,1,2,0:0:0:0:
300,123,14696,2,0,P|258:128|199:132,1,100,2|0,0:0|0:0,0:0:0:0:
392,110,14980,2,0,P|433:104|492:100,1,100,2|0,0:0|0:0,0:0:0:0:
459,285,15263,5,10,0:0:0:0:
369,266,15404,1,2,0:0:0:0:
428,209,15546,1,2,0:0:0:0:
402,344,15687,1,2,0:0:0:0:
130,290,15829,6,0,B|82:264|58:184|131:163|137:129|137:129|159:163|224:133|247:240|204:281,1,375,6|0,0:0|0:0,0:0:0:0:
186,346,16395,1,10,0:0:0:0:
164,55,16536,5,2,0:0:0:0:
229,90,16678,2,0,B|268:82|268:82|279:55|279:55|318:47,1,100,2|2,0:0|0:0,0:0:0:0:
285,255,16961,6,0,P|261:216|270:163,1,100,2|0,0:0|0:0,0:0:0:0:
477,136,17244,2,0,P|501:175|492:228,1,100,2|0,0:0|0:0,0:0:0:0:
277,173,17527,5,10,0:0:0:0:
486,226,17668,1,2,0:0:0:0:
471,144,17810,5,2,0:0:0:0:
296,253,17951,1,2,0:0:0:0:
405,310,18093,6,0,B|375:321|375:321|285:278|186:286|186:286|170:269,1,250,6|2,0:0|0:0,0:0:0:0:
307,10,18659,5,10,0:0:0:0:
389,24,18800,1,2,0:0:0:0:
382,111,18942,2,0,L|276:92,1,100,2|2,0:0|0:0,0:0:0:0:
7,85,19225,6,0,B|43:35|96:48|96:48|103:75|135:90,1,150,2|0,0:0|0:0,0:0:0:0:
128,102,19508,6,0,P|78:114|51:155,1,100,2|0,0:0|0:0,0:0:0:0:
93,219,19791,2,0,P|143:207|170:166,1,100,10|2,0:0|0:0,0:0:0:0:
313,157,20074,5,2,0:0:0:0:
327,163,20168,5,2,0:0:0:0:
340,176,20263,5,2,0:0:0:0:
341,191,20357,6,0,B|355:175|356:158|356:158|421:106|517:138|524:242|492:307|397:321|356:282,1,375,6|0,0:0|0:0,0:0:0:0:
384,368,20923,6,0,P|362:328|252:312,1,150,10|0,0:0|0:0,0:0:0:0:
160,259,21489,5,10,0:0:0:0:
125,352,21630,2,0,P|174:348|198:323,1,75.0000028610231,8|0,0:0|0:0,0:0:0:0:
213,136,21913,5,8,0:0:0:0:
15,191,22055,2,0,P|41:225|87:241,1,87.500000834465,10|0,0:0|0:0,0:0:0:0:
256,36,22338,5,8,0:0:0:0:
116,79,22480,1,8,0:0:0:0:
266,303,22621,6,0,P|288:211|314:143,1,150,6|0,0:0|0:0,0:0:0:0:
307,159,22904,1,2,0:0:0:0:
204,355,23046,5,2,0:0:0:0:
19,10,23329,5,2,0:0:0:0:
91,41,23470,1,2,0:0:0:0:
77,114,23612,1,2,0:0:0:0:
6,82,23753,1,2,0:0:0:0:
48,278,23895,5,2,0:0:0:0:
214,255,24178,5,2,0:0:0:0:
286,90,24319,1,10,0:0:0:0:
233,148,24461,1,2,0:0:0:0:
277,208,24602,1,2,0:0:0:0:
239,0,24744,5,2,0:0:0:0:
497,114,25027,5,2,0:0:0:0:
431,81,25169,1,2,0:0:0:0:
496,40,25310,1,2,0:0:0:0:
406,267,25451,5,10,0:0:0:0:
355,210,25593,1,2,0:0:0:0:
283,233,25734,1,2,0:0:0:0:
508,383,25876,5,2,0:0:0:0:
283,233,26159,5,2,0:0:0:0:
323,299,26300,1,2,0:0:0:0:
272,357,26442,1,2,0:0:0:0:
65,232,26583,6,0,L|111:208,1,50,10|0,0:0|0:0,0:0:0:0:
149,253,26725,2,0,L|113:204,1,50,2|0,0:0|0:0,0:0:0:0:
124,139,26866,1,2,0:0:0:0:
94,305,27008,6,0,B|143:284|205:310|166:346|220:381|288:349,1,200,2|2,0:0|0:0,0:0:0:0:
440,329,27432,1,2,0:0:0:0:
411,259,27574,1,2,0:0:0:0:
336,284,27715,1,10,0:0:0:0:
267,242,27857,5,2,0:0:0:0:
332,202,27998,1,2,0:0:0:0:
270,251,28140,1,2,0:0:0:0:
163,177,28281,6,0,P|179:98|298:120,1,200,2|2,0:0|0:0,0:0:0:0:
176,41,28706,5,2,0:0:0:0:
233,151,28847,1,10,0:0:0:0:
163,254,28989,1,2,0:0:0:0:
255,0,29130,5,2,0:0:0:0:
503,196,29413,5,2,0:0:0:0:
367,145,29555,1,2,0:0:0:0:
422,221,29696,2,0,P|435:172|455:127,1,100,2|0,0:0|0:0,0:0:0:0:
438,332,29980,5,10,0:0:0:0:
251,278,30121,1,2,0:0:0:0:
327,270,30263,1,2,0:0:0:0:
361,339,30404,1,2,0:0:0:0:
177,230,30546,6,0,L|109:238,1,50,2|0,0:0|0:0,0:0:0:0:
139,292,30687,2,0,L|123:239,1,50,2|0,0:0|0:0,0:0:0:0:
63,208,30829,2,0,B|54:177|24:181|24:181|29:206|61:207,1,100,2|2,0:0|0:0,0:0:0:0:
299,307,31112,6,0,B|371:334|419:327|456:235|343:232|371:293|349:318|304:301,1,225.000008583069,8|0,0:0|0:0,0:0:0:0:
224,294,31678,6,0,L|233:374,1,62.5,6|0,0:0|0:0,0:0:0:0:
200,222,31819,1,2,0:0:0:0:
255,167,31961,2,0,L|268:10,1,150,2|0,0:0|0:0,0:0:0:0:
267,17,32244,1,10,0:0:0:0:
447,33,32385,5,2,0:0:0:0:
365,90,32527,1,2,0:0:0:0:
373,17,32668,1,2,0:0:0:0:
439,109,32810,2,0,P|465:157|471:194,1,75.0000028610231,2|2,0:0|0:0,0:0:0:0:
496,318,33093,6,0,B|477:303|477:303|312:346,1,168.750006437302,2|0,0:0|0:0,0:0:0:0:
337,339,33376,1,10,0:0:0:0:
216,203,33517,5,2,0:0:0:0:
291,232,33659,1,2,0:0:0:0:
291,232,33800,1,2,0:0:0:0:
110,311,33942,6,0,P|57:288|18:283,1,75.0000028610231,2|2,0:0|0:0,0:0:0:0:
186,290,34225,1,2,0:0:0:0:
50,369,34366,1,2,0:0:0:0:
29,206,34508,2,0,L|53:124,2,75.0000028610231,10|2|2,0:0|0:0|0:0,0:0:0:0:
110,311,34932,5,2,0:0:0:0:
186,290,35074,1,2,0:0:0:0:
225,355,35215,1,2,0:0:0:0:
302,254,35357,6,0,B|314:232|314:232|290:74,1,168.750006437302,2|0,0:0|0:0,0:0:0:0:
290,87,35640,6,0,B|236:96|227:156|291:198|343:156|343:88|416:138,1,225.000008583069,10|2,0:0|0:0,0:0:0:0:
397,127,36206,6,0,L|407:204,1,62.5,2|0,0:0|0:0,0:0:0:0:
428,339,36347,1,2,0:0:0:0:
471,271,36489,1,2,0:0:0:0:
371,285,36630,1,2,0:0:0:0:
480,137,36772,6,0,P|450:65|420:48,2,100,10|2|2,0:0|0:0|0:0,0:0:0:0:
321,145,37196,1,2,0:0:0:0:
397,127,37338,2,0,L|272:115,1,100,2|2,0:0|0:0,0:0:0:0:
84,75,37621,6,0,B|87:50|87:50|247:20,1,168.750006437302,2|0,0:0|0:0,0:0:0:0:
233,28,37904,2,0,L|223:111,1,75.0000028610231,10|0,0:0|0:0,0:0:0:0:
142,262,38187,5,2,0:0:0:0:
162,252,38281,5,2,0:0:0:0:
160,277,38376,5,2,0:0:0:0:
154,266,38470,6,0,B|213:248|258:290|222:312|281:368|348:327,1,225.000008583069,6|0,0:0|0:0,0:0:0:0:
409,292,39036,6,0,P|372:236|305:266,1,150,10|0,0:0|0:0,0:0:0:0:
147,191,39602,5,10,0:0:0:0:
154,266,39744,2,0,P|195:259|218:224,1,75.0000028610231,8|0,0:0|0:0,0:0:0:0:
360,56,40027,5,8,0:0:0:0:
310,187,40168,2,0,P|261:161|242:109,1,87.500000834465,10|0,0:0|0:0,0:0:0:0:
96,0,40451,5,8,0:0:0:0:
269,60,40593,1,8,0:0:0:0:
35,59,40734,5,14,0:0:0:0:
173,114,41017,5,2,0:0:0:0:
73,291,41159,2,0,L|64:191,1,100,2|8,0:0|0:0,0:0:0:0:
188,352,41442,5,2,0:0:0:0:
139,194,41583,2,0,L|147:293,1,87.500000834465,2|0,0:0|0:0,0:0:0:0:
173,114,41866,5,2,0:0:0:0:
219,269,42008,2,0,L|211:181,1,75.0000028610231,2|0,0:0|0:0,0:0:0:0:
188,352,42291,5,2,0:0:0:0:
288,196,42432,2,0,L|294:276,1,62.5,10|0,0:0|0:0,0:0:0:0:
419,340,42715,5,2,0:0:0:0:
303,358,42857,2,0,P|324:331|358:318,1,62.5,2|0,0:0|0:0,0:0:0:0:
490,358,43140,5,2,0:0:0:0:
416,266,43282,2,0,P|449:271|477:294,1,62.5,2|0,0:0|0:0,0:0:0:0:
420,173,43564,5,10,0:0:0:0:
494,185,43706,2,0,B|499:159|499:159|483:132,1,50,2|0,0:0|0:0,0:0:0:0:
420,173,43989,5,2,0:0:0:0:
345,160,44131,2,0,B|339:185|339:185|355:212,1,50,2|0,0:0|0:0,0:0:0:0:
498,62,44413,5,2,0:0:0:0:
312,29,44555,1,2,0:0:0:0:
421,48,44696,2,0,L|357:74,1,50,10|2,0:0|0:0,0:0:0:0:
52,100,44980,5,2,0:0:0:0:
209,65,45121,1,2,0:0:0:0:
162,223,45263,1,2,0:0:0:0:
357,138,45546,5,2,0:0:0:0:
462,315,45687,2,0,P|479:266|519:228,1,100,2|8,0:0|0:0,0:0:0:0:
350,340,45970,5,2,0:0:0:0:
410,193,46112,2,0,P|391:232|392:276,1,87.500000834465,2|0,0:0|0:0,0:0:0:0:
357,138,46395,5,2,0:0:0:0:
315,270,46536,2,0,P|301:232|305:191,1,75.0000028610231,2|0,0:0|0:0,0:0:0:0:
350,340,46819,5,2,0:0:0:0:
215,242,46961,2,0,P|223:271|243:295,1,62.5,10|0,0:0|0:0,0:0:0:0:
391,275,47244,5,2,0:0:0:0:
257,372,47385,2,0,L|186:364,1,50,2|0,0:0|0:0,0:0:0:0:
24,246,47668,5,2,0:0:0:0:
105,311,47810,2,0,L|176:303,1,50,2|0,0:0|0:0,0:0:0:0:
301,182,48093,5,10,0:0:0:0:
241,223,48234,2,0,L|170:215,1,50,2|2,0:0|0:0,0:0:0:0:
109,134,48517,5,2,0:0:0:0:
126,147,48659,2,0,L|197:139,1,50,2|0,0:0|0:0,0:0:0:0:
444,141,48942,6,0,B|493:106|423:5|334:80|370:137,1,206.250001966953,2|0,0:0|0:0,0:0:0:0:
440,230,49225,6,0,B|400:202|400:202|352:220,1,100,10|2,0:0|0:0,0:0:0:0:
382,336,49508,1,2,0:0:0:0:
382,336,49649,6,0,L|388:278,1,43.7500004172325,2|0,0:0|0:0,0:0:0:0:
412,115,49791,6,0,L|402:65,2,50,2|2|10,0:0|0:0|0:0,0:0:0:0:
252,41,50498,1,0,0:0:0:0:
325,57,50640,2,0,L|329:23,1,25,2|0,0:0|0:0,0:0:0:0:
175,53,50923,2,0,L|179:19,1,25,2|0,0:0|0:0,0:0:0:0:
14,52,51206,2,0,L|18:18,1,25,2|2,0:0|0:0,0:0:0:0:
95,41,51489,6,0,L|115:215,1,150.000005722046,10|2,0:0|0:0,0:0:0:0:
7,331,51913,1,0,0:0:0:0:
65,280,52055,2,0,L|69:246,1,25,2|0,0:0|0:0,0:0:0:0:
221,286,52338,2,0,L|218:310,1,25,2|2,0:0|0:0,0:0:0:0:
141,286,52621,5,10,0:0:0:0:
301,314,52904,1,2,0:0:0:0:
141,286,53187,2,0,L|138:261,1,25,2|0,0:0|0:0,0:0:0:0:
103,358,53470,1,2,0:0:0:0:
254,170,53753,6,0,B|281:140|299:69|245:31|197:64|218:126|254:136,1,187.5,10|0,0:0|0:0,0:0:0:0:
258,174,54319,6,0,L|264:229,2,50,2|2|10,0:0|0:0|0:0,0:0:0:0:
415,154,55027,1,0,0:0:0:0:
336,152,55168,2,0,L|340:128,1,25,2|0,0:0|0:0,0:0:0:0:
493,164,55451,2,0,L|489:188,1,25,2|0,0:0|0:0,0:0:0:0:
380,253,55734,2,0,L|383:228,1,25,2|2,0:0|0:0,0:0:0:0:
415,154,56017,6,0,L|438:304,1,150,10|2,0:0|0:0,0:0:0:0:
484,362,56395,5,2,0:0:0:0:
496,352,56489,5,2,0:0:0:0:
503,339,56583,5,6,0:0:0:0:
180,374,57149,6,0,P|196:309|253:215,1,150,10|0,0:0|0:0,0:0:0:0:
357,139,57715,5,10,0:0:0:0:
317,244,57857,2,0,P|284:175|257:153,1,87.500000834465,8|0,0:0|0:0,0:0:0:0:
172,39,58140,5,8,0:0:0:0:
196,172,58281,2,0,P|214:120|262:72,1,100,10|0,0:0|0:0,0:0:0:0:
396,211,58564,5,8,0:0:0:0:
120,145,58706,1,8,0:0:0:0:
357,139,58847,6,0,P|429:131|475:235,1,200,6|2,0:0|0:0,0:0:0:0:
499,77,59272,1,2,0:0:0:0:
446,307,59413,2,0,P|393:306|349:339,1,100,10|0,0:0|0:0,0:0:0:0:
175,251,59696,5,2,0:0:0:0:
175,251,59838,1,0,0:0:0:0:
250,333,59980,5,2,0:0:0:0:
184,157,60121,1,2,0:0:0:0:
72,326,60263,2,0,P|123:322|174:340,1,100,2|0,0:0|0:0,0:0:0:0:
247,228,60546,5,10,0:0:0:0:
92,245,60687,1,2,0:0:0:0:
316,264,60829,2,0,B|328:216|328:216|300:168,1,100,2|0,0:0|0:0,0:0:0:0:
242,86,61112,6,0,B|137:71|188:161|61:130,1,187.5,2|0,0:0|0:0,0:0:0:0:
30,62,61395,2,0,B|-1:15|55:-8|55:66,1,100,2|2,0:0|0:0,0:0:0:0:
121,190,61678,2,0,B|94:202|88:233|88:233|70:204|24:206,1,112.500004291535,10|0,0:0|0:0,0:0:0:0:
315,40,61961,6,0,B|337:22|337:22|376:20|401:62,1,100,2|0,0:0|0:0,0:0:0:0:
316,264,62244,6,0,B|291:275|279:291|279:291|213:258|204:211|229:165,1,200,2|2,0:0|0:0,0:0:0:0:
458,117,62668,1,2,0:0:0:0:
391,282,62810,6,0,B|402:251|388:217|354:192|354:192|416:164|472:237,1,225.000008583069,10|0,0:0|0:0,0:0:0:0:
460,223,63376,6,0,P|421:218|397:199,1,62.5,2|0,0:0|0:0,0:0:0:0:
326,142,63517,1,2,0:0:0:0:
380,74,63659,1,2,0:0:0:0:
458,117,63800,1,2,0:0:0:0:
159,64,63942,5,10,0:0:0:0:
265,80,64083,1,2,0:0:0:0:
220,19,64225,1,2,0:0:0:0:
204,125,64366,1,2,0:0:0:0:
25,101,64508,5,2,0:0:0:0:
25,101,64791,6,0,B|36:112|36:112|117:58|219:74,2,200,2|10|2,0:0|0:0|0:0,0:0:0:0:
153,201,65640,6,0,B|171:218|176:241|176:241|157:222|116:213,1,100,2|0,0:0|0:0,0:0:0:0:
45,250,65923,6,0,P|100:240|203:326,1,187.5,2|0,0:0|0:0,0:0:0:0:
267,272,66206,6,0,B|311:291|352:245|318:249|355:203|401:220,1,150.000005722046,10|2,0:0|0:0,0:0:0:0:
475,348,66630,1,2,0:0:0:0:
246,203,66772,6,0,B|305:184|352:249|308:239|350:304|412:288,1,200,2|2,0:0|0:0,0:0:0:0:
473,117,67196,1,2,0:0:0:0:
219,287,67338,6,0,B|289:317|354:243|300:250|359:176|432:203,1,250,10|2,0:0|0:0,0:0:0:0:
343,365,67763,1,0,0:0:0:0:
311,123,67904,6,0,B|320:30|271:-23|163:19|169:90|227:124|265:72,2,250,6|2|10,0:0|0:0|0:0,0:0:0:0:
24,364,68753,5,2,0:0:0:0:
197,167,68895,1,2,0:0:0:0:
102,302,69036,2,0,P|61:289|0:279,1,100,2|0,0:0|0:0,0:0:0:0:
122,225,69319,2,0,P|169:239|219:247,1,100,2|0,0:0|0:0,0:0:0:0:
489,238,69603,5,10,0:0:0:0:
338,216,69744,1,2,0:0:0:0:
365,324,69886,1,2,0:0:0:0:
400,173,70027,1,2,0:0:0:0:
244,366,70168,6,0,B|144:337|177:210|177:210|195:247|242:252,2,250,6|2|10,0:0|0:0|0:0,0:0:0:0:
365,324,70876,5,2,0:0:0:0:
448,357,71017,2,0,P|444:298|430:246,1,100,2|2,0:0|0:0,0:0:0:0:
492,59,71300,6,0,P|433:96|439:120,1,100,2|0,0:0|0:0,0:0:0:0:
220,100,71583,2,0,P|278:62|272:38,1,100,2|0,0:0|0:0,0:0:0:0:
496,70,71866,5,10,0:0:0:0:
228,110,72008,1,2,0:0:0:0:
285,52,72149,5,2,0:0:0:0:
430,121,72291,1,2,0:0:0:0:
393,245,72432,6,0,B|344:202|360:67|360:67|340:202|266:218,1,375,6|0,0:0|0:0,0:0:0:0:
197,257,72998,5,10,0:0:0:0:
313,302,73140,1,2,0:0:0:0:
220,375,73281,2,0,P|168:354|107:347,1,100,2|2,0:0|0:0,0:0:0:0:
15,171,73564,6,0,P|95:147|171:104,1,150,2|0,0:0|0:0,0:0:0:0:
155,110,73847,2,0,P|130:49|103:30,1,100,2|0,0:0|0:0,0:0:0:0:
233,21,74130,1,10,0:0:0:0:
164,198,74272,1,2,0:0:0:0:
385,212,74413,5,2,0:0:0:0:
374,198,74508,5,2,0:0:0:0:
364,216,74602,5,2,0:0:0:0:
377,225,74696,6,0,B|417:152|379:85|287:35|235:149|235:149|282:134|318:167,1,375,6|0,0:0|0:0,0:0:0:0:
318,170,75263,6,0,P|288:232|267:318,1,150,10|0,0:0|0:0,0:0:0:0:
98,257,75829,5,10,0:0:0:0:
194,361,75970,2,0,P|181:293|165:253,1,87.500000834465,8|0,0:0|0:0,0:0:0:0:
106,0,76253,5,8,0:0:0:0:
247,60,76395,2,0,P|234:108|229:158,1,100,10|0,0:0|0:0,0:0:0:0:
330,25,76678,5,8,0:0:0:0:
86,122,76819,1,8,0:0:0:0:
271,275,76961,5,6,0:0:0:0:
226,166,77102,1,2,0:0:0:0:
145,253,77244,1,2,0:0:0:0:
224,176,77385,1,2,0:0:0:0:
200,312,77527,5,10,0:0:0:0:
302,201,77668,1,2,0:0:0:0:
417,274,77810,2,0,B|466:284|466:284|507:257,1,100,2|2,0:0|0:0,0:0:0:0:
467,103,78093,2,0,B|440:103|419:64|419:64|451:220,1,200,2|2,0:0|0:0,0:0:0:0:
482,360,78517,1,2,0:0:0:0:
200,312,78659,5,10,0:0:0:0:
271,275,78800,1,2,0:0:0:0:
326,332,78942,1,2,0:0:0:0:
58,270,79225,5,2,0:0:0:0:
158,163,79366,1,2,0:0:0:0:
15,189,79508,1,2,0:0:0:0:
145,253,79649,1,2,0:0:0:0:
77,124,79791,6,0,P|66:73|47:11,1,100,10|2,0:0|0:0,0:0:0:0:
116,336,80074,1,2,0:0:0:0:
116,336,80215,1,2,0:0:0:0:
220,117,80357,6,0,B|276:94|327:138|302:158|345:204|408:181,1,200,2|2,0:0|0:0,0:0:0:0:
271,275,80781,1,2,0:0:0:0:
398,104,80923,6,0,P|394:89|369:64,1,50,10|0,0:0|0:0,0:0:0:0:
407,105,81064,2,0,P|415:92|447:77,1,50,2|0,0:0|0:0,0:0:0:0:
417,0,81206,2,0,L|392:196,1,187.5,2|0,0:0|0:0,0:0:0:0:
460,228,81489,5,2,0:0:0:0:
380,262,81630,1,2,0:0:0:0:
314,200,81772,2,0,P|267:193|213:212,1,100,2|2,0:0|0:0,0:0:0:0:
49,356,82055,5,10,0:0:0:0:
139,218,82196,1,2,0:0:0:0:
38,194,82338,5,2,0:0:0:0:
55,357,82479,1,2,0:0:0:0:
19,282,82621,6,0,B|69:276|69:276|121:310,1,100,2|0,0:0|0:0,0:0:0:0:
172,349,82904,1,2,0:0:0:0:
160,127,83046,6,0,B|108:130|108:130|58:94,1,100,2|8,0:0|0:0,0:0:0:0:
133,46,83329,1,2,0:0:0:0:
235,115,83470,1,2,0:0:0:0:
335,54,83612,1,2,0:0:0:0:
315,132,83753,5,2,0:0:0:0:
259,34,83895,1,2,0:0:0:0:
422,82,84036,1,2,0:0:0:0:
323,138,84178,1,2,0:0:0:0:
486,272,84319,6,0,B|440:263|425:223|425:223|385:215|350:252,1,150,10|0,0:0|0:0,0:0:0:0:
320,306,84602,2,0,P|299:318|324:307,1,100,2|2,0:0|0:0,0:0:0:0:
498,194,84885,6,0,P|501:140|473:95,1,100,2|0,0:0|0:0,0:0:0:0:
241,144,85168,1,2,0:0:0:0:
241,144,85310,2,0,P|237:197|265:242,1,100,2|10,0:0|0:0,0:0:0:0:
331,23,85593,5,2,0:0:0:0:
402,102,85734,2,0,B|362:96|362:96|354:103|354:103|293:95,1,100,2|2,0:0|0:0,0:0:0:0:
29,129,86017,5,6,0:0:0:0:
29,129,86230,2,0,B|56:124|71:103|71:103|127:114,1,100
121,192,86442,2,0,B|93:233|93:233|95:180,1,100,2|10,0:0|0:0,0:0:0:0:
133,114,86725,5,2,0:0:0:0:
18,277,86866,2,0,B|42:260|42:260|132:282|132:282|147:310,2,150,2|2|2,0:0|0:0|0:0,0:0:0:0:
291,212,87574,5,2,0:0:0:0:
236,362,87715,2,0,B|249:277|249:277|223:263|215:223,2,150,10|0|2,0:0|0:0|0:0,0:0:0:0:
484,297,88423,5,2,0:0:0:0:
417,335,88564,2,0,B|376:305|376:305|326:322,1,100,2|2,0:0|0:0,0:0:0:0:
291,212,88847,6,0,P|319:167|315:109,1,100,10|2,0:0|0:0,0:0:0:0:
458,185,89130,2,0,P|416:152|400:96,1,100,2|2,0:0|0:0,0:0:0:0:
472,53,89413,6,0,B|480:72|480:72|351:54,2,150,2|2|2,0:0|0:0|0:0,0:0:0:0:
281,27,89980,6,0,L|205:40,1,75.0000028610231,10|2,0:0|0:0,0:0:0:0:
351,54,90263,1,2,0:0:0:0:
133,28,90404,2,0,L|95:21,1,37.5000014305115,2|0,0:0|0:0,0:0:0:0:
85,20,90546,5,2,0:0:0:0:
51,88,90687,1,2,0:0:0:0:
139,77,90829,1,2,0:0:0:0:
105,145,90970,1,2,0:0:0:0:
209,192,91112,5,10,0:0:0:0:
193,291,91253,1,2,0:0:0:0:
39,215,91395,2,0,L|140:229,1,100,2|2,0:0|0:0,0:0:0:0:
376,265,91678,6,0,L|276:251,1,100,2|2,0:0|0:0,0:0:0:0:
263,246,91890,2,0,L|300:338,1,100,2|2,0:0|0:0,0:0:0:0:
303,353,92102,2,0,L|364:274,1,100,2|10,0:0|0:0,0:0:0:0:
327,176,92385,1,0,0:0:0:0:
474,353,92527,5,2,0:0:0:0:
472,344,92621,5,2,0:0:0:0:
470,336,92715,5,2,0:0:0:0:
469,326,92810,6,0,L|503:88,1,225.000008583069,6|0,0:0|0:0,0:0:0:0:
436,20,93376,6,0,B|443:19|457:23|457:23|433:37|429:63|429:63|444:40|477:24|505:25,1,150,10|0,0:0|0:0,0:0:0:0:
500,103,93942,5,10,0:0:0:0:
386,224,94083,2,0,P|342:221|310:201,1,75.0000028610231,8|0,0:0|0:0,0:0:0:0:
259,55,94366,5,8,0:0:0:0:
259,55,94791,2,0,L|249:121,1,56.2500021457673
194,287,95074,6,0,P|169:241|32:133,1,200,6|2,0:0|0:0,0:0:0:0:
141,147,95498,1,2,0:0:0:0:
151,356,95640,2,0,P|224:359|253:333,1,100,10|2,0:0|0:0,0:0:0:0:
355,207,95923,1,2,0:0:0:0:
275,274,96064,1,2,0:0:0:0:
486,198,96206,5,2,0:0:0:0:
34,190,96489,1,2,0:0:0:0:
489,187,96772,5,10,0:0:0:0:
40,199,97055,1,2,0:0:0:0:
186,39,97338,6,0,P|250:62|252:111,1,100,2|2,0:0|0:0,0:0:0:0:
229,211,97621,2,0,P|206:155|177:111,1,100,2|2,0:0|0:0,0:0:0:0:
321,124,97904,1,10,0:0:0:0:
210,292,98046,1,2,0:0:0:0:
349,317,98187,2,0,P|337:274|283:264,1,100,2|2,0:0|0:0,0:0:0:0:
35,186,98470,5,2,0:0:0:0:
494,196,98753,1,2,0:0:0:0:
258,197,99036,5,2,0:0:0:0:
253,186,99319,1,2,0:0:0:0:
7,324,99602,6,0,P|53:309|77:266,1,100,2|2,0:0|0:0,0:0:0:0:
115,363,99885,1,2,0:0:0:0:
129,118,100027,1,2,0:0:0:0:
60,175,100168,2,0,P|124:199|168:225,1,100,10|0,0:0|0:0,0:0:0:0:
301,285,100451,1,2,0:0:0:0:
222,176,100593,1,2,0:0:0:0:
244,384,100734,5,2,0:0:0:0:
262,0,101017,1,2,0:0:0:0:
261,381,101300,5,10,0:0:0:0:
251,7,101583,1,2,0:0:0:0:
465,12,101866,6,0,P|434:25|407:90,1,100,2|2,0:0|0:0,0:0:0:0:
255,196,102149,1,2,0:0:0:0:
469,252,102291,1,2,0:0:0:0:
351,143,102432,6,0,L|366:190,1,50,10|0,0:0|0:0,0:0:0:0:
411,157,102574,2,0,L|376:193,1,50,2|0,0:0|0:0,0:0:0:0:
357,266,102715,2,0,B|357:289|335:309|335:309|344:280|334:255,1,100,2|2,0:0|0:0,0:0:0:0:
259,34,102998,6,0,L|252:7,1,25,2|0,0:0|0:0,0:0:0:0:
240,378,103281,1,2,0:0:0:0:
253,34,103564,6,0,L|259:7,1,25,10|0,0:0|0:0,0:0:0:0:
251,379,103847,1,2,0:0:0:0:
256,192,104130,5,2,0:0:0:0:
197,138,104272,1,0,0:0:0:0:
129,179,104413,2,0,L|78:171,1,50,2|0,0:0|0:0,0:0:0:0:
85,66,104696,2,0,P|111:84|124:105,1,50,10|0,0:0|0:0,0:0:0:0:
189,228,104980,2,0,P|179:258|163:277,1,50,2|2,0:0|0:0,0:0:0:0:
72,317,105263,5,2,0:0:0:0:
79,323,105404,1,0,0:0:0:0:
86,329,105546,1,2,0:0:0:0:
259,289,105829,2,0,P|308:300|353:340,1,100,10|2,0:0|0:0,0:0:0:0:
501,293,106253,1,2,0:0:0:0:
419,366,106395,6,0,L|429:313,1,50,2|0,0:0|0:0,0:0:0:0:
388,195,106678,2,0,L|378:244,1,50,2|0,0:0|0:0,0:0:0:0:
466,218,106961,6,0,P|470:201|463:209,1,50,10|0,0:0|0:0,0:0:0:0:
302,188,107244,2,0,P|309:172|310:183,1,50,2|2,0:0|0:0,0:0:0:0:
378,244,107527,5,2,0:0:0:0:
383,219,107668,1,0,0:0:0:0:
388,195,107810,1,2,0:0:0:0:
439,134,108093,6,0,B|406:96|406:96|354:125,1,100,10|2,0:0|0:0,0:0:0:0:
167,226,108659,6,0,P|140:218|119:203,1,50,2|0,0:0|0:0,0:0:0:0:
204,113,108942,2,0,P|210:140|208:166,1,50,2|0,0:0|0:0,0:0:0:0:
88,138,109225,2,0,P|108:118|131:107,1,50,10|0,0:0|0:0,0:0:0:0:
296,138,109508,5,2,0:0:0:0:
296,138,109649,1,2,0:0:0:0:
296,138,109791,2,0,P|318:155|331:177,1,50,2|0,0:0|0:0,0:0:0:0:
430,119,110074,2,0,P|415:143|409:168,1,50,2|0,0:0|0:0,0:0:0:0:
359,85,110357,1,10,0:0:0:0:
378,235,110640,6,0,L|384:278,3,33.3333333333333,2|2|2|6,0:0|0:0|0:0|0:0,0:0:0:0:
386,279,111489,6,0,P|335:290|287:335,1,100,10|0,0:0|0:0,0:0:0:0:
367,368,111913,1,0,0:0:0:0:
283,164,112055,5,10,0:0:0:0:
473,186,112196,2,0,P|435:152|399:142,1,87.500000834465,8|0,0:0|0:0,0:0:0:0:
236,272,112480,5,8,0:0:0:0:
474,362,112621,2,0,P|483:315|462:262,1,100,10|0,0:0|0:0,0:0:0:0:
195,349,112904,5,8,0:0:0:0:
327,220,113046,1,8,0:0:0:0:
100,363,113187,6,0,P|18:319|48:230,1,200,6|2,0:0|0:0,0:0:0:0:
206,204,113612,1,2,0:0:0:0:
118,174,113753,2,0,P|126:238|127:283,1,100,10|0,0:0|0:0,0:0:0:0:
75,65,114036,5,2,0:0:0:0:
75,65,114178,1,0,0:0:0:0:
6,111,114319,5,2,0:0:0:0:
158,61,114460,1,2,0:0:0:0:
298,15,114602,2,0,P|359:10|425:31,1,100,2|0,0:0|0:0,0:0:0:0:
243,91,114885,5,10,0:0:0:0:
158,61,115027,1,2,0:0:0:0:
75,35,115168,2,0,B|68:84|68:84|101:134,1,100,2|0,0:0|0:0,0:0:0:0:
147,341,115451,6,0,L|180:138,1,187.5,2|0,0:0|0:0,0:0:0:0:
241,196,115734,2,0,P|203:228|150:224,1,100,2|2,0:0|0:0,0:0:0:0:
255,116,116017,2,0,P|301:132|333:197,1,112.500004291535,10|0,0:0|0:0,0:0:0:0:
429,337,116300,6,0,B|413:334|413:334|399:347|399:347|400:315|365:275,1,100,2|0,0:0|0:0,0:0:0:0:
442,39,116583,6,0,B|474:45|474:45|494:21|494:21|462:100|505:166,1,200,2|2,0:0|0:0,0:0:0:0:
315,116,117008,1,2,0:0:0:0:
432,203,117149,6,0,B|330:126|250:158|244:238|314:221|307:197,1,225.000008583069,10|0,0:0|0:0,0:0:0:0:
315,116,117715,6,0,L|308:33,1,62.5,2|0,0:0|0:0,0:0:0:0:
202,168,117857,5,2,0:0:0:0:
191,91,117999,1,2,0:0:0:0:
129,135,118140,1,2,0:0:0:0:
307,202,118281,5,10,0:0:0:0:
234,322,118423,1,2,0:0:0:0:
159,294,118564,1,2,0:0:0:0:
303,283,118706,1,2,0:0:0:0:
66,367,118847,5,2,0:0:0:0:
66,367,119130,6,0,B|63:243|15:194|15:194|1:203,2,200,2|10|2,0:0|0:0|0:0,0:0:0:0:
265,298,119838,1,0,0:0:0:0:
184,297,119979,6,0,P|208:236|249:232,1,99.9999999999999,2|0,0:0|0:0,0:0:0:0:
310,116,120263,2,0,P|274:230|263:316,1,187.5,2|0,0:0|0:0,0:0:0:0:
272,372,120545,6,0,B|311:372|344:338|323:327|343:295|405:295,1,150.000005722046,10|2,0:0|0:0,0:0:0:0:
176,155,120970,1,2,0:0:0:0:
235,229,121111,6,0,B|174:242|145:181|167:180|137:118|66:133,1,200,2|2,0:0|0:0,0:0:0:0:
382,29,121536,1,2,0:0:0:0:
310,116,121677,6,0,B|360:133|412:54|381:52|417:-29|504:0,1,250,10|2,0:0|0:0,0:0:0:0:
204,80,122102,1,0,0:0:0:0:
247,15,122244,6,0,B|264:7|301:16|302:42|302:42|312:45|312:45|219:13|85:49|40:131,1,375,6|0,0:0|0:0,0:0:0:0:
2,189,122810,1,10,0:0:0:0:
327,228,123093,5,2,0:0:0:0:
185,154,123234,1,2,0:0:0:0:
288,289,123376,2,0,P|339:276|396:277,1,100,2|0,0:0|0:0,0:0:0:0:
224,95,123659,2,0,P|173:108|116:107,1,100,2|0,0:0|0:0,0:0:0:0:
404,83,123942,5,10,0:0:0:0:
318,69,124084,1,2,0:0:0:0:
370,14,124225,1,2,0:0:0:0:
347,151,124367,1,2,0:0:0:0:
350,368,124508,6,0,B|390:351|390:351|405:276|332:230|332:230|249:246|239:328|239:328|273:355,1,375,6|0,0:0|0:0,0:0:0:0:
327,269,125074,5,10,0:0:0:0:
230,191,125215,1,2,0:0:0:0:
148,284,125357,2,0,P|98:270|45:268,1,100,2|2,0:0|0:0,0:0:0:0:
76,59,125640,6,0,B|62:107|62:107|93:152,1,100,2|0,0:0|0:0,0:0:0:0:
268,31,125923,2,0,B|296:72|296:72|282:120,1,100,2|0,0:0|0:0,0:0:0:0:
103,141,126206,5,10,0:0:0:0:
260,39,126347,1,2,0:0:0:0:
272,120,126489,5,2,0:0:0:0:
87,64,126630,1,2,0:0:0:0:
253,193,126772,6,0,B|271:203|284:228|284:228|230:203|181:202|129:213|129:213|155:218|171:231,1,250,6|2,0:0|0:0,0:0:0:0:
361,237,127196,1,0,0:0:0:0:
348,376,127338,5,10,0:0:0:0:
309,304,127480,1,2,0:0:0:0:
495,331,127621,2,0,P|444:328|384:302,1,100,2|2,0:0|0:0,0:0:0:0:
272,120,127904,2,0,P|318:102|368:99,1,100,2|0,0:0|0:0,0:0:0:0:
418,172,128187,5,2,0:0:0:0:
436,54,128329,1,0,0:0:0:0:
197,89,128470,5,10,0:0:0:0:
240,200,128612,1,2,0:0:0:0:
311,85,128753,5,2,0:0:0:0:
309,76,128847,5,2,0:0:0:0:
306,69,128942,5,2,0:0:0:0:
304,60,129036,6,0,B|223:20|141:100|188:125|136:205|55:167|55:167|92:170|123:137,1,375,6|0,0:0|0:0,0:0:0:0:
129,35,129602,6,0,P|77:18|67:96,1,150,10|0,0:0|0:0,0:0:0:0:
172,165,130168,5,10,0:0:0:0:
15,254,130310,2,0,P|50:257|95:282,1,75.0000028610231,8|0,0:0|0:0,0:0:0:0:
211,369,130593,5,8,0:0:0:0:
240,200,130734,2,0,P|275:196|320:171,1,87.500000834465,10|0,0:0|0:0,0:0:0:0:
361,106,131017,5,8,0:0:0:0:
423,369,131159,1,8,0:0:0:0:
433,293,131300,6,0,L|444:173,1,112.500004291535,6|0,0:0|0:0,0:0:0:0:
