osu file format v14

[General]
AudioFilename: audio.mp3
AudioLeadIn: 0
PreviewTime: 4508
Countdown: 0
SampleSet: Soft
StackLeniency: 0.4
Mode: 0
LetterboxInBreaks: 0
WidescreenStoryboard: 1

[Editor]
DistanceSpacing: 0.7
BeatDivisor: 8
GridSize: 8
TimelineZoom: 2.5

[Metadata]
Title:edamame
TitleUnicode:edamame
Artist:bbno$ & Rich Brian
ArtistUnicode:bbno$ & Rich Brian
Creator:Bakugo-
Version:easy
Source:
Tags:english pop rap hip hop hip-hop hiphop kieg enri bakugo arronchu chu arronchu1207 jamesjan3 thexo chompy flake gokugohan12468 kittyadventure eat ya veggies Diamond Pistols Alexander Leon Gumuchian baby no money mula imanuel le mirai SirMirai cacturne soewarno
BeatmapID:3184444
BeatmapSetID:1557107

[Difficulty]
HPDrainRate:2.5
CircleSize:3.3
OverallDifficulty:3
ApproachRate:4
SliderMultiplier:1.75
SliderTickRate:1

[Events]
//Background and Video events
0,0,"88087667_p0.png",0,0
Video,0,"edamame video.mp4"
//Break Periods
2,49991,57527
2,104330,111867
//Storyboard Layer 0 (Background)
//Storyboard Layer 1 (Fail)
//Storyboard Layer 2 (Pass)
//Storyboard Layer 3 (Foreground)
//Storyboard Layer 4 (Overlay)
//Storyboard Sound Samples

[TimingPoints]
-4548,566.037735849057,4,2,0,50,1,0
4508,-100,4,2,1,50,0,0
13564,-100,4,2,1,50,0,0
14696,-100,4,2,1,50,0,0
15829,-100,4,2,1,50,0,0
16961,-100,4,2,1,50,0,0
18093,-100,4,2,1,50,0,0
19225,-100,4,2,1,50,0,0
35640,-100,4,2,1,50,0,0
37621,-100,4,2,1,50,0,0
40734,-100,4,2,1,50,0,0
49791,-100,4,2,1,30,0,0
58847,-100,4,2,1,50,0,0
67904,-100,4,2,1,50,0,0
69026,-100,4,2,1,50,0,0
70168,-100,4,2,1,50,0,0
71300,-100,4,2,1,50,0,0
71866,-100,4,2,1,50,0,0
73281,-100,4,2,1,50,0,0
86017,-100,4,2,1,50,0,0
86230,-100,4,2,1,50,0,0
86442,-100,4,2,1,50,0,0
86866,-100,4,2,1,50,0,0
87079,-100,4,2,1,50,0,0
87291,-100,4,2,1,50,0,0
96206,-100,4,2,1,50,0,0
104130,-100,4,2,1,30,0,0
110923,-100,4,2,1,50,0,0
113187,-100,4,2,1,50,0,0
113612,-100,4,2,1,50,0,0
122244,-100,4,2,1,50,0,0
123376,-100,4,2,1,50,0,0
124508,-100,4,2,1,50,0,0
125640,-100,4,2,1,50,0,0
126772,-100,4,2,1,50,0,0
127621,-100,4,2,1,50,0,0
127904,-100,4,2,1,50,0,0

[Colours]
Combo1 : 103,175,90
Combo2 : 227,254,75
Combo3 : 134,221,77

[HitObjects]
30,88,4508,6,0,B|89:82|89:82|136:99|136:99|217:90,1,175,6|10,0:0|0:0,0:0:0:0:
316,132,5640,1,2,0:0:0:0:
233,222,6206,1,10,0:0:0:0:
332,294,6772,2,0,B|259:339|259:339|171:317,1,175,2|10,0:0|0:0,0:0:0:0:
118,287,7621,2,0,B|132:241|132:241|113:189,1,87.5,2|2,0:0|0:0,0:0:0:0:
43,107,8470,1,10,0:0:0:0:
150,48,9036,6,0,B|209:22|251:54|225:64|276:92|333:66,1,175,6|10,0:0|0:0,0:0:0:0:
428,28,10168,1,2,0:0:0:0:
492,132,10734,1,10,0:0:0:0:
390,200,11300,2,0,P|303:178|216:237,1,175,2|10,0:0|0:0,0:0:0:0:
199,268,12149,2,0,P|155:283|101:267,1,87.5,2|2,0:0|0:0,0:0:0:0:
71,161,12998,1,10,0:0:0:0:
162,79,13564,6,0,B|233:66|233:66|268:72|268:72|346:53,1,175,6|10,0:0|0:0,0:0:0:0:
442,111,14696,2,0,L|457:216,2,87.5,2|2|10,0:0|0:0|0:0,0:0:0:0:
343,183,15829,2,0,B|311:233|311:233|342:363,1,175,6|10,0:0|0:0,0:0:0:0:
216,332,16961,2,0,L|113:320,2,87.5,2|2|10,0:0|0:0|0:0,0:0:0:0:
201,210,18093,6,0,P|115:182|103:82,1,175,6|10,0:0|0:0,0:0:0:0:
190,31,19225,1,2,0:0:0:0:
294,94,19791,2,0,L|395:78,1,87.5,10|2,0:0|0:0,0:0:0:0:
417,75,20357,1,6,0:0:0:0:
256,192,20498,12,2,22055,0:0:0:0:
229,319,23187,5,8,0:0:0:0:
346,283,23753,2,0,B|285:257|285:257|262:226|262:226|188:193,1,175,2|10,0:0|0:0,0:0:0:0:
84,245,24885,1,0,0:0:0:0:
18,141,25451,1,10,0:0:0:0:
130,91,26017,2,0,B|146:50|146:50|234:30|234:30|283:67,1,175,0|10,0:0|0:0,0:0:0:0:
337,154,27149,6,0,B|383:167|420:131|420:131|441:181|496:183,1,175,0|8,0:0|0:0,0:0:0:0:
400,261,28281,2,0,B|331:250|331:250|298:266|298:266|210:249,1,175,0|8,0:0|0:0,0:0:0:0:
135,330,29413,1,2,0:0:0:0:
29,267,29980,1,10,0:0:0:0:
124,189,30546,2,0,B|158:149|133:86|115:120|89:67|121:11,1,175,2|8,0:0|0:0,0:0:0:0:
235,44,31678,5,6,0:0:0:0:
297,149,32244,1,10,0:0:0:0:
214,239,32810,2,0,B|301:227|301:227|360:290,1,175,2|10,0:0|0:0,0:0:0:0:
473,373,33942,2,0,B|441:293|441:293|466:187,1,175,2|10,0:0|0:0,0:0:0:0:
365,104,35074,1,2,0:0:0:0:
308,231,35640,1,10,0:0:0:0:
192,191,36206,6,0,B|224:134|224:134|186:17,1,175,2|10,0:0|0:0,0:0:0:0:
299,84,37338,2,0,B|332:140|332:140|452:165,1,175,2|10,0:0|0:0,0:0:0:0:
470,44,38470,1,6,0:0:0:0:
256,192,38612,12,2,40168,0:0:0:0:
176,271,41300,5,8,0:0:0:0:
283,329,41866,2,0,B|307:275|307:275|258:128,1,175,2|10,0:0|0:0,0:0:0:0:
298,45,42998,2,0,P|377:18|491:32,1,175,0|10,0:0|0:0,0:0:0:0:
473,146,44130,1,2,0:0:0:0:
353,172,44696,2,0,P|309:157|259:170,1,87.5,10|2,0:0|0:0,0:0:0:0:
217,196,45263,6,0,P|183:141|194:28,1,175,2|8,0:0|0:0,0:0:0:0:
86,98,46395,2,0,P|98:183|59:259,1,175,2|10,0:0|0:0,0:0:0:0:
177,291,47527,2,0,B|248:286|248:286|282:301|282:301|364:292,1,175,0|10,0:0|0:0,0:0:0:0:
449,362,48659,1,2,0:0:0:0:
499,250,49225,1,10,0:0:0:0:
386,201,49791,1,2,0:0:0:0:
60,113,58847,6,0,B|111:83|169:108|137:119|188:149|249:119,1,175,6|10,0:0|0:0,0:0:0:0:
327,58,59980,2,0,P|367:39|421:41,2,87.5,2|2|10,0:0|0:0|0:0,0:0:0:0:
416,142,61112,6,0,B|442:199|442:199|397:311,1,175,2|10,0:0|0:0,0:0:0:0:
373,358,61961,2,0,B|332:339|332:339|280:348,1,87.5,2|2,0:0|0:0,0:0:0:0:
166,369,62810,1,10,0:0:0:0:
60,307,63376,6,0,B|45:243|45:243|54:212|54:212|40:131,1,175,6|10,0:0|0:0,0:0:0:0:
125,47,64508,2,0,P|78:29|31:28,2,87.5,2|2|10,0:0|0:0|0:0,0:0:0:0:
208,136,65640,6,0,P|311:136|371:76,1,175,2|10,0:0|0:0,0:0:0:0:
400,43,66489,2,0,P|443:17|495:15,1,87.5,2|2,0:0|0:0,0:0:0:0:
454,132,67338,1,10,0:0:0:0:
405,244,67904,6,0,B|356:250|342:297|342:297|304:267|249:273,1,175,6|10,0:0|0:0,0:0:0:0:
144,234,69036,2,0,P|127:279|135:329,2,87.5,2|2|10,0:0|0:0|0:0,0:0:0:0:
166,113,70168,6,0,B|210:118|224:165|224:165|257:125|306:140,1,175,6|10,0:0|0:0,0:0:0:0:
428,140,71300,2,0,P|449:93|448:47,2,87.5,2|2|10,0:0|0:0|0:0,0:0:0:0:
318,85,72432,6,0,B|254:71|254:71|209:84|209:84|142:67,1,175,6|10,0:0|0:0,0:0:0:0:
30,102,73564,2,0,P|29:48|46:14,2,87.5,2|2|10,0:0|0:0|0:0,0:0:0:0:
119,185,74696,1,6,0:0:0:0:
256,192,74838,12,2,76395,0:0:0:0:
124,310,77527,5,10,0:0:0:0:
228,245,78093,1,2,0:0:0:0:
298,345,78659,1,10,0:0:0:0:
412,302,79225,6,0,P|429:260|429:211,1,87.5,2|2,0:0|0:0,0:0:0:0:
405,162,79791,2,0,P|406:118|423:78,1,87.5,10|2,0:0|0:0,0:0:0:0:
465,35,80357,1,2,0:0:0:0:
345,7,80923,1,10,0:0:0:0:
226,23,81489,6,0,L|130:9,2,87.5,2|2|10,0:0|0:0|0:0,0:0:0:0:
345,7,82621,1,2,0:0:0:0:
292,117,83187,1,8,0:0:0:0:
349,224,83753,6,0,P|306:245|260:247,1,87.5,2|2,0:0|0:0,0:0:0:0:
208,230,84319,2,0,P|164:234|125:253,1,87.5,10|2,0:0|0:0,0:0:0:0:
80,295,84885,1,2,0:0:0:0:
15,190,85451,1,10,0:0:0:0:
104,107,86017,6,0,B|192:83|192:83|282:122,1,175,6|10,0:0|0:0,0:0:0:0:
363,194,87149,2,0,B|275:218|275:218|185:179,1,175,0|10,0:0|0:0,0:0:0:0:
87,237,88281,1,0,0:0:0:0:
166,330,88847,1,10,0:0:0:0:
281,288,89413,2,0,P|337:283|377:303,1,87.5,2|0,0:0|0:0,0:0:0:0:
407,339,89980,6,0,B|442:283|442:283|401:164,1,175,10|2,0:0|0:0,0:0:0:0:
304,112,91112,1,10,0:0:0:0:
196,170,91678,1,2,0:0:0:0:
108,84,92244,2,0,B|66:126|66:126|98:259,1,175,10|6,0:0|0:0,0:0:0:0:
256,192,92951,12,2,94508,0:0:0:0:
43,270,95640,5,10,0:0:0:0:
149,208,96206,2,0,P|197:200|241:207,1,87.5,2|2,0:0|0:0,0:0:0:0:
282,243,96772,2,0,P|325:248|368:240,1,87.5,10|2,0:0|0:0,0:0:0:0:
422,212,97338,1,2,0:0:0:0:
377,97,97904,1,10,0:0:0:0:
256,119,98470,2,0,L|244:21,2,87.5,2|2|2,0:0|0:0|0:0,0:0:0:0:
231,239,99602,5,2,0:0:0:0:
165,342,100168,1,10,0:0:0:0:
50,298,100734,2,0,L|44:205,1,87.5,2|2,0:0|0:0,0:0:0:0:
90,170,101300,2,0,L|95:82,1,87.5,10|2,0:0|0:0,0:0:0:0:
98,21,101866,5,2,0:0:0:0:
191,99,102432,1,10,0:0:0:0:
289,26,102998,2,0,P|311:68|305:120,1,87.5,2|2,0:0|0:0,0:0:0:0:
284,162,103564,2,0,P|283:205|304:243,1,87.5,10|2,0:0|0:0,0:0:0:0:
355,277,104130,1,2,0:0:0:0:
482,296,113187,6,0,B|423:302|423:302|376:285|376:285|295:294,1,175,6|10,0:0|0:0,0:0:0:0:
196,252,114319,1,2,0:0:0:0:
279,162,114885,1,10,0:0:0:0:
180,90,115451,2,0,B|253:45|253:45|341:67,1,175,2|10,0:0|0:0,0:0:0:0:
394,97,116300,2,0,B|380:143|380:143|399:195,1,87.5,2|2,0:0|0:0,0:0:0:0:
469,277,117149,1,10,0:0:0:0:
362,336,117715,6,0,B|303:362|261:330|287:320|236:292|179:318,1,175,6|10,0:0|0:0,0:0:0:0:
84,356,118847,1,2,0:0:0:0:
20,252,119413,1,10,0:0:0:0:
122,184,119979,2,0,P|209:206|296:147,1,175,2|10,0:0|0:0,0:0:0:0:
313,116,120828,2,0,P|357:101|411:117,1,87.5,2|2,0:0|0:0,0:0:0:0:
441,223,121677,1,10,0:0:0:0:
350,305,122243,6,0,B|279:318|279:318|244:312|244:312|166:331,1,175,6|10,0:0|0:0,0:0:0:0:
70,273,123375,2,0,L|55:168,2,87.5,2|2|10,0:0|0:0|0:0,0:0:0:0:
169,201,124508,2,0,B|201:151|201:151|170:21,1,175,6|10,0:0|0:0,0:0:0:0:
296,52,125640,2,0,L|399:64,2,87.5,2|2|10,0:0|0:0|0:0,0:0:0:0:
311,174,126772,6,0,P|397:202|409:302,1,175,6|10,0:0|0:0,0:0:0:0:
322,353,127904,1,2,0:0:0:0:
218,290,128470,2,0,L|117:306,1,87.5,10|2,0:0|0:0,0:0:0:0:
74,325,129036,1,6,0:0:0:0:
256,192,129178,12,6,131301,0:0:0:0:
