osu file format v14

[General]
AudioFilename: audio.mp3
AudioLeadIn: 0
PreviewTime: 4508
Countdown: 0
SampleSet: Soft
StackLeniency: 0.4
Mode: 0
LetterboxInBreaks: 0
WidescreenStoryboard: 1

[Editor]
DistanceSpacing: 1.5
BeatDivisor: 8
GridSize: 8
TimelineZoom: 2.5

[Metadata]
Title:edamame
TitleUnicode:edamame
Artist:bbno$ & Rich Brian
ArtistUnicode:bbno$ & Rich Brian
Creator:Bakugo-
Version:chu's hard
Source:
Tags:english pop rap hip hop hip-hop hiphop kieg enri bakugo arronchu chu arronchu1207 jamesjan3 thexo chompy flake gokugohan12468 kittyadventure eat ya veggies Diamond Pistols Alexander Leon Gumuchian baby no money mula imanuel le mirai SirMirai cacturne soewarno
BeatmapID:3205069
BeatmapSetID:1557107

[Difficulty]
HPDrainRate:4
CircleSize:4.4
OverallDifficulty:6.3
ApproachRate:7.5
SliderMultiplier:2.6
SliderTickRate:1

[Events]
//Background and Video events
0,0,"88087667_p0.png",0,0
Video,0,"edamame video.mp4"
//Break Periods
2,49991,55475
2,104330,109815
//Storyboard Layer 0 (Background)
//Storyboard Layer 1 (Fail)
//Storyboard Layer 2 (Pass)
//Storyboard Layer 3 (Foreground)
//Storyboard Layer 4 (Overlay)
//Storyboard Sound Samples

[TimingPoints]
-4548,566.037735849057,4,2,0,50,1,0
4508,-105.263157894737,4,2,1,50,0,0
13564,-105.263157894737,4,2,1,50,0,0
14696,-105.263157894737,4,2,1,50,0,0
15829,-105.263157894737,4,2,1,50,0,0
16961,-105.263157894737,4,2,1,50,0,0
18093,-105.263157894737,4,2,1,50,0,0
19225,-105.263157894737,4,2,1,50,0,0
35640,-105.263157894737,4,2,1,50,0,0
37621,-105.263157894737,4,2,1,50,0,0
40734,-105.263157894737,4,2,1,50,0,0
49791,-105.263157894737,4,2,1,30,0,0
56583,-105.263157894737,4,2,1,50,0,0
58847,-105.263157894737,4,2,1,50,0,0
67904,-105.263157894737,4,2,1,50,0,0
69026,-105.263157894737,4,2,1,50,0,0
70168,-105.263157894737,4,2,1,50,0,0
71300,-105.263157894737,4,2,1,50,0,0
71866,-105.263157894737,4,2,1,50,0,0
73281,-105.263157894737,4,2,1,50,0,0
86017,-105.263157894737,4,2,1,50,0,0
86230,-105.263157894737,4,2,1,50,0,0
86442,-105.263157894737,4,2,1,50,0,0
86866,-105.263157894737,4,2,1,50,0,0
87079,-105.263157894737,4,2,1,50,0,0
87291,-105.263157894737,4,2,1,50,0,0
96206,-105.263157894737,4,2,1,50,0,0
99036,-133.333333333333,4,2,1,50,0,0
99178,-133.333333333333,4,2,1,5,0,0
99319,-133.333333333333,4,2,1,50,0,0
99461,-133.333333333333,4,2,1,5,0,0
99602,-105.263157894737,4,2,1,50,0,0
104130,-105.263157894737,4,2,1,30,0,0
110923,-105.263157894737,4,2,1,50,0,0
113187,-105.263157894737,4,2,1,50,0,0
113612,-105.263157894737,4,2,1,50,0,0
122244,-105.263157894737,4,2,1,50,0,0
123376,-105.263157894737,4,2,1,50,0,0
124508,-105.263157894737,4,2,1,50,0,0
125640,-105.263157894737,4,2,1,50,0,0
126772,-105.263157894737,4,2,1,50,0,0
127621,-105.263157894737,4,2,1,50,0,0
127904,-105.263157894737,4,2,1,50,0,0
131300,-166.666666666667,4,2,1,50,0,0
131866,-166.666666666667,4,2,1,5,0,0

[Colours]
Combo1 : 103,175,90
Combo2 : 227,254,75
Combo3 : 134,221,77

[HitObjects]
118,113,4508,6,0,P|105:63|171:37,1,123.499996702194,6|2,0:0|0:0,0:0:0:0:
204,107,4932,1,2,0:0:0:0:
290,103,5074,2,0,P|303:153|237:179,1,123.499996702194,10|2,0:0|0:0,0:0:0:0:
177,233,5498,1,0,0:0:0:0:
177,233,5640,6,0,L|114:245,2,61.7499983510972,2|2|2,0:0|0:0|0:0,0:0:0:0:
288,365,6206,2,0,L|225:353,2,61.7499983510972,10|2|2,0:0|0:0|0:0,0:0:0:0:
452,311,6772,6,0,P|473:258|455:185,1,123.499996702194,2|2,0:0|0:0,0:0:0:0:
394,139,7196,1,2,0:0:0:0:
319,183,7338,2,0,P|298:130|316:57,1,123.499996702194,10|2,0:0|0:0,0:0:0:0:
147,7,7904,5,2,0:0:0:0:
92,171,8187,1,2,0:0:0:0:
92,171,8329,1,2,0:0:0:0:
92,171,8470,2,0,P|99:206|101:237,1,61.7499983510972,10|2,0:0|0:0,0:0:0:0:
186,215,8753,2,0,P|179:180|177:149,1,61.7499983510972,2|0,0:0|0:0,0:0:0:0:
169,307,9036,6,0,P|204:300|235:298,1,61.7499983510972,6|2,0:0|0:0,0:0:0:0:
300,348,9319,2,0,P|335:355|366:357,1,61.7499983510972,2|2,0:0|0:0,0:0:0:0:
428,302,9602,2,0,P|421:267|419:236,1,61.7499983510972,10|2,0:0|0:0,0:0:0:0:
361,176,9885,2,0,P|368:141|370:110,1,61.7499983510972,2|2,0:0|0:0,0:0:0:0:
435,58,10168,5,2,0:0:0:0:
270,3,10451,1,2,0:0:0:0:
435,58,10734,2,0,L|505:47,2,61.7499983510972,10|2|2,0:0|0:0|0:0,0:0:0:0:
285,145,11300,6,0,P|226:131|185:177,1,123.499996702194,2|2,0:0|0:0,0:0:0:0:
219,252,11725,1,0,0:0:0:0:
249,332,11866,2,0,P|190:346|149:300,1,123.499996702194,10|2,0:0|0:0,0:0:0:0:
80,253,12291,1,2,0:0:0:0:
80,253,12432,6,0,L|86:188,2,61.7499983510972,2|2|2,0:0|0:0|0:0,0:0:0:0:
225,159,12998,2,0,B|212:131|212:131|219:94,1,61.7499983510972,10|2,0:0|0:0,0:0:0:0:
272,34,13281,1,2,0:0:0:0:
272,34,13423,1,0,0:0:0:0:
339,87,13564,6,0,B|377:146|481:136|488:84|475:22|409:32,1,246.999993404389,6|10,0:0|0:0,0:0:0:0:
314,196,14413,1,2,0:0:0:0:
314,196,14555,1,2,0:0:0:0:
314,196,14696,2,0,P|321:240|325:272,1,61.7499983510972,2|0,0:0|0:0,0:0:0:0:
388,315,14980,2,0,P|381:359|377:391,1,61.7499983510972,2|0,0:0|0:0,0:0:0:0:
303,344,15263,5,10,0:0:0:0:
303,344,15404,1,2,0:0:0:0:
222,376,15546,1,2,0:0:0:0:
222,376,15687,1,2,0:0:0:0:
212,289,15829,6,0,B|174:230|70:240|63:292|76:354|142:344,1,246.999993404389,6|10,0:0|0:0,0:0:0:0:
276,210,16678,1,2,0:0:0:0:
276,210,16819,1,2,0:0:0:0:
276,210,16961,6,0,P|272:174|267:145,1,61.7499983510972,2|0,0:0|0:0,0:0:0:0:
329,87,17244,2,0,P|333:51|338:22,1,61.7499983510972,2|0,0:0|0:0,0:0:0:0:
420,2,17527,5,10,0:0:0:0:
420,2,17668,1,2,0:0:0:0:
488,55,17810,1,2,0:0:0:0:
488,55,17951,1,2,0:0:0:0:
440,127,18093,6,0,B|381:165|391:269|443:276|505:263|495:197,1,246.999993404389,6|10,0:0|0:0,0:0:0:0:
495,198,18800,1,2,0:0:0:0:
495,198,18942,1,2,0:0:0:0:
371,319,19225,6,0,P|317:326|225:338,1,123.499996702194,2|2,0:0|0:0,0:0:0:0:
183,278,19649,1,0,0:0:0:0:
183,278,19791,2,0,L|117:267,1,61.7499983510972,10|2,0:0|0:0,0:0:0:0:
65,201,20074,2,0,L|25:205,3,41.1666655673981,2|2|2|6,0:0|0:0|0:0|0:0,0:0:0:0:
97,70,20923,6,0,P|145:32|202:61,1,123.499996702194,10|0,0:0|0:0,0:0:0:0:
158,131,21347,1,0,0:0:0:0:
204,45,21489,6,0,P|252:7|309:36,1,123.499996702194,10|0,0:0|0:0,0:0:0:0:
265,106,21913,1,8,0:0:0:0:
311,20,22055,6,0,P|359:-18|416:11,1,123.499996702194,10|8,0:0|0:0,0:0:0:0:
372,81,22479,1,8,0:0:0:0:
420,9,22621,6,0,P|412:70|405:142,1,123.499996702194,6|2,0:0|0:0,0:0:0:0:
453,204,23046,1,2,0:0:0:0:
333,328,23329,5,2,0:0:0:0:
333,328,23470,2,0,P|294:329|272:344,1,61.7499983510972,2|2,0:0|0:0,0:0:0:0:
196,375,23753,2,0,P|157:374|135:359,1,61.7499983510972,2|2,0:0|0:0,0:0:0:0:
21,240,24178,5,2,0:0:0:0:
21,240,24319,2,0,P|60:239|82:224,1,61.7499983510972,10|2,0:0|0:0,0:0:0:0:
158,193,24602,2,0,P|197:194|219:209,1,61.7499983510972,2|2,0:0|0:0,0:0:0:0:
373,129,25027,5,2,0:0:0:0:
373,129,25168,2,0,L|361:62,1,61.7499983510972,2|2,0:0|0:0,0:0:0:0:
408,209,25451,2,0,L|460:165,1,61.7499983510972,10|2,0:0|0:0,0:0:0:0:
356,279,25734,2,0,L|420:302,1,61.7499983510972,2|2,0:0|0:0,0:0:0:0:
250,356,26159,5,2,0:0:0:0:
250,356,26300,2,0,P|211:355|190:368,1,61.7499983510972,2|2,0:0|0:0,0:0:0:0:
125,311,26583,2,0,L|134:229,1,82.3333311347962,10|0,0:0|0:0,0:0:0:0:
151,210,26866,2,0,L|144:133,1,61.7499983510972,2|2,0:0|0:0,0:0:0:0:
197,79,27149,6,0,B|222:65|222:65|259:75,1,61.7499983510972,0|2,0:0|0:0,0:0:0:0:
337,97,27432,2,0,P|367:41|421:54,1,123.499996702194,2|10,0:0|0:0,0:0:0:0:
484,114,27857,1,2,0:0:0:0:
484,114,27998,2,0,L|474:190,1,61.7499983510972,2|2,0:0|0:0,0:0:0:0:
406,227,28281,6,0,L|420:359,1,123.499996702194,2|2,0:0|0:0,0:0:0:0:
336,375,28706,1,2,0:0:0:0:
336,375,28847,2,0,P|299:377|268:354,2,61.7499983510972,10|2|2,0:0|0:0|0:0,0:0:0:0:
203,264,29413,6,0,P|166:262|135:285,2,61.7499983510972,2|2|2,0:0|0:0|0:0,0:0:0:0:
315,133,29980,1,10,0:0:0:0:
315,133,30121,1,2,0:0:0:0:
315,133,30263,2,0,L|324:71,1,61.7499983510972,2|2,0:0|0:0,0:0:0:0:
269,4,30546,2,0,P|234:-1|200:19,2,61.7499983510972,2|2|2,0:0|0:0|0:0,0:0:0:0:
323,71,30970,2,0,L|470:56,1,123.499996702194,2|2,0:0|0:0,0:0:0:0:
511,115,31395,1,2,0:0:0:0:
380,227,31678,6,0,L|314:217,2,61.7499983510972,6|2|2,0:0|0:0|0:0,0:0:0:0:
490,359,32244,2,0,P|452:342|423:349,1,61.7499983510972,10|2,0:0|0:0,0:0:0:0:
347,358,32527,2,0,P|309:375|280:368,1,61.7499983510972,2|2,0:0|0:0,0:0:0:0:
224,315,32810,5,2,0:0:0:0:
224,315,32951,1,2,0:0:0:0:
224,315,33093,1,2,0:0:0:0:
81,216,33376,2,0,L|73:152,1,61.7499983510972,10|2,0:0|0:0,0:0:0:0:
143,103,33659,2,0,L|151:39,1,61.7499983510972,2|2,0:0|0:0,0:0:0:0:
235,9,33942,5,2,0:0:0:0:
235,9,34083,1,2,0:0:0:0:
235,9,34225,2,0,P|268:8|301:32,1,61.7499983510972,2|2,0:0|0:0,0:0:0:0:
340,105,34508,1,10,0:0:0:0:
340,105,34649,1,2,0:0:0:0:
340,105,34791,2,0,P|373:106|406:82,1,61.7499983510972,2|2,0:0|0:0,0:0:0:0:
476,126,35074,6,0,L|485:197,1,61.7499983510972,2|2,0:0|0:0,0:0:0:0:
414,239,35357,2,0,L|405:310,1,61.7499983510972,2|2,0:0|0:0,0:0:0:0:
441,379,35640,2,0,P|385:339|330:366,1,123.499996702194,10|2,0:0|0:0,0:0:0:0:
271,302,36064,1,2,0:0:0:0:
271,302,36206,6,0,L|203:311,1,61.7499983510972,2|2,0:0|0:0,0:0:0:0:
147,370,36489,2,0,L|79:361,1,61.7499983510972,2|2,0:0|0:0,0:0:0:0:
22,302,36772,2,0,P|12:270|19:242,1,61.7499983510972,10|2,0:0|0:0,0:0:0:0:
80,182,37055,2,0,P|90:150|83:122,1,61.7499983510972,2|2,0:0|0:0,0:0:0:0:
27,57,37338,5,2,0:0:0:0:
27,57,37480,1,2,0:0:0:0:
27,57,37621,1,2,0:0:0:0:
193,9,37904,2,0,P|225:51|294:49,1,123.499996702194,10|2,0:0|0:0,0:0:0:0:
315,34,38281,2,0,L|321:-8,2,41.1666655673981,2|2|6,0:0|0:0|0:0,0:0:0:0:
500,249,39036,6,0,P|453:228|397:271,1,123.499996702194,10|0,0:0|0:0,0:0:0:0:
462,325,39461,1,0,0:0:0:0:
391,274,39602,6,0,P|344:253|288:296,1,123.499996702194,10|0,0:0|0:0,0:0:0:0:
353,350,40027,1,8,0:0:0:0:
282,299,40168,6,0,P|235:278|179:321,1,123.499996702194,10|8,0:0|0:0,0:0:0:0:
244,375,40593,1,8,0:0:0:0:
174,324,40734,6,0,L|183:189,1,123.499996702194,14|2,0:0|0:0,0:0:0:0:
247,143,41159,2,0,P|262:85|219:31,1,123.499996702194,2|2,0:0|0:0,0:0:0:0:
146,8,41583,2,0,L|21:26,1,123.499996702194,2|2,0:0|0:0,0:0:0:0:
4,110,42008,2,0,L|126:92,1,123.499996702194,2|2,0:0|0:0,0:0:0:0:
165,169,42432,1,10,0:0:0:0:
67,311,42715,6,0,P|55:273|62:248,1,61.7499983510972,2|2,0:0|0:0,0:0:0:0:
212,334,43140,2,0,P|173:325|154:306,1,61.7499983510972,2|2,0:0|0:0,0:0:0:0:
304,219,43564,2,0,P|277:248|251:254,1,61.7499983510972,10|2,0:0|0:0,0:0:0:0:
271,81,43989,1,2,0:0:0:0:
271,81,44130,6,0,P|319:94|386:52,1,123.499996702194,2|2,0:0|0:0,0:0:0:0:
459,107,44555,1,2,0:0:0:0:
459,107,44696,2,0,L|450:185,1,61.7499983510972,10|2,0:0|0:0,0:0:0:0:
382,221,44980,2,0,L|391:299,1,61.7499983510972,2|2,0:0|0:0,0:0:0:0:
460,332,45263,5,2,0:0:0:0:
291,370,45546,1,2,0:0:0:0:
291,370,45687,2,0,P|244:328|185:340,1,123.499996702194,2|2,0:0|0:0,0:0:0:0:
111,378,46112,2,0,L|99:245,1,123.499996702194,2|2,0:0|0:0,0:0:0:0:
162,195,46536,2,0,L|174:62,1,123.499996702194,2|2,0:0|0:0,0:0:0:0:
243,20,46961,1,10,0:0:0:0:
396,100,47244,6,0,P|417:101|455:74,1,61.7499983510972,2|2,0:0|0:0,0:0:0:0:
297,39,47668,2,0,P|272:20|242:19,1,61.7499983510972,2|2,0:0|0:0,0:0:0:0:
335,163,48093,1,10,0:0:0:0:
335,163,48234,2,0,L|354:298,1,123.499996702194,2|2,0:0|0:0,0:0:0:0:
387,364,48659,2,0,P|336:324|277:350,1,123.499996702194,2|2,0:0|0:0,0:0:0:0:
205,373,49083,1,0,0:0:0:0:
205,373,49225,2,0,L|139:358,1,61.7499983510972,10|2,0:0|0:0,0:0:0:0:
104,282,49508,2,0,L|38:297,1,61.7499983510972,2|2,0:0|0:0,0:0:0:0:
3,372,49791,5,2,0:0:0:0:
35,217,56300,6,0,L|26:264,3,41.1666655673981,2|2|2|6,0:0|0:0|0:0|0:0,0:0:0:0:
27,257,57149,6,0,P|74:236|130:279,1,123.499996702194,10|0,0:0|0:0,0:0:0:0:
65,333,57574,1,0,0:0:0:0:
136,282,57715,6,0,P|183:261|239:304,1,123.499996702194,10|0,0:0|0:0,0:0:0:0:
174,358,58140,1,8,0:0:0:0:
245,307,58281,6,0,P|292:286|348:329,1,123.499996702194,10|8,0:0|0:0,0:0:0:0:
283,383,58706,1,8,0:0:0:0:
353,333,58847,6,0,L|340:206,1,123.499996702194,6|2,0:0|0:0,0:0:0:0:
287,142,59271,1,2,0:0:0:0:
354,196,59413,2,0,P|414:206|470:145,1,123.499996702194,10|2,0:0|0:0,0:0:0:0:
492,92,59837,1,0,0:0:0:0:
492,92,59979,6,0,L|480:29,2,61.7499983510972,2|2|2,0:0|0:0|0:0,0:0:0:0:
354,196,60545,2,0,L|366:133,2,61.7499983510972,10|2|2,0:0|0:0|0:0,0:0:0:0:
376,367,61111,6,0,P|323:346|250:364,1,123.499996702194,2|2,0:0|0:0,0:0:0:0:
174,343,61535,1,2,0:0:0:0:
255,373,61677,2,0,P|267:313|246:256,1,123.499996702194,10|2,0:0|0:0,0:0:0:0:
84,194,62243,5,2,0:0:0:0:
194,62,62526,1,2,0:0:0:0:
194,62,62668,1,2,0:0:0:0:
194,62,62810,2,0,P|201:97|203:128,1,61.7499983510972,10|2,0:0|0:0,0:0:0:0:
288,106,63093,2,0,P|281:71|279:40,1,61.7499983510972,2|0,0:0|0:0,0:0:0:0:
271,196,63376,6,0,P|306:189|337:187,1,61.7499983510972,6|2,0:0|0:0,0:0:0:0:
344,272,63659,2,0,P|309:279|278:281,1,61.7499983510972,2|2,0:0|0:0,0:0:0:0:
228,348,63942,2,0,P|193:341|162:339,1,61.7499983510972,10|2,0:0|0:0,0:0:0:0:
102,281,64225,2,0,P|67:288|36:290,1,61.7499983510972,2|2,0:0|0:0,0:0:0:0:
0,212,64507,5,2,0:0:0:0:
165,160,64790,1,2,0:0:0:0:
20,65,65073,2,0,L|9:-5,2,61.7499983510972,10|2|2,0:0|0:0|0:0,0:0:0:0:
165,160,65639,6,0,P|224:174|265:128,1,123.499996702194,2|2,0:0|0:0,0:0:0:0:
242,38,66064,1,0,0:0:0:0:
270,119,66205,2,0,P|311:160|368:146,1,123.499996702194,10|2,0:0|0:0,0:0:0:0:
427,83,66630,1,2,0:0:0:0:
427,83,66771,6,0,L|433:18,2,61.7499983510972,2|2|2,0:0|0:0|0:0,0:0:0:0:
493,242,67338,2,0,B|506:270|506:270|499:307,1,61.7499983510972,10|2,0:0|0:0,0:0:0:0:
446,367,67620,1,2,0:0:0:0:
446,367,67762,1,0,0:0:0:0:
379,314,67903,6,0,B|341:255|237:265|230:317|243:379|309:369,1,246.999993404389,6|10,0:0|0:0,0:0:0:0:
208,221,68752,1,2,0:0:0:0:
208,221,68894,1,2,0:0:0:0:
208,221,69036,2,0,P|164:228|132:232,1,61.7499983510972,2|0,0:0|0:0,0:0:0:0:
89,295,69319,2,0,P|45:288|13:284,1,61.7499983510972,2|0,0:0|0:0,0:0:0:0:
5,206,69602,5,10,0:0:0:0:
5,206,69743,1,2,0:0:0:0:
60,139,69885,1,2,0:0:0:0:
60,139,70026,1,2,0:0:0:0:
147,129,70168,6,0,B|206:91|196:-13|144:-20|82:-7|92:59,1,246.999993404389,6|10,0:0|0:0,0:0:0:0:
283,136,71017,1,2,0:0:0:0:
283,136,71158,1,2,0:0:0:0:
283,136,71300,6,0,P|319:132|348:127,1,61.7499983510972,2|0,0:0|0:0,0:0:0:0:
406,189,71583,2,0,P|442:193|471:198,1,61.7499983510972,2|0,0:0|0:0,0:0:0:0:
491,280,71866,5,10,0:0:0:0:
491,280,72007,1,2,0:0:0:0:
438,348,72149,1,2,0:0:0:0:
438,348,72290,1,2,0:0:0:0:
366,300,72432,6,0,B|328:241|224:251|217:303|230:365|296:355,1,246.999993404389,6|10,0:0|0:0,0:0:0:0:
295,355,73139,1,2,0:0:0:0:
295,355,73281,1,2,0:0:0:0:
368,135,73564,6,0,P|314:128|222:116,1,123.499996702194,2|2,0:0|0:0,0:0:0:0:
180,176,73988,1,0,0:0:0:0:
180,176,74130,2,0,L|114:187,1,61.7499983510972,10|2,0:0|0:0,0:0:0:0:
62,253,74413,2,0,L|22:249,3,41.1666655673981,2|2|2|6,0:0|0:0|0:0|0:0,0:0:0:0:
383,384,75262,6,0,P|421:336|392:279,1,123.499996702194,10|0,0:0|0:0,0:0:0:0:
322,323,75686,1,0,0:0:0:0:
408,277,75828,6,0,P|446:229|417:172,1,123.499996702194,10|0,0:0|0:0,0:0:0:0:
347,216,76252,1,8,0:0:0:0:
433,170,76394,6,0,P|471:122|442:65,1,123.499996702194,10|8,0:0|0:0,0:0:0:0:
372,109,76818,1,8,0:0:0:0:
444,61,76960,6,0,P|383:69|311:76,1,123.499996702194,6|2,0:0|0:0,0:0:0:0:
249,28,77385,1,2,0:0:0:0:
249,28,77527,2,0,L|179:17,2,61.7499983510972,10|2|2,0:0|0:0|0:0,0:0:0:0:
100,116,78093,6,0,P|74:165|103:237,1,123.499996702194,2|2,0:0|0:0,0:0:0:0:
174,266,78517,1,2,0:0:0:0:
174,266,78659,2,0,P|213:265|235:250,1,61.7499983510972,10|2,0:0|0:0,0:0:0:0:
272,176,78942,1,2,0:0:0:0:
413,74,79225,5,2,0:0:0:0:
413,74,79366,1,2,0:0:0:0:
413,74,79508,2,0,L|401:7,1,61.7499983510972,2|2,0:0|0:0,0:0:0:0:
448,154,79791,2,0,L|500:110,1,61.7499983510972,10|2,0:0|0:0,0:0:0:0:
396,224,80074,2,0,L|460:247,1,61.7499983510972,2|2,0:0|0:0,0:0:0:0:
332,287,80357,6,0,P|290:273|212:312,1,123.499996702194,2|2,0:0|0:0,0:0:0:0:
147,255,80781,1,2,0:0:0:0:
147,255,80923,2,0,L|159:186,2,61.7499983510972,10|2|2,0:0|0:0|0:0,0:0:0:0:
18,139,81489,6,0,L|6:70,1,61.7499983510972,2|2,0:0|0:0,0:0:0:0:
62,11,81772,2,0,P|92:5|139:25,1,61.7499983510972,2|2,0:0|0:0,0:0:0:0:
198,53,82055,2,0,L|187:113,2,61.7499983510972,10|2|2,0:0|0:0|0:0,0:0:0:0:
285,34,82480,1,2,0:0:0:0:
285,34,82621,6,0,L|264:164,1,123.499996702194,2|2,0:0|0:0,0:0:0:0:
304,232,83045,1,2,0:0:0:0:
147,305,83329,2,0,P|110:303|79:326,2,61.7499983510972,2|2|2,0:0|0:0|0:0,0:0:0:0:
217,354,83753,6,0,P|244:366|274:363,1,61.7499983510972,2|2,0:0|0:0,0:0:0:0:
344,311,84036,2,0,P|371:298|401:301,1,61.7499983510972,2|2,0:0|0:0,0:0:0:0:
470,248,84319,2,0,L|479:186,2,61.7499983510972,10|0|2,0:0|0:0|0:0,0:0:0:0:
366,109,84885,6,0,P|308:75|259:104,1,123.499996702194,2|2,0:0|0:0,0:0:0:0:
191,147,85310,2,0,L|178:21,1,123.499996702194,2|2,0:0|0:0,0:0:0:0:
100,62,85734,2,0,L|106:126,1,61.7499983510972,2|2,0:0|0:0,0:0:0:0:
74,204,86017,2,0,P|35:208|-3:185,1,82.3333311347962,6|0,0:0|0:0,0:0:0:0:
53,321,86442,6,0,P|100:292|171:303,1,123.499996702194,2|2,0:0|0:0,0:0:0:0:
223,363,86866,2,0,L|314:346,1,82.3333311347962,2|0,0:0|0:0,0:0:0:0:
393,234,87291,6,0,P|409:175|371:111,1,123.499996702194,2|2,0:0|0:0,0:0:0:0:
299,141,87715,2,0,L|308:50,1,82.3333311347962,10|0,0:0|0:0,0:0:0:0:
165,91,88140,6,0,L|179:224,1,123.499996702194,2|2,0:0|0:0,0:0:0:0:
234,278,88564,2,0,P|267:279|300:255,1,61.7499983510972,2|2,0:0|0:0,0:0:0:0:
360,333,88847,1,10,0:0:0:0:
360,333,88988,1,2,0:0:0:0:
360,333,89130,2,0,P|393:332|426:356,1,61.7499983510972,2|2,0:0|0:0,0:0:0:0:
476,282,89413,2,0,L|463:190,1,82.3333311347962,2|0,0:0|0:0,0:0:0:0:
475,56,89838,6,0,P|419:96|364:69,1,123.499996702194,2|2,0:0|0:0,0:0:0:0:
302,28,90263,2,0,L|234:37,1,61.7499983510972,2|2,0:0|0:0,0:0:0:0:
189,106,90546,5,2,0:0:0:0:
189,106,90687,1,2,0:0:0:0:
189,106,90829,2,0,P|183:140|201:188,1,61.7499983510972,2|2,0:0|0:0,0:0:0:0:
257,218,91112,2,0,L|247:291,1,61.7499983510972,10|2,0:0|0:0,0:0:0:0:
174,324,91395,2,0,L|101:314,1,61.7499983510972,2|2,0:0|0:0,0:0:0:0:
32,348,91678,2,0,P|22:320|38:266,1,82.3333311347962,2|0,0:0|0:0,0:0:0:0:
40,126,92102,6,0,P|72:168|141:166,1,123.499996702194,2|2,0:0|0:0,0:0:0:0:
207,115,92527,2,0,L|213:73,3,41.1666655673981,2|2|2|6,0:0|0:0|0:0|0:0,0:0:0:0:
500,249,93375,6,0,P|453:228|397:271,1,123.499996702194,10|0,0:0|0:0,0:0:0:0:
462,325,93800,1,0,0:0:0:0:
391,274,93941,6,0,P|344:253|288:296,1,123.499996702194,10|0,0:0|0:0,0:0:0:0:
353,350,94366,1,8,0:0:0:0:
353,350,95073,6,0,L|362:215,1,123.499996702194,6|2,0:0|0:0,0:0:0:0:
421,164,95498,1,2,0:0:0:0:
421,164,95640,2,0,L|414:100,2,61.7499983510972,10|2|2,0:0|0:0|0:0,0:0:0:0:
260,99,96206,6,0,P|235:95|201:107,1,61.7499983510972,2|0,0:0|0:0,0:0:0:0:
137,47,96489,2,0,P|121:66|114:102,1,61.7499983510972,2|0,0:0|0:0,0:0:0:0:
30,127,96772,2,0,P|39:150|66:174,1,61.7499983510972,10|0,0:0|0:0,0:0:0:0:
45,259,97055,2,0,P|70:263|104:251,1,61.7499983510972,2|0,0:0|0:0,0:0:0:0:
183,217,97338,6,0,L|168:355,1,123.499996702194,2|2,0:0|0:0,0:0:0:0:
250,383,97763,1,2,0:0:0:0:
250,383,97904,2,0,L|314:373,2,61.7499983510972,10|2|2,0:0|0:0|0:0,0:0:0:0:
346,239,98470,6,0,L|413:249,1,61.7499983510972,2|0,0:0|0:0,0:0:0:0:
321,146,98753,2,0,L|388:156,1,61.7499983510972,2|0,0:0|0:0,0:0:0:0:
245,91,99036,6,0,L|184:100,1,48.750001859665,2|0,0:0|0:0,0:0:0:0:
258,0,99319,2,0,L|197:9,1,48.750001859665,2|0,0:0|0:0,0:0:0:0:
330,56,99602,6,0,P|390:66|449:20,1,123.499996702194,2|2,0:0|0:0,0:0:0:0:
510,93,100027,1,2,0:0:0:0:
510,93,100168,2,0,L|497:223,1,123.499996702194,10|2,0:0|0:0,0:0:0:0:
429,269,100593,1,2,0:0:0:0:
429,269,100734,6,0,L|440:340,1,61.7499983510972,2|0,0:0|0:0,0:0:0:0:
343,254,101017,2,0,L|354:325,1,61.7499983510972,2|0,0:0|0:0,0:0:0:0:
257,239,101300,2,0,L|268:310,1,61.7499983510972,10|0,0:0|0:0,0:0:0:0:
171,224,101583,2,0,L|182:295,1,61.7499983510972,2|0,0:0|0:0,0:0:0:0:
227,157,101866,6,0,P|245:104|219:32,1,123.499996702194,2|2,0:0|0:0,0:0:0:0:
146,7,102291,1,2,0:0:0:0:
146,7,102432,2,0,L|81:17,2,61.7499983510972,10|2|2,0:0|0:0|0:0,0:0:0:0:
48,149,102998,6,0,P|33:164|48:158,1,61.7499983510972,2|0,0:0|0:0,0:0:0:0:
91,232,103281,2,0,P|85:252|95:239,1,61.7499983510972,2|0,0:0|0:0,0:0:0:0:
169,282,103564,2,0,P|174:302|176:286,1,61.7499983510972,10|0,0:0|0:0,0:0:0:0:
261,286,103847,2,0,P|276:301|269:285,1,61.7499983510972,2|0,0:0|0:0,0:0:0:0:
356,186,104130,5,2,0:0:0:0:
131,123,110640,6,0,L|136:163,3,41.1666655673981,2|2|2|6,0:0|0:0|0:0|0:0,0:0:0:0:
137,164,111489,6,0,P|183:126|239:147,1,123.499996702194,10|0,0:0|0:0,0:0:0:0:
201,223,111914,1,0,0:0:0:0:
246,139,112055,6,0,P|292:101|348:122,1,123.499996702194,10|0,0:0|0:0,0:0:0:0:
310,198,112480,1,8,0:0:0:0:
355,114,112621,6,0,P|401:76|457:97,1,123.499996702194,10|8,0:0|0:0,0:0:0:0:
419,173,113046,1,8,0:0:0:0:
463,106,113187,6,0,L|444:236,1,123.499996702194,6|2,0:0|0:0,0:0:0:0:
369,269,113611,1,2,0:0:0:0:
410,345,113753,2,0,P|362:310|300:329,1,123.499996702194,10|2,0:0|0:0,0:0:0:0:
242,384,114177,1,0,0:0:0:0:
242,384,114319,6,0,L|179:372,2,61.7499983510972,2|2|2,0:0|0:0|0:0,0:0:0:0:
133,249,114885,2,0,L|70:261,2,61.7499983510972,10|2|2,0:0|0:0|0:0,0:0:0:0:
224,102,115451,6,0,L|350:117,1,123.499996702194,2|2,0:0|0:0,0:0:0:0:
431,160,115875,1,2,0:0:0:0:
359,106,116017,2,0,P|342:169|367:222,1,123.499996702194,10|2,0:0|0:0,0:0:0:0:
458,365,116583,5,2,0:0:0:0:
303,310,116866,1,2,0:0:0:0:
303,310,117008,1,2,0:0:0:0:
303,310,117149,2,0,P|268:317|237:319,1,61.7499983510972,10|2,0:0|0:0,0:0:0:0:
174,265,117432,2,0,P|167:230|165:199,1,61.7499983510972,2|0,0:0|0:0,0:0:0:0:
221,138,117715,6,0,P|256:131|287:129,1,61.7499983510972,6|2,0:0|0:0,0:0:0:0:
270,43,117998,2,0,P|235:50|204:52,1,61.7499983510972,2|2,0:0|0:0,0:0:0:0:
350,75,118281,2,0,P|385:68|416:66,1,61.7499983510972,10|2,0:0|0:0,0:0:0:0:
286,138,118564,2,0,P|251:145|220:147,1,61.7499983510972,2|2,0:0|0:0,0:0:0:0:
363,184,118847,5,2,0:0:0:0:
264,325,119130,1,2,0:0:0:0:
436,338,119413,2,0,L|506:327,2,61.7499983510972,10|2|2,0:0|0:0|0:0,0:0:0:0:
269,223,119979,6,0,P|210:209|169:255,1,123.499996702194,2|2,0:0|0:0,0:0:0:0:
138,331,120404,1,0,0:0:0:0:
184,257,120546,2,0,L|166:126,1,123.499996702194,10|2,0:0|0:0,0:0:0:0:
107,79,120970,1,2,0:0:0:0:
107,79,121111,6,0,L|115:17,2,61.7499983510972,2|2|2,0:0|0:0|0:0,0:0:0:0:
278,56,121677,2,0,B|265:84|265:84|272:121,1,61.7499983510972,10|2,0:0|0:0,0:0:0:0:
325,181,121960,1,2,0:0:0:0:
325,181,122102,1,0,0:0:0:0:
392,128,122243,6,0,B|430:69|534:79|541:131|528:193|462:183,1,246.999993404389,6|10,0:0|0:0,0:0:0:0:
341,305,123092,1,2,0:0:0:0:
341,305,123234,1,2,0:0:0:0:
341,305,123376,2,0,P|297:312|265:316,1,61.7499983510972,2|0,0:0|0:0,0:0:0:0:
222,379,123659,2,0,P|178:372|146:368,1,61.7499983510972,2|0,0:0|0:0,0:0:0:0:
97,317,123942,5,10,0:0:0:0:
97,317,124083,1,2,0:0:0:0:
164,261,124225,1,2,0:0:0:0:
164,261,124366,1,2,0:0:0:0:
155,174,124508,6,0,B|117:115|13:125|6:177|19:239|85:229,1,246.999993404389,6|10,0:0|0:0,0:0:0:0:
276,210,125357,1,2,0:0:0:0:
276,210,125498,1,2,0:0:0:0:
276,210,125640,6,0,P|272:174|267:145,1,61.7499983510972,2|0,0:0|0:0,0:0:0:0:
329,87,125923,2,0,P|333:51|338:22,1,61.7499983510972,2|0,0:0|0:0,0:0:0:0:
420,2,126206,5,10,0:0:0:0:
420,2,126347,1,2,0:0:0:0:
488,55,126489,1,2,0:0:0:0:
488,55,126630,1,2,0:0:0:0:
440,127,126772,6,0,B|381:165|391:269|443:276|505:263|495:197,1,246.999993404389,6|10,0:0|0:0,0:0:0:0:
495,198,127479,1,2,0:0:0:0:
495,198,127621,1,2,0:0:0:0:
382,66,127904,6,0,P|328:73|236:85,1,123.499996702194,2|2,0:0|0:0,0:0:0:0:
207,151,128328,1,0,0:0:0:0:
207,151,128470,2,0,L|141:140,1,61.7499983510972,10|2,0:0|0:0,0:0:0:0:
84,202,128753,2,0,L|44:206,3,41.1666655673981,2|2|2|6,0:0|0:0|0:0|0:0,0:0:0:0:
392,263,129602,6,0,P|344:301|287:272,1,123.499996702194,10|0,0:0|0:0,0:0:0:0:
331,202,130026,1,0,0:0:0:0:
285,288,130168,6,0,P|237:326|180:297,1,123.499996702194,10|0,0:0|0:0,0:0:0:0:
224,227,130592,1,8,0:0:0:0:
178,313,130734,6,0,P|130:351|73:322,1,123.499996702194,10|8,0:0|0:0,0:0:0:0:
117,252,131158,1,8,0:0:0:0:
69,324,131300,6,0,P|77:263|88:167,1,155.999995239258,6|0,0:0|0:0,0:0:0:0:
