osu file format v14

[General]
AudioFilename: audio.mp3
AudioLeadIn: 0
PreviewTime: 65124
Countdown: 0
SampleSet: Soft
StackLeniency: 0.3
Mode: 0
LetterboxInBreaks: 0
WidescreenStoryboard: 1

[Editor]
Bookmarks: 24446,32582,40717,48853,56988,65124,73260,81395,97666,105802,113938,122073,130209,138344,146480
DistanceSpacing: 1
BeatDivisor: 4
GridSize: 32
TimelineZoom: 1.9

[Metadata]
Title:yoga
TitleUnicode:yoga
Artist:bbno$ & Rebecca Black
ArtistUnicode:bbno$ & Rebecca Black
Creator:Bakugo-
Version:thexo's insane
Source:
Tags:female male vocals collab rap hip hop hiphop collaboration vocalist vocalists gaz pop eat ya veggies bbno bakugo gokugohan12468 gokugohan kittyadventure thexo tadahitotsu gazza arronchu1207 chu arronchu xandeez nuts pokey [Poke] english gigarobloxian21 ft featuring feat
BeatmapID:3272535
BeatmapSetID:1596017

[Difficulty]
HPDrainRate:4.9
CircleSize:4.1
OverallDifficulty:7.1
ApproachRate:9
SliderMultiplier:1.89
SliderTickRate:1

[Events]
//Background and Video events
0,0,"anime-scenery-sunset-anime-school-girl-clouds-artwork-anime.jpeg",0,0
Video,65,"bbno__Rebecca_Black_-_yoga_Official_Video_edit.mp4"
//Break Periods
2,57195,62497
2,106009,112836
//Storyboard Layer 0 (Background)
//Storyboard Layer 1 (Fail)
//Storyboard Layer 2 (Pass)
//Storyboard Layer 3 (Foreground)
//Storyboard Layer 4 (Overlay)
//Storyboard Sound Samples

[TimingPoints]
47,508.474576271186,4,2,1,60,1,0
16318,-100,4,2,1,60,0,0
16826,-66.6666666666667,4,2,1,60,0,0
17843,-100,4,2,1,60,0,0
18606,-100,4,2,1,60,0,0
18860,-66.6666666666667,4,2,1,60,0,0
20385,-100,4,2,1,60,0,0
20894,-66.6666666666667,4,2,1,60,0,0
21911,-100,4,2,1,60,0,0
23436,-100,4,2,1,60,0,0
23945,-58.8235294117647,4,2,1,60,0,0
24898,-58.8235294117647,4,2,1,5,0,0
24962,-68.9655172413793,4,2,1,60,0,0
26487,-58.8235294117647,4,2,1,60,0,0
26932,-58.8235294117647,4,2,1,5,0,0
26995,-68.9655172413793,4,2,1,60,0,0
27758,-58.8235294117647,4,2,1,60,0,0
27949,-58.8235294117647,4,2,1,5,0,0
28012,-58.8235294117647,4,2,1,60,0,0
28521,-66.6666666666667,4,2,1,60,0,0
28966,-58.8235294117647,4,2,1,5,0,0
29029,-66.6666666666667,4,2,1,60,0,0
30555,-90.9090909090909,4,2,1,60,0,0
43203,-58.8235294117647,4,2,1,5,0,0
43267,-90.9090909090909,4,2,1,60,0,0
45237,-58.8235294117647,4,2,1,5,0,0
45301,-90.9090909090909,4,2,1,60,0,0
49114,-80,4,2,1,60,0,0
49877,-66.6666666666667,4,2,1,60,0,0
51148,-80,4,2,1,60,0,0
51911,-66.6666666666667,4,2,1,60,0,0
53182,-80,4,2,1,60,0,0
53945,-66.6666666666667,4,2,1,60,0,0
55979,-133.333333333333,4,2,1,60,0,0
58902,-133.333333333333,4,2,1,5,0,0
59029,-133.333333333333,4,2,1,60,0,0
60936,-133.333333333333,4,2,1,5,0,0
61063,-133.333333333333,4,2,1,60,0,0
62970,-133.333333333333,4,2,1,5,0,0
63097,-90.9090909090909,4,2,1,60,0,0
65131,-80,4,2,1,86,0,0
65640,-66.6666666666667,4,2,1,86,0,0
66656,-100,4,2,1,86,0,0
67673,-66.6666666666667,4,2,1,86,0,0
68690,-133.333333333333,4,2,1,86,0,0
69199,-80,4,2,1,86,0,0
69707,-66.6666666666667,4,2,1,86,0,0
70724,-100,4,2,1,86,0,0
72758,-58.8235294117647,4,2,1,86,0,0
73267,-55.5555555555556,4,2,1,86,0,0
73712,-58.8235294117647,4,2,1,5,0,0
73775,-100,4,2,1,86,0,0
74284,-66.6666666666667,4,2,1,86,0,0
75301,-55.5555555555556,4,2,1,86,0,0
75745,-58.8235294117647,4,2,1,5,0,0
75809,-100,4,2,1,86,0,0
76317,-66.6666666666667,4,2,1,86,0,0
76572,-55.5555555555556,4,2,1,86,0,0
76762,-58.8235294117647,4,2,1,5,0,0
76826,-55.5555555555556,4,2,1,86,0,0
77779,-58.8235294117647,4,2,1,5,0,0
77843,-100,4,2,1,86,0,0
78351,-80,4,2,1,86,0,0
81402,-80,4,2,1,75,0,0
82928,-133.333333333333,4,2,1,75,0,0
89538,-100,4,2,1,75,0,0
97673,-100,4,2,1,70,0,0
99199,-100,4,2,1,70,0,0
105809,-100,4,2,1,60,0,0
107716,-100,4,2,1,5,0,0
107843,-100,4,2,1,60,0,0
109750,-100,4,2,1,5,0,0
109877,-100,4,2,1,60,0,0
111911,-100,4,2,1,65,0,0
113500,-100,4,2,1,5,0,0
113945,-80,4,2,1,86,0,0
114453,-66.6666666666667,4,2,1,86,0,0
115470,-100,4,2,1,86,0,0
116487,-66.6666666666667,4,2,1,86,0,0
117504,-133.333333333333,4,2,1,86,0,0
118012,-80,4,2,1,86,0,0
118521,-66.6666666666667,4,2,1,86,0,0
119538,-100,4,2,1,86,0,0
121572,-58.8235294117647,4,2,1,86,0,0
122080,-55.5555555555556,4,2,1,86,0,0
122525,-58.8235294117647,4,2,1,5,0,0
122589,-100,4,2,1,86,0,0
123097,-66.6666666666667,4,2,1,86,0,0
124114,-55.5555555555556,4,2,1,86,0,0
124559,-58.8235294117647,4,2,1,5,0,0
124623,-100,4,2,1,86,0,0
125131,-66.6666666666667,4,2,1,86,0,0
126148,-55.5555555555556,4,2,1,86,0,0
126593,-58.8235294117647,4,2,1,5,0,0
126656,-100,4,2,1,86,0,0
127165,-66.6666666666667,4,2,1,86,0,0
128182,-66.6666666666667,4,2,1,86,0,0
130216,-100,4,2,1,75,0,0
138351,-80,4,2,1,75,0,0
138796,-58.8235294117647,4,2,1,5,0,0
138860,-100,4,2,1,75,0,0
140385,-80,4,2,1,75,0,0
140830,-58.8235294117647,4,2,1,5,0,0
140894,-100,4,2,1,75,0,0
142356,-58.8235294117647,4,2,1,5,0,0
142419,-80,4,2,1,75,0,0
142864,-58.8235294117647,4,2,1,5,0,0
142928,-100,4,2,1,75,0,0
144453,-76.9230769230769,4,2,1,75,0,0
146487,-76.9230769230769,4,2,1,75,0,0

[Colours]
Combo1 : 255,128,192
Combo2 : 128,128,255
Combo3 : 255,181,106
Combo4 : 192,192,192

[HitObjects]
5,80,16318,6,0,P|27:89|43:108,1,47.25,2|2,1:2|0:0,0:0:0:0:
125,157,16572,2,0,P|127:134|118:113,1,47.25,2|0,0:0|0:0,0:0:0:0:
67,221,16826,2,0,P|138:196|213:191,1,141.750005407334,10|2,1:2|0:0,0:0:0:0:
471,257,17334,1,2,1:2:0:0:
512,131,17589,5,2,0:0:0:0:
452,181,17716,1,0,0:0:0:0:
381,147,17843,2,0,P|370:105|409:59,1,94.5,10|0,1:2|0:0,0:0:0:0:
506,327,18351,5,2,1:2:0:0:
492,336,18479,1,2,0:0:0:0:
480,347,18606,2,0,P|446:331|423:333,1,47.25,2|0,0:0|0:0,0:0:0:0:
294,363,18860,2,0,P|349:372|340:305,1,141.750005407334,10|2,1:2|0:0,0:0:0:0:
184,102,19368,5,2,1:2:0:0:
162,267,19623,1,2,0:0:0:0:
316,203,19877,1,10,1:2:0:0:
220,190,20131,1,0,0:0:0:0:
379,108,20385,6,0,L|444:115,1,47.25,2|0,1:2|0:0,0:0:0:0:
237,5,20640,1,2,0:0:0:0:
293,59,20767,1,2,0:0:0:0:
366,31,20894,2,0,L|506:46,1,141.750005407334,10|2,1:2|0:0,0:0:0:0:
193,125,21402,1,2,1:2:0:0:
76,61,21656,5,2,0:0:0:0:
155,56,21784,1,0,0:0:0:0:
118,124,21911,2,0,P|108:171|102:222,1,94.5,10|0,1:2|0:0,0:0:0:0:
41,378,22419,6,0,P|20:357|3:346,1,47.25,2|2,1:2|0:0,0:0:0:0:
121,384,22673,2,0,P|113:355|104:337,1,47.25,2|0,0:0|0:0,0:0:0:0:
39,273,22928,1,10,1:2:0:0:
39,273,23182,1,2,0:0:0:0:
281,298,23436,6,0,L|340:288,1,47.25,2|0,1:2|0:0,0:0:0:0:
266,310,23690,2,0,L|325:300,1,47.25,10|0,1:2|1:2,0:0:0:0:
251,322,23945,6,0,L|434:290,1,160.650003064156,10|2,1:2|0:0,0:0:0:0:
170,220,24453,6,0,B|318:237|272:111|420:128,1,281.137505362272,2|0,1:2|0:0,0:0:0:0:
431,134,24962,2,0,P|461:88|391:64,1,137.025004181671,10|2,1:2|0:0,0:0:0:0:
282,26,25343,1,2,0:0:0:0:
295,38,25470,2,0,P|310:103|311:131,1,68.5125020908356,2|0,1:2|0:0,0:0:0:0:
255,157,25724,1,2,0:0:0:0:
264,171,25851,2,0,P|261:237|255:264,2,68.5125020908356,0|10|0,0:0|1:2|0:0,0:0:0:0:
194,120,26233,1,0,0:0:0:0:
70,298,26487,6,0,B|75:374|200:351|187:278|149:195|76:167,1,281.137505362272,2|0,1:2|0:0,0:0:0:0:
85,174,26995,2,0,P|72:137|72:103,1,68.5125020908356,10|2,1:2|0:0,0:0:0:0:
117,15,27250,1,2,0:0:0:0:
40,23,27377,1,0,0:0:0:0:
118,30,27504,2,0,P|158:52|182:82,1,68.5125020908356,2|0,1:2|0:0,0:0:0:0:
193,153,27758,6,0,P|267:159|278:122,1,120.487502298117,2|0,0:0|0:0,0:0:0:0:
275,119,28012,2,0,P|261:179|261:223,1,80.3250015320778,10|0,1:2|0:0,0:0:0:0:
328,277,28267,1,0,0:0:0:0:
435,112,28521,6,0,P|453:215|389:155,1,248.062509462834,2|0,1:2|0:0,0:0:0:0:
378,164,29029,2,0,P|393:236|390:262,1,70.8750027036668,10|0,1:2|0:0,0:0:0:0:
434,312,29284,1,2,0:0:0:0:
388,373,29411,1,2,0:0:0:0:
313,357,29538,2,0,P|271:367|241:382,1,70.8750027036668,2|0,1:2|0:0,0:0:0:0:
104,316,29792,5,2,0:0:0:0:
179,339,29919,1,0,0:0:0:0:
232,281,30046,2,0,P|235:246|222:207,1,70.8750027036668,10|0,1:2|0:0,0:0:0:0:
149,139,30301,1,0,0:0:0:0:
349,40,30555,6,0,L|419:32,1,51.9750015861512,10|2,1:2|0:0,0:0:0:0:
417,112,30809,2,0,L|487:104,1,51.9750015861512,2|2,0:0|0:0,0:0:0:0:
328,181,31063,6,0,L|333:122,3,51.9750015861512,10|2|2|2,1:2|0:0|0:0|0:0,0:0:0:0:
252,198,31572,6,0,L|196:206,1,51.9750015861512,10|2,1:2|0:0,0:0:0:0:
376,244,31826,2,0,L|432:252,1,51.9750015861512,2|2,0:0|0:0,0:0:0:0:
212,300,32080,5,10,1:2:0:0:
294,276,32207,1,10,0:0:0:0:
350,340,32334,1,10,0:0:0:0:
350,340,32589,5,6,0:0:0:0:
350,340,33097,1,8,1:2:0:0:
212,300,33351,5,2,0:0:0:0:
294,276,33479,1,2,0:0:0:0:
213,286,33606,2,0,L|145:276,1,51.9750015861512,2|2,1:2|0:0,0:0:0:0:
102,330,33860,2,0,L|34:340,1,51.9750015861512,2|0,0:0|0:0,0:0:0:0:
147,197,34114,1,10,1:2:0:0:
36,237,34368,1,2,0:0:0:0:
175,374,34623,5,2,1:2:0:0:
175,374,35131,1,8,1:2:0:0:
147,197,35385,5,2,0:0:0:0:
219,232,35512,1,2,0:0:0:0:
261,164,35640,2,0,L|250:97,1,51.9750015861512,2|2,1:2|0:0,0:0:0:0:
341,167,35894,2,0,L|332:220,1,51.9750015861512,2|2,0:0|0:0,0:0:0:0:
186,68,36148,1,10,1:2:0:0:
288,2,36402,1,2,0:0:0:0:
282,285,36656,5,2,1:2:0:0:
282,285,37165,1,8,1:2:0:0:
500,289,37419,5,2,0:0:0:0:
512,365,37546,1,2,0:0:0:0:
508,282,37673,2,0,L|438:270,1,51.9750015861512,2|2,1:2|0:0,0:0:0:0:
379,341,37928,1,2,0:0:0:0:
379,341,38055,1,2,0:0:0:0:
379,341,38182,1,10,1:2:0:0:
483,170,38436,1,2,0:0:0:0:
483,170,38563,1,2,0:0:0:0:
483,170,38690,5,2,1:2:0:0:
443,55,38945,1,2,0:0:0:0:
366,237,39199,5,10,1:2:0:0:
326,122,39452,1,2,0:0:0:0:
249,98,39579,1,2,0:0:0:0:
218,172,39707,2,0,L|230:238,1,51.9750015861512,2|2,1:2|0:0,0:0:0:0:
253,344,39962,1,2,0:0:0:0:
176,368,40089,1,2,0:0:0:0:
145,294,40215,2,0,L|157:227,1,51.9750015861512,10|0,1:2|0:0,0:0:0:0:
337,319,40470,5,2,0:0:0:0:
337,319,40597,1,2,0:0:0:0:
337,319,40724,2,0,P|390:287|296:259,1,207.900006344605,2|8,1:2|1:2,0:0:0:0:
161,154,41487,5,2,0:0:0:0:
139,158,41614,1,2,0:0:0:0:
98,216,41741,2,0,P|64:201|-10:181,1,103.950003172302,2|2,1:2|0:0,0:0:0:0:
166,341,42123,2,0,P|137:317|70:279,1,103.950003172302,0|2,0:0|0:0,0:0:0:0:
55,354,42504,1,2,0:0:0:0:
254,81,42758,6,0,P|236:153|218:278,1,181.912505551529,2|0,1:2|0:0,0:0:0:0:
223,270,43267,2,0,P|274:254|325:248,1,103.950003172302,10|2,1:2|0:0,0:0:0:0:
392,281,43648,1,0,0:0:0:0:
462,306,43775,6,0,P|415:306|409:354,1,103.950003172302,2|2,1:2|0:0,0:0:0:0:
512,249,44156,2,0,P|503:190|484:128,1,103.950003172302
435,94,44538,1,2,0:0:0:0:
202,32,44792,6,0,B|299:29|262:107|359:105,1,181.912505551529,2|0,1:2|0:0,0:0:0:0:
367,100,45301,2,0,P|356:157|353:203,1,103.950003172302,8|2,1:2|0:0,0:0:0:0:
353,202,45809,1,2,1:2:0:0:
153,133,46063,1,2,0:0:0:0:
135,57,46190,1,2,0:0:0:0:
168,139,46317,2,0,P|174:190|176:242,1,103.950003172302,8|2,0:0|0:0,0:0:0:0:
176,242,46826,6,0,L|110:237,1,51.9750015861512,10|2,1:2|0:0,0:0:0:0:
11,187,47080,2,0,L|62:183,1,51.9750015861512,2|2,0:0|0:0,0:0:0:0:
48,305,47334,5,10,1:2:0:0:
48,305,47462,1,2,0:0:0:0:
48,305,47589,1,2,0:0:0:0:
48,305,47716,1,2,0:0:0:0:
48,305,47843,2,0,P|57:356|59:376,1,51.9750015861512,10|2,1:2|0:0,0:0:0:0:
147,373,48097,2,0,P|143:347|137:321,1,51.9750015861512,2|2,0:0|0:0,0:0:0:0:
62,183,48351,5,10,1:2:0:0:
124,238,48479,1,10,0:0:0:0:
60,200,48606,1,10,0:0:0:0:
365,178,48860,5,6,1:2:0:0:
270,335,49114,2,0,P|274:277|289:218,1,118.125,2|10,0:0|1:2,0:0:0:0:
237,154,49495,1,0,0:0:0:0:
244,139,49623,2,0,P|240:97|231:68,1,59.0625,2|2,0:0|0:0,0:0:0:0:
380,37,49877,6,0,P|371:96|363:211,1,141.750005407334,2|2,1:2|0:0,0:0:0:0:
405,250,50258,1,0,0:0:0:0:
416,255,50385,1,8,1:2:0:0:
477,114,50640,1,2,0:0:0:0:
293,0,50894,5,2,1:2:0:0:
149,128,51148,2,0,P|91:114|100:50,1,118.125,2|8,0:0|1:2,0:0:0:0:
214,175,51529,1,0,0:0:0:0:
226,173,51656,2,0,P|239:141|232:102,1,59.0625,2|0,0:0|0:0,0:0:0:0:
19,199,51911,6,0,P|84:220|163:257,1,141.750005407334,2|2,1:2|0:0,0:0:0:0:
209,309,52292,1,0,0:0:0:0:
224,306,52419,1,8,1:2:0:0:
296,208,52673,1,2,0:0:0:0:
470,365,52928,5,2,1:2:0:0:
460,178,53182,2,0,P|440:258|433:317,1,118.125,2|8,0:0|1:2,0:0:0:0:
350,364,53563,1,0,0:0:0:0:
358,355,53690,2,0,P|357:313|353:284,1,59.0625,2|0,0:0|0:0,0:0:0:0:
232,171,53945,6,0,P|287:185|377:197,1,141.750005407334,2|2,1:2|0:0,0:0:0:0:
460,178,54326,1,0,0:0:0:0:
471,166,54453,1,8,1:2:0:0:
388,73,54707,1,2,0:0:0:0:
118,144,54962,6,0,P|91:70|194:104,1,212.625008111,2|0,1:2|0:0,0:0:0:0:
232,171,55470,2,0,P|217:224|215:257,1,70.8750027036668,8|2,1:2|0:0,0:0:0:0:
132,369,55724,2,0,P|126:334|115:300,1,70.8750027036668,2|2,0:0|0:0,0:0:0:0:
8,243,55979,6,0,L|51:236,1,35.4375013518334,2|0,1:2|0:0,0:0:0:0:
215,239,56233,5,2,0:0:0:0:
140,229,56360,1,0,0:0:0:0:
115,300,56487,1,8,1:2:0:0:
215,352,56741,5,2,0:0:0:0:
0,326,56995,1,6,0:0:0:0:
79,197,63097,6,0,L|28:184,1,51.9750015861512,10|2,1:2|0:0,0:0:0:0:
164,131,63351,2,0,L|215:123,1,51.9750015861512,2|2,0:0|0:0,0:0:0:0:
155,205,63606,6,0,L|161:256,1,51.9750015861512,10|2,1:2|0:0,0:0:0:0:
88,121,63860,2,0,L|100:70,1,51.9750015861512,2|2,0:0|0:0,0:0:0:0:
132,176,64114,5,10,1:2:0:0:
132,176,64241,1,2,0:0:0:0:
132,176,64368,1,10,0:0:0:0:
132,176,64495,1,2,0:0:0:0:
84,277,64623,5,10,1:2:0:0:
416,383,65131,6,0,P|380:366|346:365,1,59.0625,6|2,1:2|0:0,0:0:0:0:
244,349,65385,2,0,P|257:379|291:381,1,59.0625,2|0,0:0|0:0,0:0:0:0:
410,248,65640,2,0,P|342:247|309:306,1,141.750005407334,10|2,1:2|0:0,0:0:0:0:
512,376,66148,1,2,1:2:0:0:
512,131,66402,5,2,0:0:0:0:
452,181,66529,1,0,0:0:0:0:
381,147,66656,2,0,P|319:153|273:161,1,94.5,10|0,1:2|0:0,0:0:0:0:
16,183,67165,5,2,1:2:0:0:
24,204,67292,1,2,0:0:0:0:
32,225,67419,2,0,P|65:229|90:235,1,47.25,2|0,0:0|0:0,0:0:0:0:
217,127,67673,2,0,P|142:157|156:207,1,141.750005407334,10|2,1:2|0:0,0:0:0:0:
359,355,68182,6,0,P|395:356|446:364,1,70.8750027036668,2|0,1:2|0:0,0:0:0:0:
256,274,68436,2,0,P|221:279|186:280,1,70.8750027036668,2|0,0:0|0:0,0:0:0:0:
13,354,68690,6,0,P|48:356|84:361,1,70.8750027036668,10|0,1:2|0:0,0:0:0:0:
238,192,69199,6,0,P|226:151|211:127,1,59.0625,2|0,1:2|0:0,0:0:0:0:
21,193,69453,1,2,0:0:0:0:
96,209,69580,1,2,0:0:0:0:
142,148,69707,2,0,P|121:92|112:-2,1,141.750005407334,10|2,1:2|0:0,0:0:0:0:
294,63,70216,1,2,1:2:0:0:
136,308,70470,5,2,0:0:0:0:
170,243,70597,1,0,0:0:0:0:
237,271,70724,2,0,P|228:322|226:370,1,94.5,10|0,1:2|0:0,0:0:0:0:
493,187,71233,6,0,P|474:232|470:249,1,47.25,2|2,1:2|0:0,0:0:0:0:
390,133,71487,2,0,P|409:178|413:195,1,47.25,2|0,0:0|0:0,0:0:0:0:
477,91,71741,1,10,1:2:0:0:
477,91,71995,1,2,0:0:0:0:
364,313,72250,6,0,L|419:304,1,47.25,2|0,1:2|0:0,0:0:0:0:
272,372,72504,2,0,L|217:363,1,47.25,10|0,1:2|0:0,0:0:0:0:
354,325,72758,6,0,L|523:297,1,160.650003064156,10|0,1:2|0:0,0:0:0:0:
284,55,73267,54,0,B|195:31|195:31|284:97|322:189,1,297.67499091568,6|0,1:2|0:0,0:0:0:0:
331,197,73775,2,0,P|363:178|344:127,1,94.5,10|2,1:2|0:0,0:0:0:0:
217,164,74156,1,2,0:0:0:0:
203,178,74284,2,0,P|148:165|100:161,1,70.8750027036668,2|0,1:2|0:0,0:0:0:0:
269,271,74538,1,2,0:0:0:0:
251,280,74664,2,0,P|201:253|156:237,2,70.8750027036668,0|10|0,0:0|1:2|0:0,0:0:0:0:
291,372,75046,1,0,0:0:0:0:
29,358,75301,22,1,B|-17:289|39:233|68:230|59:243|155:208|87:106,1,297.67499091568,2|0,1:2|0:0,0:0:0:0:
80,99,75809,2,0,P|77:61|139:62,1,94.5,10|2,1:2|0:0,0:0:0:0:
244,12,76190,1,0,0:0:0:0:
215,82,76317,2,0,P|227:113|233:156,1,70.8750027036668,2|0,1:2|0:0,0:0:0:0:
235,262,76572,6,0,P|171:251|179:196,1,127.57499610672,2|0,0:0|0:0,0:0:0:0:
183,205,76826,2,0,P|155:258|146:310,1,85.0499974044801,10|0,1:2|0:0,0:0:0:0:
164,381,77080,1,0,0:0:0:0:
423,218,77335,6,0,P|371:143|364:264,1,297.67499091568,2|0,1:2|0:0,0:0:0:0:
371,269,77843,2,0,P|360:303|359:333,1,47.25,10|0,1:2|0:0,0:0:0:0:
305,376,78097,1,2,0:0:0:0:
234,347,78224,1,2,0:0:0:0:
164,381,78351,2,0,P|126:369|91:364,1,59.0625,2|0,1:2|0:0,0:0:0:0:
9,223,78606,5,2,0:0:0:0:
57,292,78733,1,0,0:0:0:0:
139,277,78860,2,0,P|137:230|130:212,1,59.0625,10|0,1:2|0:0,0:0:0:0:
69,135,79114,1,0,0:0:0:0:
248,78,79368,6,0,L|332:73,3,59.0625,10|2|2|2,1:2|0:0|0:0|0:0,0:0:0:0:
509,65,79877,2,0,L|451:69,3,59.0625,10|2|2|2,1:2|0:0|0:0|0:0,0:0:0:0:
382,99,80385,5,10,1:2:0:0:
378,172,80512,1,2,0:0:0:0:
401,241,80639,1,2,0:0:0:0:
430,309,80766,1,2,0:0:0:0:
434,382,80894,2,0,P|393:374|354:370,2,59.0625,10|10|10,1:2|0:0|0:0,0:0:0:0:
47,16,82419,5,2,1:2:0:0:
118,23,82546,1,2,0:0:0:0:
189,35,82673,1,2,0:0:0:0:
259,52,82800,1,2,0:0:0:0:
328,73,82928,2,0,P|311:138|308:156,1,70.8750027036668,10|2,1:2|0:0,0:0:0:0:
258,372,83436,2,0,P|250:337|240:303,1,70.8750027036668,2|2,1:2|0:0,0:0:0:0:
442,257,83945,2,0,P|377:240|359:237,1,70.8750027036668,10|2,1:2|0:0,0:0:0:0:
143,187,84453,2,0,P|178:179|212:169,1,70.8750027036668,2|2,1:2|0:0,0:0:0:0:
106,126,84834,1,0,0:0:0:0:
94,127,84962,2,0,P|70:159|71:204,1,70.8750027036668,10|2,1:2|0:0,0:0:0:0:
41,377,85470,6,0,P|34:341|4:236,1,141.750005407334,2|8,1:2|1:2,0:0:0:0:
334,379,86487,5,2,1:2:0:0:
411,353,86614,1,2,0:0:0:0:
336,362,86741,1,2,0:0:0:0:
512,199,86995,2,0,P|495:240|488:278,1,70.8750027036668,10|2,1:2|0:0,0:0:0:0:
414,269,87377,1,2,0:0:0:0:
370,208,87504,2,0,P|327:206|292:214,1,70.8750027036668,2|2,1:2|0:0,0:0:0:0:
435,23,88012,2,0,P|469:28|505:26,1,70.8750027036668,10|2,1:2|0:0,0:0:0:0:
505,25,88394,1,0,0:0:0:0:
505,25,88521,1,2,1:2:0:0:
298,94,88775,1,2,0:0:0:0:
298,94,88902,1,0,0:0:0:0:
298,94,89029,2,0,P|263:99|227:97,1,70.8750027036668,10|2,1:2|0:0,0:0:0:0:
0,0,89538,6,0,P|10:54|21:200,1,189,2|10,1:2|1:2,0:0:0:0:
136,286,90428,5,0,0:0:0:0:
136,286,90555,2,0,P|136:250|74:229,1,94.5,2|2,1:2|0:0,0:0:0:0:
0,314,91063,1,10,1:2:0:0:
20,187,91317,1,2,0:0:0:0:
333,124,91826,5,2,0:0:0:0:
227,0,92080,2,0,P|241:40|255:102,1,94.5,10|2,1:2|0:0,0:0:0:0:
204,154,92462,1,0,0:0:0:0:
262,209,92589,2,0,P|248:249|234:311,1,94.5,2|10,1:2|1:2,0:0:0:0:
275,366,92970,1,0,0:0:0:0:
339,324,93097,1,10,1:2:0:0:
157,293,93351,1,2,0:0:0:0:
463,10,94623,6,0,P|456:48|450:105,1,94.5,2|2,1:2|0:0,0:0:0:0:
451,181,95004,1,0,0:0:0:0:
382,148,95131,2,0,P|334:152|290:171,1,94.5,10|2,1:2|0:0,0:0:0:0:
77,304,95640,5,10,1:2:0:0:
77,304,95767,1,2,0:0:0:0:
77,304,95894,2,0,L|25:300,1,47.25,2|2,0:0|0:0,0:0:0:0:
161,244,96148,1,10,1:2:0:0:
161,244,96275,1,2,0:0:0:0:
161,244,96402,2,0,L|213:240,1,47.25,2|2,0:0|0:0,0:0:0:0:
77,184,96656,1,10,1:2:0:0:
77,184,96783,1,2,0:0:0:0:
77,184,96910,2,0,L|25:180,1,47.25,10|2,0:0|0:0,0:0:0:0:
152,138,97165,5,10,1:2:0:0:
130,50,97292,1,10,0:0:0:0:
162,127,97419,1,10,0:0:0:0:
274,16,98690,5,2,1:2:0:0:
274,16,98817,1,2,0:0:0:0:
274,16,98945,1,2,0:0:0:0:
274,16,99072,1,2,0:0:0:0:
274,15,99199,2,0,P|265:37|262:64,1,47.25,10|2,1:2|0:0,0:0:0:0:
298,139,99453,1,2,0:0:0:0:
512,194,99707,5,2,1:2:0:0:
190,204,100216,1,10,1:2:0:0:
190,204,100343,1,2,0:0:0:0:
190,204,100470,2,0,P|223:196|248:194,1,47.25,2|0,0:0|0:0,0:0:0:0:
320,219,100724,1,2,1:2:0:0:
136,285,100979,1,2,0:0:0:0:
136,285,101106,1,2,0:0:0:0:
136,285,101233,1,10,1:2:0:0:
136,285,101360,1,2,0:0:0:0:
136,285,101487,2,0,P|103:277|78:275,1,47.25,2|0,0:0|0:0,0:0:0:0:
10,308,101741,5,2,1:2:0:0:
304,340,102250,1,8,1:2:0:0:
304,340,102377,1,2,0:0:0:0:
304,340,102504,2,0,P|341:330|359:328,1,47.25,2|0,0:0|0:0,0:0:0:0:
428,367,102758,1,2,1:2:0:0:
425,174,103012,1,2,0:0:0:0:
425,174,103139,1,2,0:0:0:0:
425,174,103267,1,10,1:2:0:0:
425,174,103394,1,2,0:0:0:0:
425,174,103521,2,0,P|420:207|420:233,1,47.25,2|0,0:0|0:0,0:0:0:0:
478,287,103775,5,2,1:2:0:0:
371,7,104284,5,10,1:2:0:0:
306,92,104538,1,2,0:0:0:0:
86,34,104792,5,2,1:2:0:0:
449,82,105301,5,8,1:2:0:0:
225,372,105809,5,6,0:0:0:0:
266,6,113436,6,0,L|257:49,1,23.625,8|0,0:0|0:0,0:0:0:0:
274,369,113945,6,0,P|278:339|288:311,1,59.0625,6|2,1:2|0:0,0:0:0:0:
203,216,114199,2,0,P|221:247|221:277,1,59.0625,2|0,0:0|0:0,0:0:0:0:
349,143,114453,2,0,P|360:208|299:234,1,141.750005407334,10|2,1:2|0:0,0:0:0:0:
245,75,114962,1,2,1:2:0:0:
1,140,115216,5,2,0:0:0:0:
73,166,115343,1,0,0:0:0:0:
127,111,115470,2,0,P|119:63|115:8,1,94.5,10|0,1:2|0:0,0:0:0:0:
12,267,115979,5,2,1:2:0:0:
18,284,116106,1,2,0:0:0:0:
24,301,116233,2,0,P|59:286|75:283,1,47.25,2|0,0:0|0:0,0:0:0:0:
204,379,116487,2,0,P|142:360|160:293,1,141.750005407334,10|2,1:2|0:0,0:0:0:0:
326,20,116995,6,0,P|320:54|306:87,1,70.8750027036668,2|0,1:2|0:0,0:0:0:0:
214,219,117250,2,0,P|196:175|194:138,1,70.8750027036668,2|0,0:0|0:0,0:0:0:0:
326,284,117504,6,0,P|320:318|306:351,1,70.8750027036668,10|0,1:2|0:0,0:0:0:0:
403,71,118012,6,0,P|436:61|470:62,1,59.0625,2|0,1:2|0:0,0:0:0:0:
305,186,118267,1,2,0:0:0:0:
363,139,118394,1,2,0:0:0:0:
423,182,118521,2,0,P|410:251|402:322,1,141.750005407334,10|2,1:2|0:0,0:0:0:0:
512,384,119029,1,2,1:2:0:0:
305,186,119284,5,2,0:0:0:0:
237,216,119411,1,0,0:0:0:0:
190,159,119538,2,0,P|199:88|211:46,1,94.5,10|0,1:2|0:0,0:0:0:0:
413,14,120046,6,0,P|405:43|404:62,1,47.25,2|2,1:2|0:0,0:0:0:0:
329,43,120301,2,0,P|328:73|332:91,1,47.25,2|0,0:0|0:0,0:0:0:0:
405,149,120555,1,10,1:2:0:0:
405,149,120809,1,2,0:0:0:0:
190,159,121063,6,0,L|130:162,1,47.25,2|0,1:2|0:0,0:0:0:0:
313,267,121317,2,0,L|373:270,1,47.25,10|0,0:0|0:0,0:0:0:0:
176,147,121572,6,0,L|4:155,1,160.650003064156,10|0,1:2|0:0,0:0:0:0:
418,326,122080,6,0,B|438:294|438:294|439:174|476:32,1,297.67499091568,6|0,1:2|0:0,0:0:0:0:
484,26,122589,2,0,P|440:16|427:57,1,94.5,10|2,1:2|0:0,0:0:0:0:
348,166,122970,1,2,0:0:0:0:
336,157,123097,2,0,P|345:104|347:60,1,70.8750027036668,2|0,1:2|0:0,0:0:0:0:
271,278,123351,1,2,0:0:0:0:
283,269,123478,2,0,P|274:216|272:172,2,70.8750027036668,0|10|0,0:0|1:2|0:0,0:0:0:0:
169,369,123860,2,0,P|141:335|151:305,1,70.8750027036668
58,365,124114,6,0,P|47:246|146:314,1,297.67499091568,2|0,1:2|0:0,0:0:0:0:
138,322,124623,2,0,P|115:283|146:226,1,94.5,10|2,1:2|0:0,0:0:0:0:
137,65,125004,5,0,0:0:0:0:
100,128,125131,2,0,P|133:160|174:156,1,70.8750027036668,2|0,1:2|0:0,0:0:0:0:
272,76,125385,2,0,P|228:88|212:125,1,70.8750027036668,2|0,0:0|0:0,0:0:0:0:
243,211,125640,1,10,1:2:0:0:
390,227,125894,2,0,P|376:260|366:294,1,70.8750027036668
262,323,126148,6,0,B|242:361|242:361|368:308|504:299,1,297.67499091568,2|0,1:2|0:0,0:0:0:0:
495,309,126656,2,0,P|484:351|430:347,1,94.5,8|2,1:2|0:0,0:0:0:0:
380,241,127038,1,2,0:0:0:0:
413,174,127165,2,0,P|378:164|343:144,1,70.8750027036668,2|0,1:2|0:0,0:0:0:0:
509,43,127419,1,2,0:0:0:0:
512,116,127546,2,0,P|475:115|436:105,1,70.8750027036668,0|10,0:0|1:2,0:0:0:0:
359,19,127928,1,0,0:0:0:0:
47,94,128182,6,0,L|117:99,1,70.8750027036668,10|2,1:2|0:0,0:0:0:0:
255,172,128436,2,0,L|184:177,1,70.8750027036668,2|2,0:0|0:0,0:0:0:0:
0,158,128690,6,0,L|17:234,1,70.8750027036668,8|2,1:2|0:0,0:0:0:0:
198,94,128945,2,0,L|213:24,1,70.8750027036668,2|2,0:0|0:0,0:0:0:0:
100,311,129199,5,10,1:2:0:0:
162,295,129326,1,2,0:0:0:0:
197,240,129453,1,2,0:0:0:0:
184,176,129580,1,2,0:0:0:0:
198,94,129707,5,10,1:2:0:0:
122,98,129834,1,10,0:0:0:0:
105,170,129962,1,10,0:0:0:0:
507,353,130216,6,0,P|457:337|467:250,1,141.75,2|0,1:2|0:0,0:0:0:0:
507,189,130724,2,0,P|452:175|410:146,1,94.5,8|2,1:2|0:0,0:0:0:0:
409,80,131106,1,2,0:0:0:0:
365,18,131233,2,0,P|329:13|313:13,1,47.25,2|0,1:2|0:0,0:0:0:0:
238,88,131487,2,0,P|261:82|284:80,1,47.25,2|0,0:0|0:0,0:0:0:0:
323,170,131741,1,10,1:2:0:0:
167,20,131995,5,2,0:0:0:0:
170,217,132250,1,2,1:2:0:0:
44,69,132504,1,2,0:0:0:0:
170,217,132758,6,0,P|157:272|152:318,1,94.5,8|2,1:2|0:0,0:0:0:0:
192,375,133140,1,2,0:0:0:0:
251,328,133267,2,0,P|285:316|317:313,1,47.25,2|0,1:2|0:0,0:0:0:0:
341,253,133521,2,0,P|377:253|408:261,1,47.25,10|0,1:2|0:0,0:0:0:0:
375,373,133775,1,10,1:2:0:0:
280,146,134029,5,2,0:0:0:0:
470,184,134284,1,2,1:2:0:0:
332,47,134538,1,2,0:0:0:0:
470,184,134792,6,0,P|483:142|480:89,1,94.5,8|2,1:2|0:0,0:0:0:0:
429,36,135173,1,2,0:0:0:0:
386,98,135301,2,0,P|395:127|397:150,1,47.25,2|0,1:2|0:0,0:0:0:0:
327,238,135555,2,0,P|329:215|336:193,1,47.25,2|0,0:0|0:0,0:0:0:0:
377,323,135809,1,10,1:2:0:0:
377,323,136317,6,0,P|335:333|326:337,1,47.25,2|0,1:2|0:0,0:0:0:0:
439,369,136572,2,0,P|461:376|484:380,1,47.25,2|0,0:0|0:0,0:0:0:0:
270,384,136826,2,0,P|239:377|224:312,1,94.5,10|2,1:2|0:0,0:0:0:0:
254,254,137207,1,2,0:0:0:0:
186,218,137334,2,0,P|178:188|166:167,1,47.25,2|0,1:2|0:0,0:0:0:0:
317,97,137589,2,0,P|306:118|301:141,1,47.25,10|0,1:2|0:0,0:0:0:0:
109,228,137843,1,10,1:2:0:0:
380,46,138351,6,0,P|426:34|436:160,1,206.71875,2|0,1:2|0:0,0:0:0:0:
441,155,138860,2,0,P|438:197|456:258,1,94.5,8|2,1:2|0:0,0:0:0:0:
502,306,139241,1,2,0:0:0:0:
450,358,139368,2,0,P|413:344|390:339,1,47.25,2|0,1:2|0:0,0:0:0:0:
374,273,139623,2,0,P|334:269|311:270,1,47.25,2|0,0:0|0:0,0:0:0:0:
229,331,139877,1,8,1:2:0:0:
303,177,140131,1,2,0:0:0:0:
132,195,140385,6,0,B|127:72|185:117|184:0,1,206.71875,2|0,1:2|0:0,0:0:0:0:
195,5,140894,2,0,P|149:8|89:17,1,94.5,8|2,1:2|0:0,0:0:0:0:
35,51,141275,1,2,0:0:0:0:
62,123,141402,2,0,P|54:161|53:184,1,47.25,2|0,1:2|0:0,0:0:0:0:
3,227,141656,2,0,P|5:265|10:288,1,47.25,10|0,1:2|0:0,0:0:0:0:
118,328,141911,1,10,1:2:0:0:
320,197,142165,2,0,P|287:194|284:233,1,70.875
283,237,142419,6,0,P|312:193|303:37,1,206.71875,2|0,1:2|0:0,0:0:0:0:
296,39,142928,2,0,P|340:26|397:23,1,94.5,8|2,1:2|0:0,0:0:0:0:
461,47,143309,1,2,0:0:0:0:
501,111,143436,2,0,P|485:134|478:163,1,47.25,2|0,1:2|0:0,0:0:0:0:
416,192,143690,2,0,P|413:219|422:248,1,47.25,2|0,0:0|0:0,0:0:0:0:
511,309,143945,1,8,1:2:0:0:
511,309,144453,6,0,L|439:322,1,61.4249971881868,10|2,1:2|0:0,0:0:0:0:
283,237,144707,2,0,L|211:224,1,61.4249971881868,2|2,0:0|0:0,0:0:0:0:
435,238,144962,6,0,L|496:228,1,61.4249971881868,10|2,1:2|0:0,0:0:0:0:
268,318,145216,2,0,L|208:308,1,61.4249971881868,2|2,0:0|0:0,0:0:0:0:
442,95,145470,6,0,P|454:141|451:167,1,61.4249971881868,10|2,1:2|0:0,0:0:0:0:
264,153,145724,2,0,P|265:122|276:94,1,61.4249971881868,10|2,0:0|0:0,0:0:0:0:
357,28,145979,5,10,1:2:0:0:
356,126,146106,1,0,0:0:0:0:
344,22,146233,1,10,0:0:0:0:
147,90,146487,5,6,1:2:0:0:
