osu file format v14

[General]
AudioFilename: audio.mp3
AudioLeadIn: 0
PreviewTime: 65124
Countdown: 0
SampleSet: Soft
StackLeniency: 0.3
Mode: 0
LetterboxInBreaks: 0
WidescreenStoryboard: 1

[Editor]
Bookmarks: 105039,146480
DistanceSpacing: 0.9
BeatDivisor: 4
GridSize: 4
TimelineZoom: 2.799999

[Metadata]
Title:yoga
TitleUnicode:yoga
Artist:bbno$ & Rebecca Black
ArtistUnicode:bbno$ & Rebecca Black
Creator:Bakugo-
Version:tada's hard
Source:
Tags:female male vocals collab rap hip hop hiphop collaboration vocalist vocalists gaz pop eat ya veggies bbno bakugo gokugohan12468 gokugohan kittyadventure thexo tadahitotsu gazza arronchu1207 chu arronchu xandeez nuts pokey [Poke] english gigarobloxian21 ft featuring feat
BeatmapID:3267060
BeatmapSetID:1596017

[Difficulty]
HPDrainRate:4
CircleSize:3.6
OverallDifficulty:6
ApproachRate:7
SliderMultiplier:1.8
SliderTickRate:1

[Events]
//Background and Video events
0,0,"anime-scenery-sunset-anime-school-girl-clouds-artwork-anime.jpeg",0,0
Video,65,"bbno__Rebecca_Black_-_yoga_Official_Video_edit.mp4"
//Break Periods
2,57195,64231
2,106009,113045
//Storyboard Layer 0 (Background)
//Storyboard Layer 1 (Fail)
//Storyboard Layer 2 (Pass)
//Storyboard Layer 3 (Foreground)
//Storyboard Layer 4 (Overlay)
//Storyboard Sound Samples

[TimingPoints]
47,508.474576271186,4,2,1,60,1,0
16318,-90.9090909090909,4,2,1,60,0,0
32589,-100,4,2,1,60,0,0
48860,-100,4,2,1,60,0,0
56995,-100,4,2,1,60,0,0
58902,-100,4,2,1,5,0,0
59029,-100,4,2,1,60,0,0
60936,-100,4,2,1,5,0,0
61063,-100,4,2,1,60,0,0
62970,-100,4,2,1,5,0,0
63097,-90.9090909090909,4,2,1,60,0,0
65131,-90.9090909090909,4,2,1,86,0,0
66656,-90.9090909090909,4,2,1,86,0,0
67165,-90.9090909090909,4,2,1,86,0,0
68690,-90.9090909090909,4,2,1,86,0,0
69199,-90.9090909090909,4,2,1,86,0,0
70724,-90.9090909090909,4,2,1,86,0,0
71233,-90.9090909090909,4,2,1,86,0,0
81402,-100,4,2,1,75,0,0
97673,-100,4,2,1,70,0,0
105809,-100,4,2,1,60,0,0
107716,-100,4,2,1,5,0,0
107843,-100,4,2,1,60,0,0
109750,-100,4,2,1,5,0,0
109877,-100,4,2,1,60,0,0
111784,-100,4,2,1,60,0,0
111911,-100,4,2,1,65,0,0
113945,-86.9565217391304,4,2,1,86,0,0
115470,-86.9565217391304,4,2,1,86,0,0
115979,-86.9565217391304,4,2,1,86,0,0
117504,-86.9565217391304,4,2,1,86,0,0
118012,-86.9565217391304,4,2,1,86,0,0
119538,-86.9565217391304,4,2,1,86,0,0
120047,-86.9565217391304,4,2,1,86,0,0
130216,-100,4,2,1,75,0,0

[Colours]
Combo1 : 255,128,192
Combo2 : 128,128,255
Combo3 : 255,181,106
Combo4 : 192,192,192

[HitObjects]
428,347,16318,6,0,P|468:307|456:253,1,99.0000030212403,2|2,1:2|0:0,0:0:0:0:
422,167,16826,2,0,P|365:193|329:199,1,99.0000030212403,10|2,1:2|0:0,0:0:0:0:
241,134,17334,1,2,1:2:0:0:
298,41,17589,1,2,0:0:0:0:
222,118,17843,2,0,P|173:127|129:149,1,99.0000030212403,10|0,1:2|0:0,0:0:0:0:
56,255,18351,5,2,1:2:0:0:
56,255,18479,1,2,0:0:0:0:
56,255,18606,1,2,0:0:0:0:
116,345,18860,2,0,L|220:322,1,99.0000030212403,10|2,1:2|0:0,0:0:0:0:
220,215,19368,1,2,1:2:0:0:
133,147,19623,1,2,0:0:0:0:
230,195,19877,2,0,L|326:216,1,99.0000030212403,10|0,1:2|0:0,0:0:0:0:
394,325,20385,6,0,P|459:304|452:252,1,99.0000030212403,2|2,1:2|0:0,0:0:0:0:
463,281,20767,1,2,0:0:0:0:
463,281,20894,1,10,1:2:0:0:
433,176,21148,1,2,0:0:0:0:
406,70,21402,2,0,B|365:37|365:37|298:64,1,99.0000030212403,2|2,1:2|0:0,0:0:0:0:
246,132,21911,2,0,P|261:198|268:265,1,99.0000030212403,10|0,1:2|0:0,0:0:0:0:
167,312,22419,5,2,1:2:0:0:
167,312,22546,1,2,0:0:0:0:
167,312,22673,1,2,0:0:0:0:
66,355,22928,2,0,P|61:304|48:248,1,99.0000030212403,10|2,1:2|0:0,0:0:0:0:
116,170,23436,1,2,1:2:0:0:
44,87,23690,2,0,P|63:66|88:57,1,49.5000015106202,10|0,1:2|1:2,0:0:0:0:
128,27,23945,2,0,P|184:37|213:96,1,99.0000030212403,10|2,1:2|0:0,0:0:0:0:
314,141,24453,5,2,1:2:0:0:
409,87,24707,1,2,0:0:0:0:
326,158,24962,2,0,L|308:276,1,99.0000030212403,10|2,1:2|0:0,0:0:0:0:
400,317,25470,1,2,1:2:0:0:
296,352,25724,1,2,0:0:0:0:
207,287,25979,2,0,L|94:307,1,99.0000030212403,10|0,1:2|0:0,0:0:0:0:
39,196,26487,5,2,1:2:0:0:
39,196,26614,1,2,0:0:0:0:
39,196,26741,1,2,0:0:0:0:
39,196,26868,1,2,0:0:0:0:
39,196,26995,2,0,P|75:153|119:117,1,99.0000030212403,10|2,1:2|0:0,0:0:0:0:
200,68,27504,1,2,1:2:0:0:
219,175,27758,1,2,0:0:0:0:
224,66,28012,2,0,P|282:88|342:93,1,99.0000030212403,10|0,1:2|0:0,0:0:0:0:
433,150,28521,5,2,1:2:0:0:
433,150,28648,1,2,0:0:0:0:
433,150,28775,1,2,0:0:0:0:
357,228,29029,2,0,L|370:328,1,99.0000030212403,10|2,1:2|0:0,0:0:0:0:
369,326,29411,1,2,0:0:0:0:
369,326,29538,1,2,1:2:0:0:
266,290,29792,1,2,0:0:0:0:
162,255,30046,2,0,L|149:156,1,99.0000030212403,10|0,1:2|0:0,0:0:0:0:
224,51,30555,5,10,1:2:0:0:
331,84,30809,1,2,0:0:0:0:
219,67,31063,5,10,1:2:0:0:
280,156,31317,1,2,0:0:0:0:
204,75,31572,5,10,1:2:0:0:
195,187,31826,1,2,0:0:0:0:
186,72,32080,6,0,P|157:66|135:37,2,49.5000015106202,10|10|10,1:2|0:0|0:0,0:0:0:0:
270,20,32589,6,0,P|318:36|372:62,1,90,6|2,1:2|0:0,0:0:0:0:
450,74,33097,2,0,P|463:128|434:159,1,90,8|2,1:2|0:0,0:0:0:0:
444,152,33479,1,2,0:0:0:0:
444,152,33606,1,2,1:2:0:0:
347,173,33860,1,2,0:0:0:0:
398,257,34114,2,0,L|374:371,1,90,10|2,1:2|0:0,0:0:0:0:
262,352,34623,6,0,P|219:320|170:303,1,90,2|2,1:2|0:0,0:0:0:0:
96,350,35131,2,0,B|49:335|49:335|34:267,1,90,8|2,1:2|0:0,0:0:0:0:
40,295,35512,1,2,0:0:0:0:
40,295,35640,1,2,1:2:0:0:
101,217,35894,1,2,0:0:0:0:
101,217,36021,1,2,0:0:0:0:
101,217,36148,1,10,1:2:0:0:
190,174,36402,1,2,0:0:0:0:
287,239,36656,6,0,P|339:225|393:219,1,90,2|2,1:2|0:0,0:0:0:0:
457,165,37165,2,0,B|464:129|464:129|423:64,1,90,8|2,1:2|0:0,0:0:0:0:
435,83,37546,1,2,0:0:0:0:
435,83,37673,1,2,1:2:0:0:
340,56,37928,1,2,0:0:0:0:
340,56,38055,1,2,0:0:0:0:
340,56,38182,1,10,1:2:0:0:
255,107,38436,2,0,P|226:99|206:80,1,45,2|2,0:0|0:0,0:0:0:0:
203,41,38690,6,0,P|153:77|105:95,1,90,2|2,1:2|0:0,0:0:0:0:
28,95,39199,2,0,P|43:148|50:197,1,90,10|2,1:2|0:0,0:0:0:0:
48,182,39580,1,2,0:0:0:0:
48,182,39707,1,2,1:2:0:0:
131,237,39962,1,2,0:0:0:0:
131,237,40089,1,2,0:0:0:0:
131,237,40216,1,10,1:2:0:0:
70,315,40470,1,2,0:0:0:0:
178,359,40724,6,0,P|223:336|274:324,1,90,2|2,1:2|0:0,0:0:0:0:
332,256,41233,1,8,1:2:0:0:
403,324,41487,1,2,0:0:0:0:
403,324,41614,1,2,0:0:0:0:
403,324,41741,1,2,1:2:0:0:
470,251,41995,2,0,L|449:157,1,90,2|10,0:0|1:2,0:0:0:0:
367,80,42504,1,2,0:0:0:0:
367,80,42631,1,2,0:0:0:0:
367,80,42758,6,0,P|325:109|261:120,1,90,2|2,1:2|0:0,0:0:0:0:
238,205,43267,2,0,P|191:183|150:133,1,90,10|2,1:2|0:0,0:0:0:0:
136,61,43775,1,2,1:2:0:0:
64,129,44029,2,0,L|40:240,1,90,2|10,0:0|1:2,0:0:0:0:
121,305,44538,1,2,0:0:0:0:
121,305,44665,1,2,0:0:0:0:
121,305,44792,6,0,P|168:308|233:288,1,90,2|2,1:2|0:0,0:0:0:0:
293,352,45301,2,0,P|325:317|351:255,1,90,8|2,1:2|0:0,0:0:0:0:
426,224,45809,1,2,1:2:0:0:
358,152,46063,1,2,0:0:0:0:
358,152,46190,1,2,0:0:0:0:
358,152,46317,2,0,B|321:142|321:142|243:178,1,90,8|2,0:0|0:0,0:0:0:0:
177,96,46826,6,0,L|195:47,2,45,10|2|2,1:2|0:0|0:0,0:0:0:0:
201,210,47334,2,0,L|241:176,2,45,10|2|2,1:2|0:0|0:0,0:0:0:0:
171,323,47843,2,0,L|222:314,2,45,10|2|2,1:2|0:0|0:0,0:0:0:0:
64,273,48351,1,10,1:2:0:0:
64,273,48479,1,10,0:0:0:0:
64,273,48606,1,10,0:0:0:0:
38,159,48860,6,0,P|98:137|146:106,1,90,6|2,1:2|0:0,0:0:0:0:
158,32,49368,1,10,1:2:0:0:
243,82,49623,1,2,0:0:0:0:
243,82,49877,2,0,B|238:160|238:160|220:177|220:177|214:275,1,180,2|8,1:2|1:2,0:0:0:0:
294,313,50640,1,2,0:0:0:0:
406,345,50894,6,0,P|450:318|450:275,1,90,2|2,1:2|0:0,0:0:0:0:
396,202,51402,1,8,1:2:0:0:
439,108,51656,1,2,0:0:0:0:
439,108,51911,2,0,P|387:86|277:128,1,180,2|8,1:2|1:2,0:0:0:0:
200,69,52673,1,2,0:0:0:0:
91,114,52928,5,2,1:2:0:0:
45,201,53182,2,0,P|58:253|63:307,1,90,2|8,0:0|1:2,0:0:0:0:
145,341,53690,1,2,0:0:0:0:
210,266,53945,1,2,1:2:0:0:
210,266,54199,2,0,B|261:261|261:261|306:301,1,90,2|8,0:0|1:2,0:0:0:0:
352,363,54707,1,2,0:0:0:0:
367,246,54962,6,0,L|348:149,1,90,2|2,1:2|0:0,0:0:0:0:
277,89,55470,1,8,1:2:0:0:
277,89,55597,1,2,0:0:0:0:
277,89,55724,1,2,0:0:0:0:
277,89,55851,1,2,0:0:0:0:
277,89,55979,2,0,P|205:86|178:128,1,90,2|2,1:2|0:0,0:0:0:0:
172,190,56487,2,0,P|131:208|89:195,1,90,8|2,1:2|0:0,0:0:0:0:
35,112,56995,1,6,0:0:0:0:
60,49,65131,6,0,P|120:61|161:86,1,99.0000030212403,6|2,1:2|0:0,0:0:0:0:
188,182,65640,2,0,P|255:182|288:140,1,99.0000030212403,10|2,1:2|0:0,0:0:0:0:
374,114,66148,1,2,1:2:0:0:
310,25,66402,1,2,0:0:0:0:
387,100,66656,2,0,P|370:177|367:217,1,99.0000030212403,10|0,1:2|0:0,0:0:0:0:
446,299,67165,5,2,1:2:0:0:
446,299,67292,1,2,0:0:0:0:
446,299,67419,1,2,0:0:0:0:
356,360,67673,2,0,L|245:309,1,99.0000030212403,10|2,1:2|0:0,0:0:0:0:
236,213,68182,1,2,1:2:0:0:
142,268,68436,1,2,0:0:0:0:
220,192,68690,2,0,P|250:126|258:89,1,99.0000030212403,10|0,1:2|0:0,0:0:0:0:
146,32,69199,6,0,P|74:62|72:84,1,99.0000030212403,2|2,1:2|0:0,0:0:0:0:
72,72,69580,1,2,0:0:0:0:
72,72,69707,1,10,1:2:0:0:
116,172,69962,1,2,0:0:0:0:
50,258,70216,2,0,P|68:320|77:369,1,99.0000030212403,2|2,1:2|0:0,0:0:0:0:
183,355,70724,2,0,P|168:307|158:259,1,99.0000030212403,10|0,1:2|0:0,0:0:0:0:
232,153,71233,5,2,1:2:0:0:
232,153,71360,1,2,0:0:0:0:
232,153,71487,1,2,0:0:0:0:
284,248,71741,2,0,P|348:248|374:198,1,99.0000030212403,10|2,1:2|0:0,0:0:0:0:
405,121,72250,1,2,1:2:0:0:
332,39,72504,2,0,P|304:41|273:55,1,49.5000015106202,10|0,1:2|0:0,0:0:0:0:
232,32,72758,2,0,P|174:66|160:115,1,99.0000030212403,10|0,1:2|0:0,0:0:0:0:
197,217,73267,5,6,1:2:0:0:
297,174,73521,1,2,0:0:0:0:
190,195,73775,2,0,P|169:254|162:305,1,99.0000030212403,10|2,1:2|0:0,0:0:0:0:
236,370,74284,1,2,1:2:0:0:
314,295,74538,1,2,0:0:0:0:
410,344,74792,2,0,P|438:302|424:252,1,99.0000030212403,10|0,1:2|0:0,0:0:0:0:
331,171,75301,5,2,1:2:0:0:
331,171,75428,1,2,0:0:0:0:
331,171,75555,1,2,0:0:0:0:
331,171,75682,1,2,0:0:0:0:
331,171,75809,2,0,L|214:210,1,99.0000030212403,10|2,1:2|0:0,0:0:0:0:
169,287,76317,1,2,1:2:0:0:
74,341,76572,1,2,0:0:0:0:
152,265,76826,2,0,P|114:217|72:186,1,99.0000030212403,10|0,1:2|0:0,0:0:0:0:
54,68,77334,5,2,1:2:0:0:
54,68,77462,1,2,0:0:0:0:
54,68,77589,1,2,0:0:0:0:
151,20,77843,2,0,P|197:54|243:67,1,99.0000030212403,10|2,1:2|0:0,0:0:0:0:
236,66,78224,1,2,0:0:0:0:
236,66,78351,1,2,1:2:0:0:
280,165,78606,1,2,0:0:0:0:
367,100,78860,2,0,B|393:131|393:131|381:204,1,99.0000030212403,10|0,1:2|0:0,0:0:0:0:
315,298,79368,5,10,1:2:0:0:
439,263,79623,1,2,0:0:0:0:
320,312,79877,5,10,1:2:0:0:
444,277,80130,1,2,0:0:0:0:
324,324,80385,5,10,1:2:0:0:
448,289,80640,1,2,0:0:0:0:
328,336,80894,6,0,L|266:322,2,49.5000015106202,10|10|10,1:2|0:0|0:0,0:0:0:0:
350,239,81402,6,0,P|347:186|329:138,1,90,2|0,1:2|0:0,0:0:0:0:
371,58,81911,2,0,P|316:25|265:46,1,90,10|0,1:2|0:0,0:0:0:0:
223,98,82419,1,2,1:2:0:0:
223,98,82546,1,2,0:0:0:0:
223,98,82673,1,2,0:0:0:0:
223,98,82801,1,2,0:0:0:0:
223,98,82928,2,0,L|109:118,1,90,10|2,1:2|0:0,0:0:0:0:
40,182,83436,6,0,P|86:217|106:249,1,90,2|2,1:2|0:0,0:0:0:0:
117,341,83945,2,0,P|162:312|202:305,1,90,10|2,1:2|0:0,0:0:0:0:
243,217,84453,1,2,1:2:0:0:
164,157,84707,1,2,0:0:0:0:
253,201,84962,2,0,L|356:181,1,90,10|2,1:2|0:0,0:0:0:0:
446,234,85470,6,0,B|459:271|433:303|433:303|375:292|324:346,1,180,2|8,1:2|1:2,0:0:0:0:
243,297,86233,1,0,0:0:0:0:
157,346,86487,1,2,1:2:0:0:
157,346,86614,1,2,0:0:0:0:
157,346,86741,1,2,0:0:0:0:
128,251,86995,1,10,1:2:0:0:
215,203,87250,1,2,0:0:0:0:
215,203,87377,1,2,0:0:0:0:
215,203,87504,6,0,L|200:103,1,90,2|2,1:2|0:0,0:0:0:0:
290,71,88012,2,0,L|303:160,1,90,10|2,1:2|0:0,0:0:0:0:
396,193,88521,2,0,P|463:223|483:251,1,90,2|2,1:2|0:0,0:0:0:0:
423,320,89029,2,0,P|356:290|336:262,1,90,10|2,1:2|0:0,0:0:0:0:
249,344,89538,6,0,P|245:289|225:157,1,180,2|10,1:2|1:2,0:0:0:0:
286,86,90301,1,0,0:0:0:0:
206,27,90555,2,0,P|151:49|112:53,1,90,2|2,1:2|0:0,0:0:0:0:
49,121,91063,1,10,1:2:0:0:
124,185,91317,1,2,0:0:0:0:
124,185,91572,6,0,P|98:237|92:274,1,90,0|2,1:2|0:0,0:0:0:0:
159,340,92080,1,10,1:2:0:0:
62,362,92334,1,2,0:0:0:0:
161,362,92589,2,0,P|208:343|257:331,1,90,2|10,1:2|1:2,0:0:0:0:
343,347,93097,2,0,P|367:301|343:255,1,90,10|2,1:2|0:0,0:0:0:0:
278,179,93606,6,0,B|206:85|199:191|115:51,1,180,2|10,1:2|1:2,0:0:0:0:
214,23,94368,1,0,0:0:0:0:
303,66,94623,2,0,P|358:55|390:38,1,90,2|2,1:2|0:0,0:0:0:0:
455,111,95131,1,10,1:2:0:0:
415,201,95385,1,2,0:0:0:0:
362,305,95640,6,0,L|311:286,2,45,10|2|2,1:2|0:0|0:0,0:0:0:0:
245,317,96148,2,0,L|194:298,2,45,10|2|2,1:2|0:0|0:0,0:0:0:0:
130,342,96656,2,0,L|79:323,2,45,10|2|10,1:2|0:0|0:0,0:0:0:0:
95,229,97165,1,10,1:2:0:0:
95,229,97292,1,10,0:0:0:0:
95,229,97419,1,10,0:0:0:0:
24,135,97673,6,0,P|84:100|184:160,1,180,2|10,1:2|1:2,0:0:0:0:
261,92,98436,1,0,0:0:0:0:
345,142,98690,1,2,1:2:0:0:
345,142,98817,1,2,0:0:0:0:
345,142,98945,1,2,0:0:0:0:
345,142,99072,1,2,0:0:0:0:
345,142,99199,2,0,L|356:249,1,90,10|2,1:2|0:0,0:0:0:0:
397,339,99707,6,0,P|345:320|291:312,1,90,2|0,1:2|0:0,0:0:0:0:
217,348,100216,1,10,1:2:0:0:
217,348,100343,1,2,0:0:0:0:
217,348,100470,1,2,0:0:0:0:
148,277,100724,2,0,P|189:228|203:191,1,90,2|2,1:2|0:0,0:0:0:0:
199,204,101106,1,2,0:0:0:0:
199,204,101233,2,0,P|199:171|194:143,2,45,10|2|2,1:2|0:0|0:0,0:0:0:0:
279,119,101741,6,0,P|254:54|147:69,1,180,2|8,1:2|1:2,0:0:0:0:
156,57,102377,1,2,0:0:0:0:
156,57,102504,1,2,0:0:0:0:
69,105,102758,1,2,1:2:0:0:
38,199,103012,1,2,0:0:0:0:
38,199,103140,1,2,0:0:0:0:
38,199,103267,2,0,P|10:183|-11:169,2,45,10|2|2,1:2|0:0|0:0,0:0:0:0:
57,314,103775,6,0,P|117:286|172:275,1,90,2|0,1:2|0:0,0:0:0:0:
228,325,104284,1,10,1:2:0:0:
255,229,104538,1,2,0:0:0:0:
254,327,104792,2,0,P|307:318|354:298,1,90,2|0,1:2|0:0,0:0:0:0:
364,208,105301,2,0,P|408:156|443:158,1,90,8|0,1:2|0:0,0:0:0:0:
495,223,105809,1,6,0:0:0:0:
76,351,113945,6,0,P|72:295|55:200,1,103.500001974106,6|2,1:2|0:0,0:0:0:0:
11,147,114453,2,0,P|61:101|120:116,1,103.500001974106,10|2,1:2|0:0,0:0:0:0:
169,186,114962,1,2,1:2:0:0:
226,87,115216,1,2,0:0:0:0:
190,195,115470,2,0,P|205:257|213:309,1,103.500001974106,10|0,1:2|0:0,0:0:0:0:
331,357,115979,5,2,1:2:0:0:
331,357,116106,1,2,0:0:0:0:
331,357,116233,1,2,0:0:0:0:
436,315,116487,2,0,P|463:257|435:217,1,103.500001974106,10|2,1:2|0:0,0:0:0:0:
333,217,116995,1,2,1:2:0:0:
377,111,117250,1,2,0:0:0:0:
316,207,117504,2,0,P|252:187|205:184,1,103.500001974106,10|0,1:2|0:0,0:0:0:0:
141,71,118012,6,0,B|91:96|91:96|101:148,1,103.500001974106,2|2,1:2|0:0,0:0:0:0:
99,142,118394,1,2,0:0:0:0:
99,142,118521,1,10,1:2:0:0:
150,244,118775,1,2,0:0:0:0:
82,335,119029,2,0,P|132:351|197:358,1,103.500001974106,2|2,1:2|0:0,0:0:0:0:
275,291,119538,2,0,P|334:273|395:264,1,103.500001974106,10|0,1:2|0:0,0:0:0:0:
416,137,120046,5,2,1:2:0:0:
416,137,120173,1,2,0:0:0:0:
416,137,120301,1,2,0:0:0:0:
326,66,120555,2,0,L|292:187,1,103.500001974106,10|2,1:2|0:0,0:0:0:0:
203,228,121063,1,2,1:2:0:0:
260,326,121317,2,0,P|234:357|210:362,1,51.7500009870529,10|0,0:0|0:0,0:0:0:0:
168,346,121572,2,0,P|114:340|59:304,1,103.500001974106,10|0,1:2|0:0,0:0:0:0:
38,186,122080,5,6,1:2:0:0:
87,83,122334,1,2,0:0:0:0:
57,193,122589,2,0,P|121:166|178:156,1,103.500001974106,10|2,1:2|0:0,0:0:0:0:
231,75,123097,1,2,1:2:0:0:
281,176,123351,1,2,0:0:0:0:
378,117,123606,2,0,L|494:100,1,103.500001974106,10|0,1:2|0:0,0:0:0:0:
490,236,124114,5,2,1:2:0:0:
490,236,124241,1,2,0:0:0:0:
490,236,124368,1,2,0:0:0:0:
490,236,124495,1,2,0:0:0:0:
490,236,124623,2,0,P|435:242|387:251,1,103.500001974106,10|2,1:2|0:0,0:0:0:0:
333,350,125131,1,2,1:2:0:0:
285,246,125385,1,2,0:0:0:0:
312,356,125640,2,0,P|258:338|212:329,1,103.500001974106,10|0,1:2|0:0,0:0:0:0:
148,210,126148,5,2,1:2:0:0:
148,210,126275,1,2,0:0:0:0:
148,210,126402,1,2,0:0:0:0:
76,298,126656,2,0,P|26:277|15:229,1,103.500001974106,8|2,1:2|0:0,0:0:0:0:
14,232,127038,1,2,0:0:0:0:
14,232,127165,1,2,1:2:0:0:
70,133,127419,1,2,0:0:0:0:
125,33,127673,2,0,L|234:56,1,103.500001974106,10|0,1:2|0:0,0:0:0:0:
339,128,128182,5,10,1:2:0:0:
294,254,128436,1,2,0:0:0:0:
358,135,128690,5,8,1:2:0:0:
382,267,128944,1,2,0:0:0:0:
373,132,129199,5,10,1:2:0:0:
477,217,129453,1,2,0:0:0:0:
384,119,129707,6,0,L|371:58,2,51.7500009870529,10|10|10,1:2|0:0|0:0,0:0:0:0:
287,97,130216,6,0,L|172:120,1,90,2|0,1:2|0:0,0:0:0:0:
122,51,130724,2,0,P|64:88|63:120,1,90,8|2,1:2|0:0,0:0:0:0:
32,198,131233,1,2,1:2:0:0:
128,220,131487,1,2,0:0:0:0:
29,216,131741,2,0,P|41:270|56:322,1,90,10|2,1:2|0:0,0:0:0:0:
153,359,132250,6,0,P|225:329|332:303,1,180,2|8,1:2|1:2,0:0:0:0:
413,344,133012,1,2,0:0:0:0:
465,259,133267,2,0,P|444:216|401:201,1,90,2|10,1:2|1:2,0:0:0:0:
311,172,133775,2,0,P|241:200|202:203,1,90,10|2,1:2|0:0,0:0:0:0:
119,285,134284,6,0,B|87:263|53:272|53:272|38:193|104:151,1,180,2|8,1:2|1:2,0:0:0:0:
39,79,135046,1,2,0:0:0:0:
128,35,135301,2,0,L|221:64,1,90,2|2,1:2|0:0,0:0:0:0:
264,146,135809,2,0,P|237:196|229:240,1,90,10|0,1:2|0:0,0:0:0:0:
323,298,136317,5,2,1:2:0:0:
233,340,136572,1,2,0:0:0:0:
329,318,136826,2,0,L|427:342,1,90,10|2,1:2|0:0,0:0:0:0:
473,258,137334,1,2,1:2:0:0:
414,177,137589,2,0,L|424:124,1,45,10|0,1:2|0:0,0:0:0:0:
460,101,137843,2,0,P|430:55|368:54,1,90,10|0,1:2|0:0,0:0:0:0:
293,97,138351,6,0,L|182:120,1,90,2|0,1:2|0:0,0:0:0:0:
142,192,138860,2,0,L|53:173,1,90,8|2,1:2|0:0,0:0:0:0:
40,75,139368,1,2,1:2:0:0:
133,41,139623,1,2,0:0:0:0:
49,93,139877,2,0,P|33:151|29:193,1,90,8|2,1:2|0:0,0:0:0:0:
83,284,140385,6,0,P|121:333|221:287,1,180,2|8,1:2|1:2,0:0:0:0:
234,198,141148,1,2,0:0:0:0:
237,99,141402,2,0,P|300:68|339:63,1,90,2|10,1:2|1:2,0:0:0:0:
413,94,141911,2,0,P|448:142|438:177,1,90,10|0,1:2|0:0,0:0:0:0:
369,259,142419,6,0,B|402:285|401:313|401:313|366:354|277:363,1,180,2|8,1:2|1:2,0:0:0:0:
226,291,143182,1,2,0:0:0:0:
151,355,143436,2,0,P|128:308|115:266,1,90,2|2,1:2|0:0,0:0:0:0:
41,207,143945,2,0,P|74:158|124:151,1,90,8|0,1:2|0:0,0:0:0:0:
199,85,144453,5,10,1:2:0:0:
241,210,144707,1,2,0:0:0:0:
332,93,144962,5,10,1:2:0:0:
286,230,145216,1,2,0:0:0:0:
423,198,145470,5,10,1:2:0:0:
297,265,145724,1,10,0:0:0:0:
416,302,145979,6,0,L|481:317,2,45,10|0|10,1:2|0:0|0:0,0:0:0:0:
335,358,146487,5,6,1:2:0:0:
