osu file format v14

[General]
AudioFilename: audio.mp3
AudioLeadIn: 0
PreviewTime: 65124
Countdown: 0
SampleSet: Soft
StackLeniency: 0.2
Mode: 0
LetterboxInBreaks: 0
WidescreenStoryboard: 1

[Editor]
Bookmarks: 12242,32582,81395,97666,113938,130209,146480
DistanceSpacing: 1
BeatDivisor: 4
GridSize: 32
TimelineZoom: 2.799999

[Metadata]
Title:yoga
TitleUnicode:yoga
Artist:bbno$ & Rebecca Black
ArtistUnicode:bbno$ & Rebecca Black
Creator:Bakugo-
Version:pokey & gokugohan12468's another
Source:
Tags:female male vocals collab rap hip hop hiphop collaboration vocalist vocalists gaz pop eat ya veggies bbno bakugo gokugohan12468 gokugohan kittyadventure thexo tadahitotsu gazza arronchu1207 chu arronchu xandeez nuts pokey [Poke] english gigarobloxian21 ft featuring feat
BeatmapID:3292148
BeatmapSetID:1596017

[Difficulty]
HPDrainRate:6.1
CircleSize:3.9
OverallDifficulty:8.1
ApproachRate:8.9
SliderMultiplier:1.6
SliderTickRate:1

[Events]
//Background and Video events
0,0,"anime-scenery-sunset-anime-school-girl-clouds-artwork-anime.jpeg",0,0
Video,65,"bbno__Rebecca_Black_-_yoga_Official_Video_edit.mp4"
//Break Periods
//Storyboard Layer 0 (Background)
//Storyboard Layer 1 (Fail)
//Storyboard Layer 2 (Pass)
//Storyboard Layer 3 (Foreground)
//Storyboard Layer 4 (Overlay)
//Storyboard Sound Samples

[TimingPoints]
47,508.474576271186,4,2,1,60,1,0
16063,-200,4,2,1,60,0,0
16319,-50,4,2,1,60,0,0
16509,-50,4,2,1,5,0,0
16573,-50,4,2,1,60,0,0
16763,-50,4,2,1,5,0,0
16827,-50,4,2,1,60,0,0
17018,-50,4,2,1,5,0,0
17082,-50,4,2,1,60,0,0
17526,-50,4,2,1,5,0,0
17590,-50,4,2,1,60,0,0
17780,-50,4,2,1,5,0,0
17844,-50,4,2,1,60,0,0
18797,-50,4,2,1,5,0,0
18861,-50,4,2,1,60,0,0
19560,-50,4,2,1,5,0,0
19624,-50,4,2,1,60,0,0
19814,-50,4,2,1,5,0,0
19878,-50,4,2,1,60,0,0
21085,-50,4,2,1,5,0,0
21149,-50,4,2,1,60,0,0
21594,-50,4,2,1,5,0,0
21658,-50,4,2,1,60,0,0
21848,-50,4,2,1,5,0,0
21912,-50,4,2,1,60,0,0
22865,-50,4,2,1,5,0,0
22929,-50,4,2,1,60,0,0
23374,-50,4,2,1,5,0,0
23438,-50,4,2,1,60,0,0
23628,-50,4,2,1,5,0,0
23692,-50,4,2,1,60,0,0
23755,-50,4,2,1,5,0,0
23946,-50,4,2,1,60,0,0
24136,-50,4,2,1,5,0,0
24200,-50,4,2,1,60,0,0
24645,-50,4,2,1,5,0,0
24709,-50,4,2,1,60,0,0
24899,-50,4,2,1,5,0,0
24963,-50,4,2,1,60,0,0
25662,-50,4,2,1,5,0,0
25726,-50,4,2,1,60,0,0
25916,-50,4,2,1,5,0,0
25980,-50,4,2,1,60,0,0
26424,-50,4,2,1,5,0,0
26488,-50,4,2,1,60,0,0
27441,-50,4,2,1,5,0,0
27505,-50,4,2,1,60,0,0
27696,-50,4,2,1,5,0,0
27760,-50,4,2,1,60,0,0
28204,-50,4,2,1,5,0,0
28268,-50,4,2,1,60,0,0
28458,-50,4,2,1,5,0,0
28522,-50,4,2,1,60,0,0
28713,-50,4,2,1,5,0,0
28777,-50,4,2,1,60,0,0
28967,-50,4,2,1,5,0,0
29031,-50,4,2,1,60,0,0
29730,-50,4,2,1,5,0,0
29794,-50,4,2,1,60,0,0
31763,-50,4,2,1,5,0,0
31827,-50,4,2,1,60,0,0
32526,-50,4,2,1,5,0,0
32590,-50,4,2,1,60,0,0
33289,-50,4,2,1,5,0,0
33353,-50,4,2,1,60,0,0
34306,-50,4,2,1,5,0,0
34370,-50,4,2,1,60,0,0
34560,-50,4,2,1,5,0,0
34624,-50,4,2,1,60,0,0
35323,-50,4,2,1,5,0,0
35387,-50,4,2,1,60,0,0
36340,-50,4,2,1,5,0,0
36404,-50,4,2,1,60,0,0
36594,-50,4,2,1,5,0,0
36658,-50,4,2,1,60,0,0
38374,-50,4,2,1,5,0,0
38438,-50,4,2,1,60,0,0
39136,-50,4,2,1,5,0,0
39200,-50,4,2,1,60,0,0
41933,-50,4,2,1,5,0,0
41997,-50,4,2,1,60,0,0
42950,-50,4,2,1,5,0,0
43014,-50,4,2,1,60,0,0
43967,-50,4,2,1,5,0,0
44031,-50,4,2,1,60,0,0
44984,-50,4,2,1,5,0,0
45048,-50,4,2,1,60,0,0
46001,-50,4,2,1,5,0,0
46065,-50,4,2,1,60,0,0
46763,-50,4,2,1,5,0,0
46827,-50,4,2,1,60,0,0
49560,-50,4,2,1,5,0,0
49624,-50,4,2,1,60,0,0
50068,-50,4,2,1,5,0,0
50132,-50,4,2,1,60,0,0
51085,-50,4,2,1,5,0,0
51149,-50,4,2,1,60,0,0
51340,-50,4,2,1,5,0,0
51404,-50,4,2,1,60,0,0
51848,-50,4,2,1,5,0,0
51912,-50,4,2,1,60,0,0
52357,-50,4,2,1,5,0,0
52421,-50,4,2,1,60,0,0
53119,-50,4,2,1,5,0,0
53183,-50,4,2,1,60,0,0
54136,-50,4,2,1,5,0,0
54200,-50,4,2,1,60,0,0
54391,-50,4,2,1,5,0,0
54455,-50,4,2,1,60,0,0
56170,-50,4,2,1,5,0,0
56234,-50,4,2,1,60,0,0
56424,-50,4,2,1,5,0,0
56488,-50,4,2,1,60,0,0
56933,-50,4,2,1,5,0,0
56996,-100,4,2,1,60,0,0
58903,-100,4,2,1,5,0,0
59030,-100,4,2,1,60,0,0
60937,-100,4,2,1,5,0,0
61064,-100,4,2,1,60,0,0
62971,-100,4,2,1,5,0,0
63098,-100,4,2,1,60,0,0
65132,-50,4,2,1,86,0,0
65323,-50,4,2,1,5,0,0
65387,-50,4,2,1,60,0,0
65577,-50,4,2,1,5,0,0
65641,-50,4,2,1,60,0,0
65831,-50,4,2,1,5,0,0
65895,-50,4,2,1,60,0,0
66340,-50,4,2,1,5,0,0
66404,-50,4,2,1,60,0,0
66594,-50,4,2,1,5,0,0
66658,-50,4,2,1,60,0,0
67611,-50,4,2,1,5,0,0
67675,-50,4,2,1,60,0,0
68374,-50,4,2,1,5,0,0
68438,-50,4,2,1,60,0,0
69899,-50,4,2,1,5,0,0
69963,-50,4,2,1,60,0,0
70407,-50,4,2,1,5,0,0
70471,-50,4,2,1,60,0,0
70662,-50,4,2,1,5,0,0
70726,-50,4,2,1,60,0,0
71679,-50,4,2,1,5,0,0
71743,-50,4,2,1,60,0,0
72187,-50,4,2,1,5,0,0
72251,-50,4,2,1,60,0,0
72441,-50,4,2,1,5,0,0
72505,-50,4,2,1,60,0,0
72950,-50,4,2,1,5,0,0
73014,-50,4,2,1,60,0,0
73458,-50,4,2,1,5,0,0
73522,-50,4,2,1,60,0,0
73713,-50,4,2,1,5,0,0
73777,-50,4,2,1,60,0,0
74475,-50,4,2,1,5,0,0
74539,-50,4,2,1,60,0,0
74730,-50,4,2,1,5,0,0
74794,-50,4,2,1,60,0,0
75238,-50,4,2,1,5,0,0
75302,-50,4,2,1,60,0,0
76255,-50,4,2,1,5,0,0
76319,-50,4,2,1,60,0,0
76509,-50,4,2,1,5,0,0
76573,-50,4,2,1,60,0,0
77018,-50,4,2,1,5,0,0
77082,-50,4,2,1,60,0,0
77272,-50,4,2,1,5,0,0
77336,-50,4,2,1,60,0,0
77526,-50,4,2,1,5,0,0
77590,-50,4,2,1,60,0,0
78543,-50,4,2,1,5,0,0
78607,-50,4,2,1,60,0,0
80577,-50,4,2,1,5,0,0
80641,-50,4,2,1,60,0,0
81340,-50,4,2,1,5,0,0
81403,-500,4,2,1,75,0,0
81848,-500,4,2,1,5,0,0
81912,-50,4,2,1,75,0,0
82357,-50,4,2,1,5,0,0
82421,-50,4,2,1,60,0,0
83628,-50,4,2,1,5,0,0
83692,-50,4,2,1,60,0,0
84136,-50,4,2,1,5,0,0
84200,-50,4,2,1,60,0,0
84645,-50,4,2,1,5,0,0
84709,-50,4,2,1,60,0,0
84899,-50,4,2,1,5,0,0
84963,-50,4,2,1,60,0,0
85153,-50,4,2,1,5,0,0
85217,-50,4,2,1,60,0,0
85407,-50,4,2,1,5,0,0
85471,-50,4,2,1,60,0,0
85916,-50,4,2,1,5,0,0
85980,-50,4,2,1,60,0,0
86424,-50,4,2,1,5,0,0
86488,-50,4,2,1,60,0,0
86933,-50,4,2,1,5,0,0
86997,-50,4,2,1,60,0,0
87187,-50,4,2,1,5,0,0
87251,-50,4,2,1,60,0,0
87696,-50,4,2,1,5,0,0
87760,-50,4,2,1,60,0,0
88204,-50,4,2,1,5,0,0
88268,-50,4,2,1,60,0,0
88713,-50,4,2,1,5,0,0
88777,-50,4,2,1,60,0,0
89475,-50,4,2,1,5,0,0
89539,-50,4,2,1,60,0,0
89984,-50,4,2,1,5,0,0
90048,-50,4,2,1,60,0,0
90492,-50,4,2,1,5,0,0
90556,-50,4,2,1,60,0,0
90746,-50,4,2,1,5,0,0
90810,-50,4,2,1,60,0,0
91509,-50,4,2,1,5,0,0
91573,-50,4,2,1,60,0,0
92018,-50,4,2,1,5,0,0
92082,-50,4,2,1,60,0,0
92780,-50,4,2,1,5,0,0
92844,-50,4,2,1,60,0,0
93543,-50,4,2,1,5,0,0
93607,-50,4,2,1,60,0,0
94052,-50,4,2,1,5,0,0
94116,-50,4,2,1,60,0,0
94560,-50,4,2,1,5,0,0
94624,-50,4,2,1,60,0,0
97611,-50,4,2,1,5,0,0
97674,-333.333333333333,4,2,1,70,0,0
98691,-50,4,2,1,60,0,0
101679,-50,4,2,1,5,0,0
101743,-50,4,2,1,60,0,0
102696,-50,4,2,1,5,0,0
102760,-50,4,2,1,60,0,0
105810,-100,4,2,1,60,0,0
107717,-100,4,2,1,5,0,0
107844,-100,4,2,1,60,0,0
109751,-100,4,2,1,5,0,0
109878,-100,4,2,1,60,0,0
111912,-100,4,2,1,65,0,0
113946,-50,4,2,1,86,0,0
114136,-50,4,2,1,5,0,0
114200,-50,4,2,1,86,0,0
114391,-50,4,2,1,5,0,0
114455,-50,4,2,1,86,0,0
114645,-50,4,2,1,5,0,0
114709,-50,4,2,1,86,0,0
115153,-50,4,2,1,5,0,0
115217,-50,4,2,1,86,0,0
115407,-50,4,2,1,5,0,0
115471,-66.6666666666667,4,2,1,86,0,0
115980,-50,4,2,1,86,0,0
116424,-50,4,2,1,5,0,0
116488,-50,4,2,1,86,0,0
117187,-50,4,2,1,5,0,0
117251,-50,4,2,1,86,0,0
117441,-50,4,2,1,5,0,0
117505,-50,4,2,1,86,0,0
118713,-50,4,2,1,5,0,0
118777,-50,4,2,1,86,0,0
119221,-50,4,2,1,5,0,0
119285,-50,4,2,1,86,0,0
119475,-50,4,2,1,5,0,0
119539,-50,4,2,1,86,0,0
120492,-50,4,2,1,5,0,0
120556,-50,4,2,1,86,0,0
121001,-50,4,2,1,5,0,0
121065,-50,4,2,1,86,0,0
121255,-50,4,2,1,5,0,0
121319,-50,4,2,1,86,0,0
121382,-50,4,2,1,5,0,0
121573,-50,4,2,1,86,0,0
121763,-50,4,2,1,5,0,0
121827,-50,4,2,1,86,0,0
122272,-50,4,2,1,5,0,0
122336,-50,4,2,1,86,0,0
122526,-50,4,2,1,5,0,0
122590,-50,4,2,1,86,0,0
123289,-50,4,2,1,5,0,0
123353,-50,4,2,1,86,0,0
123543,-50,4,2,1,5,0,0
123607,-50,4,2,1,86,0,0
124052,-50,4,2,1,5,0,0
124116,-50,4,2,1,86,0,0
125068,-50,4,2,1,5,0,0
125132,-50,4,2,1,86,0,0
125323,-50,4,2,1,5,0,0
125387,-50,4,2,1,86,0,0
125831,-50,4,2,1,5,0,0
125895,-50,4,2,1,86,0,0
126085,-50,4,2,1,5,0,0
126149,-50,4,2,1,86,0,0
126340,-50,4,2,1,5,0,0
126404,-50,4,2,1,86,0,0
126594,-50,4,2,1,5,0,0
126658,-50,4,2,1,86,0,0
127357,-50,4,2,1,5,0,0
127421,-50,4,2,1,86,0,0
129391,-50,4,2,1,5,0,0
129455,-50,4,2,1,86,0,0
130153,-50,4,2,1,5,0,0
130217,-50,4,2,1,75,0,0
130916,-50,4,2,1,5,0,0
130980,-50,4,2,1,75,0,0
131424,-50,4,2,1,5,0,0
131488,-50,4,2,1,75,0,0
132187,-50,4,2,1,5,0,0
132251,-50,4,2,1,75,0,0
132696,-50,4,2,1,5,0,0
132760,-50,4,2,1,75,0,0
133967,-50,4,2,1,5,0,0
134031,-50,4,2,1,75,0,0
134475,-50,4,2,1,5,0,0
134539,-50,4,2,1,75,0,0
136509,-50,4,2,1,5,0,0
136573,-50,4,2,1,75,0,0
136763,-50,4,2,1,5,0,0
136827,-50,4,2,1,75,0,0
137018,-50,4,2,1,5,0,0
137082,-50,4,2,1,75,0,0
137526,-50,4,2,1,5,0,0
137590,-50,4,2,1,75,0,0
140068,-50,4,2,1,5,0,0
140132,-50,4,2,1,75,0,0
141594,-50,4,2,1,5,0,0
141658,-50,4,2,1,75,0,0
143119,-50,4,2,1,5,0,0
143183,-50,4,2,1,75,0,0
143628,-50,4,2,1,5,0,0
143692,-50,4,2,1,75,0,0
144645,-50,4,2,1,5,0,0
144709,-50,4,2,1,75,0,0
146424,-50,4,2,1,5,0,0
146488,-50,4,2,1,75,0,0

[Colours]
Combo1 : 255,128,192
Combo2 : 128,128,255
Combo3 : 255,181,106
Combo4 : 192,192,192

[HitObjects]
256,192,12250,12,0,15555,0:0:0:0:
135,55,15809,5,0,0:0:0:0:
120,135,15936,1,0,0:0:0:0:
135,55,16063,2,0,L|138:36,1,20
20,200,16319,6,0,B|88:193|70:228|136:218,1,120,2|0,1:2|0:0,0:0:0:0:
200,160,16573,2,0,B|217:135|252:130|277:155|277:155|281:175|292:181,1,120,2|0,0:0|0:0,0:0:0:0:
355,130,16827,2,0,B|363:76|363:76|366:75|366:75|374:13,1,120,10|0,1:2|0:0,0:0:0:0:
450,70,17081,2,0,B|443:110|443:110|441:111|441:111|436:147,1,80,2|0,0:0|0:0,0:0:0:0:
510,330,17335,6,0,B|448:322|448:322|428:344|397:346,1,120,2|0,1:2|0:0,0:0:0:0:
315,365,17590,2,0,B|323:311|323:311|326:310|326:310|334:248,1,120,2|0,0:0|0:0,0:0:0:0:
292,181,17844,2,0,P|221:197|238:267,1,160,10|0,1:2|0:0,0:0:0:0:
55,145,18352,5,2,1:2:0:0:
80,225,18480,1,2,0:0:0:0:
140,165,18607,2,0,P|126:106|111:48,1,120,2|0,0:0|0:0,0:0:0:0:
190,30,18861,2,0,P|199:68|208:107,1,80,10|0,1:2|0:0,0:0:0:0:
55,145,19115,2,0,P|46:105|36:67,1,80,2|0,0:0|0:0,0:0:0:0:
280,155,19369,6,0,B|351:161|325:186|392:190,1,120,2|0,1:2|0:0,0:0:0:0:
460,150,19624,2,0,P|447:96|394:105,1,120,2|0,0:0|0:0,0:0:0:0:
300,245,19878,2,0,P|379:237|459:232,2,160,10|0|2,1:2|0:0|1:2,0:0:0:0:
240,298,20513,5,0,0:0:0:0:
302,368,20641,1,2,0:0:0:0:
310,365,20768,1,2,0:0:0:0:
172,257,20895,2,0,B|106:247|124:282|56:275,1,120,10|0,1:2|0:0,0:0:0:0:
7,212,21149,2,0,P|15:174|50:158,1,80,2|0,0:0|0:0,0:0:0:0:
189,179,21403,6,0,P|162:126|180:70,1,120,2|0,1:2|0:0,0:0:0:0:
269,172,21657,2,0,P|287:116|262:63,1,120,2|0,0:0|0:0,0:0:0:0:
108,30,21912,2,0,P|49:80|50:158,1,160,10|0,1:2|0:0,0:0:0:0:
240,298,22420,5,2,1:2:0:0:
300,245,22547,1,2,0:0:0:0:
269,172,22674,2,0,P|309:129|367:129,1,120,2|0,0:0|0:0,0:0:0:0:
420,190,22929,2,0,P|427:203|414:194,2,40,10|0|0,1:2|0:0|0:0,0:0:0:0:
490,50,23183,2,0,B|433:43|433:43|432:44|432:44|371:38,1,120,2|0,0:0|0:0,0:0:0:0:
295,10,23437,6,0,P|238:21|215:75,1,120,2|0,1:2|0:0,0:0:0:0:
184,150,23691,2,0,P|168:156|173:140,1,40,10|0,1:2|0:0,0:0:0:0:
35,45,23946,6,0,P|91:31|134:70,1,120,10|0,1:2|0:0,0:0:0:0:
80,130,24200,2,0,L|90:229,1,80,2|0,0:0|0:0,0:0:0:0:
20,320,24454,6,0,B|94:310|66:352|134:341,1,120,2|0,1:2|0:0,0:0:0:0:
195,280,24708,2,0,B|263:290|235:248|309:258,1,120,2|0,0:0|0:0,0:0:0:0:
375,200,24963,2,0,P|369:161|337:139,1,80,10|0,1:2|0:0,0:0:0:0:
186,138,25217,5,2,0:0:0:0:
185,150,25344,1,2,0:0:0:0:
20,320,25471,6,0,B|94:310|66:352|134:341,1,120,2|0,1:2|0:0,0:0:0:0:
195,280,25725,2,0,B|263:290|235:248|309:258,1,120,2|0,0:0|0:0,0:0:0:0:
375,200,25980,2,0,P|369:161|337:139,1,80,10|0,1:2|0:0,0:0:0:0:
495,20,26234,2,0,P|456:64|398:66,1,120
384,56,26488,5,2,1:2:0:0:
315,0,26615,1,2,0:0:0:0:
235,45,26742,1,2,0:0:0:0:
250,130,26869,1,2,0:0:0:0:
337,139,26996,5,10,1:2:0:0:
250,130,27124,1,2,0:0:0:0:
190,200,27251,2,0,B|128:189|136:226|73:216,1,120,2|0,0:0|0:0,0:0:0:0:
9,169,27505,6,0,P|10:113|65:101,1,120,2|0,1:2|0:0,0:0:0:0:
145,120,27759,2,0,L|152:40,1,80,2|0,0:0|0:0,0:0:0:0:
190,200,28013,2,0,B|197:258|197:258|195:260|195:260|202:318,1,120,10|0,1:2|0:0,0:0:0:0:
281,363,28268,2,0,B|288:305|288:305|286:303|286:303|293:245,1,120
370,200,28522,6,0,P|428:206|472:167,1,120,2|0,1:2|0:0,0:0:0:0:
450,85,28776,2,0,P|392:79|348:118,1,120,2|0,0:0|0:0,0:0:0:0:
370,200,29030,1,10,1:2:0:0:
190,200,29157,1,0,0:0:0:0:
115,155,29285,2,0,P|98:118|104:79,1,80,2|2,0:0|0:0,0:0:0:0:
190,200,29539,6,0,P|131:198|92:241,1,120,2|0,1:2|0:0,0:0:0:0:
150,300,29793,2,0,P|133:336|139:375,1,80,2|0,0:0|0:0,0:0:0:0:
365,290,30047,2,0,B|265:297|313:341|220:349,1,160,10|0,1:2|0:0,0:0:0:0:
350,375,30556,5,10,1:2:0:0:
365,290,30683,1,2,0:0:0:0:
350,375,30810,2,0,L|429:368,1,80,2|2,0:0|0:0,0:0:0:0:
443,367,31001,1,0,0:0:0:0:
453,367,31064,5,10,1:2:0:0:
495,195,31191,1,2,0:0:0:0:
430,140,31318,2,0,P|391:135|360:158,1,80,2|2,0:0|0:0,0:0:0:0:
355,170,31509,1,0,0:0:0:0:
355,185,31573,6,0,P|354:127|305:97,1,120,10|0,1:2|0:0,0:0:0:0:
245,155,31827,2,0,L|165:145,1,80,2|2,0:0|0:0,0:0:0:0:
147,143,32018,1,0,0:0:0:0:
129,141,32081,5,10,1:2:0:0:
20,260,32208,1,10,0:0:0:0:
80,325,32335,2,0,B|149:317|128:353|195:346,1,120,10|0,0:0|0:0,0:0:0:0:
195,346,32590,5,6,0:0:0:0:
423,248,32844,2,0,L|323:266,1,80,2|0,0:0|0:0,0:0:0:0:
281,323,33098,2,0,P|256:261|291:195,1,120,8|0,1:2|0:0,0:0:0:0:
347,174,33352,1,2,0:0:0:0:
279,120,33480,1,2,0:0:0:0:
136,228,33607,5,2,1:2:0:0:
61,183,33734,1,2,0:0:0:0:
17,263,33861,2,0,L|38:365,1,80,2|0,0:0|0:0,0:0:0:0:
61,183,34115,2,0,B|72:128|72:128|82:119|82:119|98:43,1,120,10|0,1:2|0:0,0:0:0:0:
177,46,34369,2,0,B|188:101|188:101|198:110|198:110|214:186,1,120,2|0,0:0|0:0,0:0:0:0:
125,307,34624,6,0,L|138:212,1,80,2|0,1:2|0:0,0:0:0:0:
270,366,34878,2,0,P|224:346|210:292,1,80,2|0,0:0|0:0,0:0:0:0:
394,259,35132,2,0,P|333:291|282:279,1,120,8|0,1:2|0:0,0:0:0:0:
277,203,35386,1,2,0:0:0:0:
349,154,35513,1,2,0:0:0:0:
436,334,35641,5,2,1:2:0:0:
394,259,35768,1,2,0:0:0:0:
470,214,35895,1,2,0:0:0:0:
512,293,36022,1,2,0:0:0:0:
349,154,36149,2,0,P|316:110|346:29,1,120,10|0,1:2|0:0,0:0:0:0:
411,31,36403,2,0,P|444:75|414:156,1,120,2|0,0:0|0:0,0:0:0:0:
178,80,36657,6,0,P|213:89|245:147,1,80,2|0,1:2|0:0,0:0:0:0:
94,190,36912,2,0,P|84:155|118:98,1,80,2|0,0:0|0:0,0:0:0:0:
232,207,37166,2,0,P|206:232|140:231,1,80,8|0,1:2|0:0,0:0:0:0:
168,159,37420,1,2,0:0:0:0:
168,159,37547,1,2,0:0:0:0:
54,346,37674,6,0,L|157:373,1,80,2|2,1:2|0:0,0:0:0:0:
205,324,37929,1,2,0:0:0:0:
265,384,38056,1,2,0:0:0:0:
434,304,38183,2,0,P|442:232|395:195,1,120,10|0,1:2|0:0,0:0:0:0:
341,238,38437,1,2,0:0:0:0:
303,167,38564,1,2,0:0:0:0:
390,52,38691,6,0,L|370:153,1,80,2|0,1:2|0:0,0:0:0:0:
243,107,38946,2,0,B|171:109|198:146|105:141,1,120,2|0,0:0|0:0,0:0:0:0:
75,17,39200,2,0,P|119:35|130:76,1,80,10|0,1:2|0:0,0:0:0:0:
85,203,39454,2,0,L|141:282,1,80,2|2,0:0|0:0,0:0:0:0:
62,309,39708,5,2,1:2:0:0:
62,309,39835,1,2,0:0:0:0:
205,294,39963,1,2,0:0:0:0:
205,294,40090,1,2,0:0:0:0:
131,268,40217,1,10,1:2:0:0:
142,365,40471,5,2,0:0:0:0:
142,365,40598,1,2,0:0:0:0:
205,294,40725,6,0,L|226:197,1,80,2|0,1:2|0:0,0:0:0:0:
289,158,40980,2,0,L|268:61,1,80,2|0,0:0|0:0,0:0:0:0:
340,17,41234,1,8,1:2:0:0:
472,170,41488,2,0,L|455:248,1,80,2|2,0:0|0:0,0:0:0:0:
481,334,41742,6,0,P|417:332|375:285,1,120,2|0,1:2|0:0,0:0:0:0:
455,248,41996,1,2,0:0:0:0:
455,248,42124,1,0,0:0:0:0:
368,169,42251,6,0,L|277:156,1,80,10|2,1:2|0:0,0:0:0:0:
204,279,42505,2,0,P|251:261|258:223,1,80,2|2,0:0|0:0,0:0:0:0:
204,128,42759,6,0,P|133:156|122:216,1,120,2|0,1:2|0:0,0:0:0:0:
117,275,43013,1,2,0:0:0:0:
273,79,43268,2,0,P|229:45|182:45,1,80,10|0,1:2|0:0,0:0:0:0:
352,84,43522,2,0,P|350:45|330:11,1,80,2|0,0:0|0:0,0:0:0:0:
436,81,43776,6,0,P|417:136|367:168,1,120,2|0,1:2|0:0,0:0:0:0:
288,157,44030,1,2,0:0:0:0:
288,157,44157,1,0,0:0:0:0:
311,309,44285,2,0,L|319:221,1,80,10|0,1:2|0:0,0:0:0:0:
288,157,44539,1,2,0:0:0:0:
288,157,44666,1,2,0:0:0:0:
192,246,44793,6,0,B|122:251|152:219|60:218,1,120,2|0,1:2|0:0,0:0:0:0:
8,276,45047,2,0,P|13:340|51:356,1,80,2|0,0:0|0:0,0:0:0:0:
77,219,45302,2,0,L|61:125,1,80,8|0,1:2|0:0,0:0:0:0:
138,72,45556,2,0,L|151:150,1,80,2|0,0:0|0:0,0:0:0:0:
20,51,45810,6,0,L|150:74,1,120,2|0,1:2|0:0,0:0:0:0:
202,25,46064,1,2,0:0:0:0:
202,25,46191,1,2,0:0:0:0:
294,112,46318,2,0,L|389:87,1,80,8|0,0:0|0:0,0:0:0:0:
448,68,46573,2,0,P|406:98|439:181,1,120,2|0,0:0|0:0,0:0:0:0:
462,229,46827,5,10,1:2:0:0:
376,242,46954,1,2,0:0:0:0:
462,229,47081,2,0,L|470:334,1,80,2|2,0:0|0:0,0:0:0:0:
468,327,47272,1,0,0:0:0:0:
470,344,47335,5,10,1:2:0:0:
317,381,47463,1,2,0:0:0:0:
256,318,47590,2,0,L|268:219,1,80,2|2,0:0|0:0,0:0:0:0:
95,228,47844,5,10,1:2:0:0:
95,228,47971,1,2,0:0:0:0:
29,177,48098,2,0,L|54:78,1,80,2|2,0:0|0:0,0:0:0:0:
52,88,48289,1,0,0:0:0:0:
55,75,48352,5,10,1:2:0:0:
153,47,48480,1,10,0:0:0:0:
249,15,48607,2,0,L|358:31,1,80,10|0,0:0|0:0,0:0:0:0:
443,102,48861,6,0,P|412:65|412:23,1,80,6|0,1:2|0:0,0:0:0:0:
459,185,49115,2,0,P|410:180|381:151,1,80,2|0,0:0|0:0,0:0:0:0:
492,264,49369,2,0,L|468:390,1,120,10|0,1:2|0:0,0:0:0:0:
455,357,49624,2,0,L|474:272,1,80,2|2,0:0|0:0,0:0:0:0:
332,215,49878,6,0,L|356:341,1,120,2|0,1:2|0:0,0:0:0:0:
369,308,50131,2,0,L|350:223,1,80,2|0,0:0|0:0,0:0:0:0:
387,161,50386,1,8,1:2:0:0:
387,161,50513,1,2,0:0:0:0:
318,109,50641,2,0,L|233:133,1,80,2|0,0:0|0:0,0:0:0:0:
178,214,50895,6,0,P|231:185|237:117,1,120,2|0,1:2|0:0,0:0:0:0:
175,79,51149,2,0,P|122:108|116:176,1,120,2|0,0:0|0:0,0:0:0:0:
178,214,51403,1,8,1:2:0:0:
175,295,51530,1,0,0:0:0:0:
118,353,51657,2,0,L|-8:329,1,120,2|0,0:0|0:0,0:0:0:0:
25,316,51912,2,0,L|110:335,1,80,2|0,1:2|0:0,0:0:0:0:
245,256,52166,6,0,L|371:233,1,120,2|0,0:0|0:0,0:0:0:0:
345,257,52420,2,0,L|265:268,1,80,8|2,1:2|0:0,0:0:0:0:
252,178,52674,2,0,L|332:167,1,80,2|0,0:0|0:0,0:0:0:0:
445,129,52929,6,0,P|409:76|348:111,1,120,2|0,1:2|0:0,0:0:0:0:
331,167,53183,2,0,L|251:178,1,80,2|0,0:0|0:0,0:0:0:0:
191,116,53437,2,0,L|111:105,1,80,8|0,1:2|0:0,0:0:0:0:
40,177,53691,1,2,0:0:0:0:
40,177,53818,1,0,0:0:0:0:
82,250,53946,6,0,L|228:234,1,120,2|0,1:2|0:0,0:0:0:0:
191,116,54200,2,0,L|42:96,1,120,2|0,0:0|0:0,0:0:0:0:
256,52,54454,2,0,L|348:38,1,80,8|2,1:2|0:0,0:0:0:0:
422,24,54708,1,2,0:0:0:0:
496,243,54963,6,0,B|457:270|417:245|428:244|388:199|331:237,1,160,2|2,1:2|0:0,0:0:0:0:
290,288,55344,1,0,0:0:0:0:
346,229,55471,1,8,1:2:0:0:
305,160,55598,1,2,0:0:0:0:
227,175,55725,2,0,L|138:154,1,80,2|2,0:0|0:0,0:0:0:0:
216,249,55980,6,0,P|160:267|143:341,1,120,2|0,1:2|0:0,0:0:0:0:
254,357,56234,6,0,P|254:298|189:259,1,120,2|0,0:0|0:0,0:0:0:0:
139,320,56488,2,0,L|49:336,1,80,8|0,1:2|0:0,0:0:0:0:
10,193,56742,6,0,P|73:192|84:250,1,120,2|0,0:0|0:0,0:0:0:0:
85,245,56996,6,0,P|74:175|75:77,1,160,6|0,0:0|0:0,0:0:0:0:
169,239,59030,6,0,P|158:169|159:71,1,160,2|0,0:0|0:0,0:0:0:0:
252,232,61064,6,0,P|241:162|242:64,1,160,2|0,0:0|0:0,0:0:0:0:
460,25,63098,5,10,1:2:0:0:
448,15,63225,1,2,0:0:0:0:
464,11,63352,1,2,0:0:0:0:
457,17,63480,1,2,0:0:0:0:
428,126,63607,5,10,1:2:0:0:
412,93,63734,1,2,0:0:0:0:
452,101,63861,1,2,0:0:0:0:
430,104,63987,1,2,0:0:0:0:
393,256,64115,5,10,1:2:0:0:
366,181,64242,1,2,0:0:0:0:
449,205,64369,1,10,0:0:0:0:
401,211,64497,1,2,0:0:0:0:
373,336,64624,5,10,1:2:0:0:
98,350,65132,6,0,P|134:310|132:231,1,120,6|0,1:2|0:0,0:0:0:0:
70,159,65386,2,0,P|86:211|156:248,1,120,2|0,0:0|0:0,0:0:0:0:
249,229,65641,2,0,P|196:218|128:260,1,120,10|0,1:2|0:0,0:0:0:0:
313,283,65895,2,0,P|332:235|325:195,1,80,2|0,0:0|0:0,0:0:0:0:
180,86,66149,6,0,L|309:111,1,120,2|0,1:2|0:0,0:0:0:0:
314,31,66403,2,0,L|197:8,1,120,2|0,0:0|0:0,0:0:0:0:
102,40,66657,2,0,P|74:119|138:159,1,160,10|0,1:2|0:0,0:0:0:0:
376,86,67166,5,2,1:2:0:0:
443,140,67293,1,2,0:0:0:0:
394,220,67420,2,0,P|408:279|423:337,1,120,2|0,0:0|0:0,0:0:0:0:
344,355,67674,2,0,P|335:317|326:278,1,80,10|0,1:2|0:0,0:0:0:0:
479,240,67928,2,0,P|488:280|498:318,1,80,2|0,0:0|0:0,0:0:0:0:
269,209,68183,6,0,B|222:201|222:201|211:191|211:191|155:181,1,120,2|0,1:2|0:0,0:0:0:0:
80,200,68437,2,0,B|69:159|69:159|96:125,1,80,2|0,0:0|0:0,0:0:0:0:
154,267,68691,2,0,P|81:245|-16:225,1,160,10|0,1:2|0:0,0:0:0:0:
262,58,69200,6,0,L|354:44,1,80,2|0,1:2|0:0,0:0:0:0:
406,95,69454,1,2,0:0:0:0:
406,95,69581,1,2,0:0:0:0:
481,64,69708,2,0,P|440:132|453:194,1,120,10|0,1:2|0:0,0:0:0:0:
373,210,69963,2,0,P|406:244|461:247,1,80,2|0,0:0|0:0,0:0:0:0:
202,205,70217,6,0,P|168:255|179:313,1,120,2|0,1:2|0:0,0:0:0:0:
260,329,70471,2,0,P|291:280|280:222,1,120,2|0,0:0|0:0,0:0:0:0:
49,227,70725,2,0,P|48:304|108:354,1,160,10|0,1:2|0:0,0:0:0:0:
178,311,71106,5,0,0:0:0:0:
123,167,71234,1,2,1:2:0:0:
180,106,71360,1,2,0:0:0:0:
258,149,71488,2,0,L|380:128,1,120,2|0,0:0|0:0,0:0:0:0:
437,76,71742,2,0,B|445:57|445:57|423:84,2,40,10|0|0,1:2|0:0|0:0,0:0:0:0:
512,236,71996,2,0,P|437:235|415:186,1,120,2|0,0:0|0:0,0:0:0:0:
350,254,72251,6,0,P|380:323|345:364,1,120,2|0,1:2|0:0,0:0:0:0:
252,315,72505,2,0,P|277:319|252:307,1,80,10|0,1:2|0:0,0:0:0:0:
65,322,72759,2,0,L|187:281,1,120,10|0,1:2|0:0,0:0:0:0:
118,179,73013,2,0,L|110:258,1,80
84,54,73268,6,0,P|89:74|77:49,1,120,6|0,1:2|0:0,0:0:0:0:
245,41,73522,2,0,P|234:59|243:33,1,120,2|0,0:0|0:0,0:0:0:0:
349,169,73776,2,0,P|326:133|338:78,1,80,10|0,1:2|0:0,0:0:0:0:
211,173,74030,5,2,0:0:0:0:
208,162,74157,1,2,0:0:0:0:
84,54,74285,6,0,P|89:74|77:49,1,120,2|0,1:2|0:0,0:0:0:0:
245,41,74539,2,0,P|234:59|243:33,1,120,2|0,0:0|0:0,0:0:0:0:
349,169,74793,2,0,P|326:133|338:78,1,80,10|0,1:2|0:0,0:0:0:0:
411,0,75047,2,0,B|430:29|430:29|406:114,1,120
349,169,75302,5,2,1:2:0:0:
403,235,75429,1,2,0:0:0:0:
342,290,75556,1,2,0:0:0:0:
394,361,75683,1,2,0:0:0:0:
342,290,75810,5,10,1:2:0:0:
266,326,75937,1,2,0:0:0:0:
208,258,76064,2,0,B|146:269|154:232|91:242,1,120,2|0,0:0|0:0,0:0:0:0:
32,158,76318,6,0,P|33:214|88:226,1,120,2|0,1:2|0:0,0:0:0:0:
141,169,76573,2,0,L|129:85,1,80,2|0,0:0|0:0,0:0:0:0:
221,179,76827,2,0,L|198:30,1,120,10|0,1:2|0:0,0:0:0:0:
280,48,77081,2,0,L|298:167,1,120
498,223,77335,6,0,B|428:216|459:188|349:189,1,120,2|0,1:2|0:0,0:0:0:0:
325,244,77590,2,0,P|316:281|357:320,1,80,2|2,0:0|0:0,0:0:0:0:
210,275,77844,1,10,1:2:0:0:
187,199,77970,1,0,0:0:0:0:
107,210,78098,2,0,P|74:229|75:286,1,80,2|2,0:0|0:0,0:0:0:0:
187,199,78352,6,0,P|129:185|102:134,1,120,2|0,1:2|0:0,0:0:0:0:
54,10,78607,2,0,P|56:64|29:100,1,80,2|0,0:0|0:0,0:0:0:0:
286,124,78860,2,0,B|186:117|234:73|141:65,1,160,10|0,1:2|0:0,0:0:0:0:
103,135,79242,1,0,0:0:0:0:
274,43,79369,5,10,1:2:0:0:
200,0,79496,1,2,0:0:0:0:
274,43,79624,2,0,L|358:16,1,80,2|2,0:0|0:0,0:0:0:0:
366,13,79814,1,0,0:0:0:0:
379,7,79877,5,10,1:2:0:0:
476,228,80132,2,0,L|394:212,1,80,2|2,0:0|0:0,0:0:0:0:
383,219,80323,1,0,0:0:0:0:
370,226,80386,6,0,L|498:249,1,120,10|0,1:2|0:0,0:0:0:0:
279,290,80640,2,0,L|199:300,1,80,2|2,0:0|0:0,0:0:0:0:
181,302,80831,1,0,0:0:0:0:
163,304,80894,5,10,1:2:0:0:
20,124,81021,1,10,0:0:0:0:
79,54,81149,2,0,P|124:83|84:149,1,120,10|0,0:0|0:0,0:0:0:0:
20,124,81403,6,0,L|22:153,1,28,2|0,1:2|0:0,0:0:0:0:
25,310,81912,6,0,B|-11:299|-23:253|14:192|110:203|126:304|96:366,1,280,10|0,1:2|0:0,0:0:0:0:
96,365,82420,5,2,1:2:0:0:
140,291,82547,1,2,0:0:0:0:
221,259,82674,1,2,0:0:0:0:
304,283,82802,1,2,0:0:0:0:
355,355,82929,2,0,P|393:349|422:321,1,80,10|0,1:2|0:0,0:0:0:0:
355,165,83183,2,0,P|316:170|287:198,1,80,2|0,0:0|0:0,0:0:0:0:
495,190,83437,6,0,L|508:70,1,120,2|0,1:2|0:0,0:0:0:0:
430,25,83691,2,0,L|421:104,1,80,2|0,0:0|0:0,0:0:0:0:
223,32,83946,2,0,L|209:151,1,120,10|0,1:2|0:0,0:0:0:0:
288,197,84200,2,0,L|296:117,1,80,2|0,0:0|0:0,0:0:0:0:
135,195,84454,6,0,B|75:205|75:205|48:257,1,120,2|0,1:2|0:0,0:0:0:0:
100,330,84708,2,0,B|160:320|160:320|186:267,1,120,2|0,0:0|0:0,0:0:0:0:
125,185,84963,6,0,B|65:195|65:195|38:247,1,120,10|0,1:2|0:0,0:0:0:0:
105,340,85217,2,0,B|165:330|165:330|191:277,1,120,2|0,0:0|0:0,0:0:0:0:
288,197,85471,6,0,B|378:186|329:252|421:266|466:225|470:171|436:122|388:136,1,280,2|0,1:2|0:0,0:0:0:0:
305,90,85980,6,0,L|336:369,1,280,8|0,1:2|0:0,0:0:0:0:
345,365,86488,5,2,1:2:0:0:
430,355,86615,1,2,0:0:0:0:
480,280,86742,2,0,L|360:266,1,120,2|0,0:0|0:0,0:0:0:0:
317,193,86996,2,0,L|436:179,1,120,10|0,1:2|0:0,0:0:0:0:
480,110,87251,1,2,0:0:0:0:
480,110,87378,1,2,0:0:0:0:
255,50,87505,6,0,P|198:37|154:75,1,120,2|0,1:2|0:0,0:0:0:0:
75,90,87759,2,0,P|59:126|68:164,1,80,2|0,0:0|0:0,0:0:0:0:
130,310,88013,2,0,P|186:321|230:283,1,120,10|0,1:2|0:0,0:0:0:0:
311,268,88268,2,0,P|326:232|318:194,1,80,2|0,0:0|0:0,0:0:0:0:
40,245,88522,6,0,L|52:364,1,120,2|0,1:2|0:0,0:0:0:0:
130,310,88776,2,0,L|121:230,1,80,2|0,0:0|0:0,0:0:0:0:
155,74,89030,2,0,L|146:153,1,80,10|0,1:2|0:0,0:0:0:0:
231,282,89285,2,0,L|224:162,1,120,2|0,0:0|0:0,0:0:0:0:
280,100,89539,6,0,P|406:97|411:223,1,280,2|0,1:2|0:0,0:0:0:0:
460,290,90047,6,0,B|475:313|522:320|522:320|313:303,1,280,10|0,1:2|0:0,0:0:0:0:
255,369,90556,6,0,P|275:317|232:282,1,120,2|0,1:2|0:0,0:0:0:0:
235,290,90810,1,2,0:0:0:0:
165,345,90937,2,0,P|157:358|171:351,2,40,0|0|10,0:0|0:0|1:2,0:0:0:0:
5,190,91191,5,0,0:0:0:0:
65,125,91318,2,0,B|85:106|88:72|88:72|102:104|130:113,1,120,2|0,0:0|0:0,0:0:0:0:
195,205,91573,2,0,P|155:200|115:196,1,80,0|0,1:2|0:0,0:0:0:0:
255,30,91827,6,0,B|299:39|299:39|329:72|302:107,1,120,2|0,0:0|0:0,0:0:0:0:
285,185,92081,2,0,P|318:163|357:168,1,80,10|0,1:2|0:0,0:0:0:0:
192,278,92335,2,0,P|180:241|195:205,1,80,2|0,0:0|0:0,0:0:0:0:
490,330,92590,6,0,L|370:319,1,120,2|0,1:2|0:0,0:0:0:0:
360,330,92844,2,0,L|399:333,2,40,10|0|0,1:2|0:0|0:0,0:0:0:0:
476,240,93098,2,0,P|480:211|464:235,1,80,10|0,1:2|0:0,0:0:0:0:
500,40,93352,2,0,B|477:20|442:24|424:55|424:55|425:75|416:84,1,120,2|0,0:0|0:0,0:0:0:0:
285,185,93607,6,0,B|239:142|252:75|319:48|379:74|384:135|384:135|370:153|371:167,1,280,2|0,1:2|0:0,0:0:0:0:
345,245,94115,6,0,B|139:209|139:209|179:226|194:251,1,280,10|0,1:2|0:0,0:0:0:0:
140,316,94624,6,0,P|115:286|77:288,1,80,2|0,1:2|0:0,0:0:0:0:
35,170,94878,2,0,P|7:197|10:236,1,80,2|0,0:0|0:0,0:0:0:0:
140,325,95132,6,0,P|115:295|77:297,1,80,10|0,1:2|0:0,0:0:0:0:
40,175,95386,2,0,P|12:202|15:241,1,80,2|0,0:0|0:0,0:0:0:0:
194,251,95641,5,10,1:2:0:0:
155,70,95768,1,2,0:0:0:0:
194,251,95895,2,0,L|180:172,1,80,2|2,0:0|0:0,0:0:0:0:
178,162,96085,1,0,0:0:0:0:
177,153,96149,5,10,1:2:0:0:
350,60,96276,1,2,0:0:0:0:
315,250,96403,2,0,L|328:171,1,80,2|2,0:0|0:0,0:0:0:0:
330,160,96593,1,0,0:0:0:0:
333,147,96657,5,10,1:2:0:0:
305,335,96785,1,2,0:0:0:0:
415,185,96912,2,0,L|428:264,1,80,10|2,0:0|0:0,0:0:0:0:
445,345,97166,5,10,1:2:0:0:
315,250,97293,1,10,0:0:0:0:
234,279,97420,2,0,B|166:268|185:311|119:300,1,120,10|0,0:0|0:0,0:0:0:0:
69,237,97674,6,0,L|65:209,2,23.9999992675781,2|0|10,1:2|0:0|1:2,0:0:0:0:
119,300,98437,1,0,0:0:0:0:
310,119,98691,5,2,1:2:0:0:
290,39,98818,1,2,0:0:0:0:
214,16,98946,1,2,0:0:0:0:
154,71,99073,1,2,0:0:0:0:
172,149,99200,1,10,1:2:0:0:
250,173,99327,1,2,0:0:0:0:
232,94,99454,1,2,0:0:0:0:
507,367,99708,6,0,P|448:371|398:280,1,160,2|0,1:2|0:0,0:0:0:0:
493,104,100217,1,10,1:2:0:0:
493,104,100344,1,2,0:0:0:0:
431,154,100471,2,0,L|328:170,1,80,2|0,0:0|0:0,0:0:0:0:
211,100,100725,6,0,P|262:106|277:161,1,80,2|0,1:2|0:0,0:0:0:0:
280,204,100980,1,2,0:0:0:0:
280,204,101107,1,2,0:0:0:0:
199,338,101234,2,0,L|218:245,1,80,10|2,1:2|0:0,0:0:0:0:
343,265,101488,2,0,L|320:393,1,120,2|0,0:0|0:0,0:0:0:0:
199,338,101742,6,0,P|137:331|84:386,1,120,2|0,1:2|0:0,0:0:0:0:
5,175,102251,1,8,1:2:0:0:
5,175,102378,1,2,0:0:0:0:
41,105,102505,2,0,B|89:114|89:114|104:125|104:125|181:140,1,120,2|0,0:0|0:0,0:0:0:0:
237,117,102759,6,0,P|241:164|213:199,1,80,2|0,1:2|0:0,0:0:0:0:
177,59,103013,1,2,0:0:0:0:
177,59,103141,1,2,0:0:0:0:
317,89,103268,2,0,L|409:69,1,80,10|2,1:2|0:0,0:0:0:0:
412,148,103522,2,0,L|333:164,1,80,2|0,0:0|0:0,0:0:0:0:
336,2,103776,6,0,L|391:243,1,240,2|0,1:2|0:0,0:0:0:0:
294,348,104285,2,0,P|304:295|348:272,1,80,10|0,1:2|0:0,0:0:0:0:
405,316,104539,2,0,P|395:369|351:392,1,80,2|0,0:0|0:0,0:0:0:0:
215,380,104793,6,0,P|188:350|186:311,1,80,2|0,1:2|0:0,0:0:0:0:
236,243,105047,1,0,0:0:0:0:
236,243,105174,1,0,0:0:0:0:
186,172,105302,2,0,L|89:161,1,80,8|0,1:2|0:0,0:0:0:0:
293,121,105556,2,0,B|316:154|316:154|297:204,1,80
432,202,105810,6,0,P|443:132|442:34,1,160,6|0,0:0|0:0,0:0:0:0:
348,196,107844,6,0,P|359:126|358:28,1,160,2|0,0:0|0:0,0:0:0:0:
265,189,109878,6,0,P|276:119|275:21,1,160,2|0,0:0|0:0,0:0:0:0:
183,184,111912,6,0,P|194:114|193:16,1,160,0|2,0:0|0:0,0:0:0:0:
107,175,113437,5,8,0:0:0:0:
107,175,113946,6,0,P|64:209|88:260,1,120,6|0,1:2|0:0,0:0:0:0:
166,280,114200,2,0,P|209:245|185:194,1,120,2|0,0:0|0:0,0:0:0:0:
128,90,114454,2,0,P|84:124|108:175,1,120,10|0,1:2|0:0,0:0:0:0:
185,194,114708,2,0,P|211:166|202:129,1,80,2|0,0:0|0:0,0:0:0:0:
430,55,114963,6,0,P|370:61|313:44,1,120,2|0,1:2|0:0,0:0:0:0:
305,150,115217,2,0,P|364:143|421:160,1,120,2|0,0:0|0:0,0:0:0:0:
430,55,115471,6,0,P|370:61|313:44,1,120,10|0,1:2|0:0,0:0:0:0:
415,345,115980,5,2,1:2:0:0:
340,305,116107,1,2,0:0:0:0:
265,345,116234,2,0,B|198:339|218:373|148:366,1,120,2|0,0:0|0:0,0:0:0:0:
80,325,116488,2,0,P|80:286|112:265,1,80,10|0,1:2|0:0,0:0:0:0:
215,195,116742,2,0,P|183:172|145:181,1,80,2|0,0:0|0:0,0:0:0:0:
340,305,116996,6,0,P|372:257|362:199,1,120,2|0,1:2|0:0,0:0:0:0:
410,115,117251,2,0,P|350:121|290:125,1,120,2|0,0:0|0:0,0:0:0:0:
295,240,117504,2,0,P|374:231|454:226,2,160,10|0|2,1:2|0:0|1:2,0:0:0:0:
240,298,118140,5,0,0:0:0:0:
290,125,118268,1,2,0:0:0:0:
287,117,118395,1,2,0:0:0:0:
172,257,118522,2,0,B|137:270|125:292|125:292|108:273|72:267,1,120,10|0,1:2|0:0,0:0:0:0:
85,190,118776,2,0,B|108:181|116:166|116:166|128:179|152:183,1,80,2|0,0:0|0:0,0:0:0:0:
290,125,119030,6,0,L|409:136,1,120,2|0,1:2|0:0,0:0:0:0:
416,54,119285,2,0,L|296:42,1,120,2|0,0:0|0:0,0:0:0:0:
220,10,119539,2,0,B|128:20|169:63|79:73,1,160,10|0,1:2|0:0,0:0:0:0:
172,257,120047,5,2,1:2:0:0:
248,272,120174,1,2,0:0:0:0:
197,333,120302,2,0,P|256:324|316:320,1,120,2|0,0:0|0:0,0:0:0:0:
395,295,120556,2,0,P|395:314|396:334,2,40,10|0|0,1:2|0:0|0:0,0:0:0:0:
490,50,120810,2,0,P|430:41|370:37,1,120,2|0,0:0|0:0,0:0:0:0:
295,10,121064,6,0,B|238:21|238:21|215:78,1,120,2|0,1:2|0:0,0:0:0:0:
285,130,121318,2,0,L|297:91,1,40,10|0,0:0|0:0,0:0:0:0:
55,15,121573,6,0,B|112:26|112:26|134:83,1,120,10|0,1:2|0:0,0:0:0:0:
80,175,121827,2,0,L|52:99,1,80
20,310,122081,6,0,B|12:322|0:330|0:330|91:322,1,120,6|0,1:2|0:0,0:0:0:0:
230,265,122335,2,0,B|196:252|187:224|187:224|172:250|140:256,1,120,2|0,0:0|0:0,0:0:0:0:
165,360,122590,2,0,L|244:355,1,80,10|0,1:2|0:0,0:0:0:0:
350,185,122844,5,2,0:0:0:0:
285,130,122971,1,2,0:0:0:0:
20,310,123098,6,0,B|12:322|0:330|0:330|91:322,1,120,2|0,1:2|0:0,0:0:0:0:
230,265,123352,2,0,B|196:252|187:224|187:224|172:250|140:256,1,120,2|0,0:0|0:0,0:0:0:0:
165,360,123607,2,0,L|244:355,1,80,10|0,1:2|0:0,0:0:0:0:
495,325,123861,2,0,B|439:319|439:319|436:322|436:322|376:315,1,120
325,380,124115,5,2,1:2:0:0:
245,355,124242,1,2,0:0:0:0:
230,265,124369,1,2,0:0:0:0:
290,200,124496,1,2,0:0:0:0:
295,115,124623,5,10,1:2:0:0:
230,60,124751,1,2,0:0:0:0:
150,95,124878,2,0,B|88:84|96:121|33:111,1,120,2|0,0:0|0:0,0:0:0:0:
5,185,125132,6,0,P|34:234|91:239,1,120,2|0,1:2|0:0,0:0:0:0:
143,175,125386,2,0,L|150:95,1,80,2|0,0:0|0:0,0:0:0:0:
230,265,125641,2,0,P|265:219|322:223,1,120,10|0,1:2|0:0,0:0:0:0:
325,305,125895,2,0,P|360:350|417:346,1,120
500,365,126149,6,0,B|496:309|496:309|497:306|497:306|492:246,1,120,2|0,1:2|0:0,0:0:0:0:
415,235,126403,2,0,B|419:179|419:179|418:176|418:176|423:116,1,120,2|0,0:0|0:0,0:0:0:0:
490,65,126657,1,8,1:2:0:0:
300,115,126784,1,0,0:0:0:0:
225,75,126912,2,0,B|212:39|212:39|224:0,1,80,2|2,0:0|0:0,0:0:0:0:
230,155,127166,6,0,L|110:144,1,120,2|0,1:2|0:0,0:0:0:0:
37,183,127420,2,0,B|24:147|24:147|36:108,1,80,2|0,0:0|0:0,0:0:0:0:
5,265,127674,2,0,B|105:272|57:316|150:324,1,160,10|0,1:2|0:0,0:0:0:0:
495,355,128183,5,10,1:2:0:0:
440,290,128310,1,2,0:0:0:0:
395,360,128437,2,0,P|355:363|322:343,1,80,2|2,0:0|0:0,0:0:0:0:
335,335,128628,1,0,0:0:0:0:
330,320,128691,5,8,1:2:0:0:
440,290,128818,1,2,0:0:0:0:
335,230,128946,2,0,P|312:197|314:158,1,80,2|2,0:0|0:0,0:0:0:0:
322,148,129136,1,0,0:0:0:0:
330,140,129200,6,0,L|210:130,1,120,10|0,1:2|0:0,0:0:0:0:
155,75,129454,2,0,P|117:82|100:118,1,80,2|2,0:0|0:0,0:0:0:0:
110,125,129645,1,0,0:0:0:0:
115,135,129708,5,10,1:2:0:0:
5,195,129835,1,10,0:0:0:0:
90,375,129962,2,0,B|82:306|118:327|111:260,1,120,10|0,0:0|0:0,0:0:0:0:
35,279,130217,6,0,L|211:312,1,160,2|0,1:2|0:0,0:0:0:0:
254,258,130598,1,0,0:0:0:0:
346,361,130725,2,0,P|321:312|364:263,1,120,8|0,1:2|0:0,0:0:0:0:
423,313,130980,1,2,0:0:0:0:
423,313,131107,1,2,0:0:0:0:
485,240,131234,6,0,B|479:187|479:187|468:173|468:173|462:96,1,120,2|0,1:2|0:0,0:0:0:0:
428,52,131488,2,0,B|460:30|460:30|498:53,1,80,2|0,0:0|0:0,0:0:0:0:
375,188,131742,2,0,L|269:166,1,80,10|0,1:2|0:0,0:0:0:0:
246,76,131996,2,0,L|383:108,1,120,2|0,0:0|0:0,0:0:0:0:
375,188,132251,6,0,L|355:273,1,80,2|0,1:2|0:0,0:0:0:0:
388,350,132505,2,0,P|324:353|270:287,1,120,2|0,0:0|0:0,0:0:0:0:
231,247,132759,2,0,P|182:221|133:233,1,80,8|0,1:2|0:0,0:0:0:0:
97,278,133013,1,2,0:0:0:0:
97,278,133141,1,2,0:0:0:0:
188,381,133268,6,0,L|170:288,1,80,2|0,1:2|0:0,0:0:0:0:
85,191,133522,2,0,L|67:98,1,80,10|0,1:2|0:0,0:0:0:0:
128,41,133776,2,0,P|172:24|243:75,1,120,10|0,1:2|0:0,0:0:0:0:
245,127,134030,2,0,P|201:127|168:88,1,80,2|0,0:0|0:0,0:0:0:0:
344,89,134285,6,0,L|305:241,1,120,2|0,1:2|0:0,0:0:0:0:
381,247,134539,1,2,0:0:0:0:
381,247,134666,1,0,0:0:0:0:
453,210,134793,2,0,L|430:123,1,80,8|0,1:2|0:0,0:0:0:0:
381,247,135047,1,2,0:0:0:0:
381,247,135173,1,2,0:0:0:0:
329,309,135302,6,0,P|350:354|423:293,2,160,2|2|10,1:2|0:0|1:2,0:0:0:0:
381,247,135937,1,0,0:0:0:0:
260,360,136064,2,0,L|170:325,1,80
71,369,136318,6,0,B|83:322|83:322|95:309|95:309|113:231,1,120,2|0,1:2|0:0,0:0:0:0:
173,204,136573,2,0,P|149:147|71:140,1,120,2|0,0:0|0:0,0:0:0:0:
0,185,136827,2,0,P|60:186|99:117,1,120,10|0,1:2|0:0,0:0:0:0:
67,61,137081,1,2,0:0:0:0:
67,61,137208,1,2,0:0:0:0:
214,107,137335,6,0,L|353:83,1,120,2|0,1:2|0:0,0:0:0:0:
381,21,137590,1,10,1:2:0:0:
452,67,137717,1,0,0:0:0:0:
418,214,137844,2,0,L|402:127,1,80,10|0,1:2|0:0,0:0:0:0:
498,186,138098,2,0,L|514:273,1,80
411,360,138352,6,0,B|347:336|347:336|336:318|336:318|261:292,1,160,2|0,1:2|0:0,0:0:0:0:
204,347,138734,1,0,0:0:0:0:
279,215,138861,2,0,P|262:165|209:144,1,80,8|0,1:2|0:0,0:0:0:0:
198,217,139115,1,2,0:0:0:0:
198,217,139242,1,2,0:0:0:0:
284,80,139369,6,0,P|233:65|185:96,1,80,2|0,1:2|0:0,0:0:0:0:
172,0,139624,2,0,P|130:33|129:90,1,80,2|0,0:0|0:0,0:0:0:0:
90,139,139878,2,0,P|45:100|39:42,1,120,8|0,1:2|0:0,0:0:0:0:
123,57,140132,1,2,0:0:0:0:
123,57,140259,1,0,0:0:0:0:
14,187,140386,6,0,L|35:283,1,80,2|0,1:2|0:0,0:0:0:0:
54,341,140641,1,0,0:0:0:0:
54,341,140768,1,0,0:0:0:0:
159,207,140895,2,0,P|128:249|130:292,1,80,8|0,1:2|0:0,0:0:0:0:
227,349,141149,2,0,P|228:299|184:262,1,80,2|2,0:0|0:0,0:0:0:0:
125,384,141403,6,0,L|258:363,1,120,2|0,1:2|0:0,0:0:0:0:
308,309,141657,2,0,L|400:295,1,80,10|0,1:2|0:0,0:0:0:0:
478,341,141912,2,0,P|417:298|453:201,1,160,10|0,1:2|0:0,0:0:0:0:
508,179,142293,1,0,0:0:0:0:
326,75,142420,6,0,L|348:151,1,80,2|0,1:2|0:0,0:0:0:0:
430,129,142674,2,0,L|408:53,1,80
243,77,142929,2,0,L|286:229,1,120,8|0,1:2|0:0,0:0:0:0:
344,230,143183,1,2,0:0:0:0:
344,230,143310,1,2,0:0:0:0:
188,174,143437,6,0,B|115:172|145:203|56:206,1,120,2|0,1:2|0:0,0:0:0:0:
8,152,143691,2,0,P|58:172|70:217,1,80,2|0,0:0|0:0,0:0:0:0:
75,284,143946,2,0,P|39:324|-7:320,1,80,8|0,1:2|0:0,0:0:0:0:
5,244,144200,1,0,0:0:0:0:
224,335,144454,6,0,L|345:311,1,120,10|0,1:2|0:0,0:0:0:0:
401,257,144708,2,0,B|426:288|426:288|417:342,1,80,2|2,0:0|0:0,0:0:0:0:
417,343,144899,1,0,0:0:0:0:
413,359,144963,5,10,1:2:0:0:
341,311,145090,1,2,0:0:0:0:
459,192,145217,2,0,L|441:99,1,80,2|2,0:0|0:0,0:0:0:0:
439,100,145407,1,0,0:0:0:0:
436,85,145471,5,10,1:2:0:0:
368,41,145598,1,2,0:0:0:0:
316,100,145725,2,0,P|268:108|229:72,1,80,10|2,0:0|0:0,0:0:0:0:
239,85,145916,1,0,0:0:0:0:
233,72,145980,5,10,1:2:0:0:
196,0,146107,1,0,0:0:0:0:
224,173,146234,2,0,L|193:301,1,120,10|0,0:0|0:0,0:0:0:0:
174,363,146488,5,6,1:2:0:0:
256,192,146552,12,0,156149,0:0:0:0:
