osu file format v14

[General]
AudioFilename: audio.mp3
AudioLeadIn: 0
PreviewTime: 65124
Countdown: 0
SampleSet: Soft
StackLeniency: 0.3
Mode: 0
LetterboxInBreaks: 0
WidescreenStoryboard: 1

[Editor]
Bookmarks: 24446,32582,40717,48853,56988,65124,73260,81395,97666,105802,113938,122073,130209,138344,146480
DistanceSpacing: 1
BeatDivisor: 4
GridSize: 32
TimelineZoom: 1.9

[Metadata]
Title:yoga
TitleUnicode:yoga
Artist:bbno$ & Rebecca Black
ArtistUnicode:bbno$ & Rebecca Black
Creator:Bakugo-
Version:chu's hyper
Source:
Tags:female male vocals collab rap hip hop hiphop collaboration vocalist vocalists gaz pop eat ya veggies bbno bakugo gokugohan12468 gokugohan kittyadventure thexo tadahitotsu gazza arronchu1207 chu arronchu xandeez nuts pokey [Poke] english gigarobloxian21 ft featuring feat
BeatmapID:3278295
BeatmapSetID:1596017

[Difficulty]
HPDrainRate:4.3
CircleSize:4.3
OverallDifficulty:6.3
ApproachRate:7.5
SliderMultiplier:1.69
SliderTickRate:1

[Events]
//Background and Video events
0,0,"anime-scenery-sunset-anime-school-girl-clouds-artwork-anime.jpeg",0,0
Video,65,"bbno__Rebecca_Black_-_yoga_Official_Video_edit.mp4"
//Break Periods
2,57196,62236
2,106009,112575
//Storyboard Layer 0 (Background)
//Storyboard Layer 1 (Fail)
//Storyboard Layer 2 (Pass)
//Storyboard Layer 3 (Foreground)
//Storyboard Layer 4 (Overlay)
//Storyboard Sound Samples

[TimingPoints]
47,508.474576271186,4,2,1,60,1,0
16318,-100,4,2,1,60,0,0
16826,-100,4,2,1,60,0,0
17843,-100,4,2,1,60,0,0
18606,-100,4,2,1,60,0,0
18860,-100,4,2,1,60,0,0
20385,-100,4,2,1,60,0,0
20894,-100,4,2,1,60,0,0
21911,-100,4,2,1,60,0,0
23436,-100,4,2,1,60,0,0
23945,-100,4,2,1,60,0,0
24962,-100,4,2,1,60,0,0
26487,-100,4,2,1,60,0,0
26995,-100,4,2,1,60,0,0
27758,-100,4,2,1,60,0,0
28521,-100,4,2,1,60,0,0
30555,-100,4,2,1,60,0,0
49114,-100,4,2,1,60,0,0
49877,-100,4,2,1,60,0,0
51148,-100,4,2,1,60,0,0
51911,-100,4,2,1,60,0,0
53182,-100,4,2,1,60,0,0
53945,-100,4,2,1,60,0,0
55979,-100,4,2,1,60,0,0
58902,-100,4,2,1,5,0,0
59029,-100,4,2,1,60,0,0
60936,-100,4,2,1,5,0,0
61063,-100,4,2,1,60,0,0
62970,-100,4,2,1,5,0,0
63097,-100,4,2,1,60,0,0
65131,-100,4,2,1,86,0,0
65640,-100,4,2,1,86,0,0
66656,-100,4,2,1,86,0,0
67673,-100,4,2,1,86,0,0
68690,-100,4,2,1,86,0,0
69199,-100,4,2,1,86,0,0
69707,-100,4,2,1,86,0,0
70724,-100,4,2,1,86,0,0
72758,-100,4,2,1,86,0,0
73267,-100,4,2,1,86,0,0
73775,-100,4,2,1,86,0,0
74284,-100,4,2,1,86,0,0
75301,-100,4,2,1,86,0,0
75809,-100,4,2,1,86,0,0
76317,-100,4,2,1,86,0,0
76572,-100,4,2,1,86,0,0
77843,-100,4,2,1,86,0,0
78351,-100,4,2,1,86,0,0
81402,-100,4,2,1,75,0,0
82928,-100,4,2,1,75,0,0
89538,-100,4,2,1,75,0,0
90301,-100,4,2,1,5,0,0
90555,-100,4,2,1,75,0,0
97673,-100,4,2,1,70,0,0
99199,-100,4,2,1,70,0,0
105809,-100,4,2,1,60,0,0
107716,-100,4,2,1,5,0,0
107843,-100,4,2,1,60,0,0
109750,-100,4,2,1,5,0,0
109877,-100,4,2,1,60,0,0
111911,-100,4,2,1,65,0,0
113563,-100,4,2,1,5,0,0
113945,-100,4,2,1,86,0,0
114453,-100,4,2,1,86,0,0
115470,-100,4,2,1,86,0,0
116487,-100,4,2,1,86,0,0
117504,-100,4,2,1,86,0,0
118012,-100,4,2,1,86,0,0
118521,-100,4,2,1,86,0,0
119538,-100,4,2,1,86,0,0
121572,-100,4,2,1,86,0,0
122080,-100,4,2,1,86,0,0
122589,-100,4,2,1,86,0,0
123097,-100,4,2,1,86,0,0
124114,-100,4,2,1,86,0,0
124623,-100,4,2,1,86,0,0
125131,-100,4,2,1,86,0,0
126148,-100,4,2,1,86,0,0
126656,-100,4,2,1,86,0,0
127165,-100,4,2,1,86,0,0
128182,-100,4,2,1,86,0,0
130216,-100,4,2,1,75,0,0
138351,-100,4,2,1,75,0,0
138860,-100,4,2,1,75,0,0
140385,-100,4,2,1,75,0,0
140894,-100,4,2,1,75,0,0
142419,-100,4,2,1,75,0,0
142928,-100,4,2,1,75,0,0
144453,-100,4,2,1,75,0,0
146487,-100,4,2,1,75,0,0

[Colours]
Combo1 : 255,128,192
Combo2 : 128,128,255
Combo3 : 255,181,106
Combo4 : 192,192,192

[HitObjects]
104,93,15809,6,0,P|94:74|111:56,2,42.25
104,93,16318,6,0,L|197:101,1,84.5,2|2,1:2|0:0,0:0:0:0:
258,51,16699,1,0,0:0:0:0:
258,51,16826,2,0,L|351:43,1,84.5,10|2,1:2|0:0,0:0:0:0:
118,111,17335,6,0,L|211:119,1,84.5,2|2,1:2|0:0,0:0:0:0:
272,69,17716,1,0,0:0:0:0:
272,69,17843,2,0,L|365:61,1,84.5,10|0,1:2|0:0,0:0:0:0:
480,175,18352,6,0,P|488:208|479:234,2,42.25,2|2|2,1:2|0:0|0:0,0:0:0:0:
406,214,18733,1,0,0:0:0:0:
406,214,18860,2,0,P|399:263|420:307,1,84.5,10|2,1:2|0:0,0:0:0:0:
261,373,19369,6,0,P|268:324|247:280,1,84.5,2|2,1:2|0:0,0:0:0:0:
185,339,19750,1,0,0:0:0:0:
185,339,19877,2,0,L|99:326,1,84.5,10|0,1:2|0:0,0:0:0:0:
21,177,20385,6,0,L|32:85,1,84.5,2|2,1:2|0:0,0:0:0:0:
118,108,20767,1,2,0:0:0:0:
118,108,20894,2,0,L|107:191,1,84.5,10|2,1:2|0:0,0:0:0:0:
259,117,21402,6,0,L|245:25,1,84.5,2|2,1:2|0:0,0:0:0:0:
334,22,21784,1,0,0:0:0:0:
334,22,21911,2,0,L|346:105,1,84.5,10|0,1:2|0:0,0:0:0:0:
454,235,22419,6,0,P|479:227|490:204,2,42.25,2|2|2,1:2|0:0|0:0,0:0:0:0:
398,299,22801,1,0,0:0:0:0:
398,299,22928,2,0,P|353:295|314:327,1,84.5,10|2,1:2|0:0,0:0:0:0:
160,365,23436,6,0,L|102:357,1,42.25,2|0,1:2|0:0,0:0:0:0:
157,279,23691,2,0,L|116:274,1,42.25,10|0,1:2|1:2,0:0:0:0:
224,225,23945,2,0,P|240:181|227:137,1,84.5,10|2,1:2|0:0,0:0:0:0:
268,300,24453,6,0,P|263:333|267:352,1,42.25,2|0,1:2|0:0,0:0:0:0:
347,328,24708,2,0,P|359:359|372:373,1,42.25,2|0,0:0|0:0,0:0:0:0:
429,311,24962,2,0,P|465:324|515:307,1,84.5,10|2,1:2|0:0,0:0:0:0:
489,144,25470,6,0,L|434:153,1,42.25,2|0,1:2|0:0,0:0:0:0:
394,84,25724,2,0,L|339:75,1,42.25,2|0,0:0|0:0,0:0:0:0:
285,130,25979,2,0,P|265:87|279:35,1,84.5,10|0,1:2|0:0,0:0:0:0:
106,10,26487,6,0,L|115:57,2,42.25,2|2|2,1:2|0:0|0:0,0:0:0:0:
32,50,26869,1,2,0:0:0:0:
32,50,26996,2,0,L|23:97,2,42.25,10|2|2,1:2|0:0|0:0,0:0:0:0:
173,143,27504,5,2,1:2:0:0:
42,250,27758,2,0,P|21:252|3:263,1,42.25,2|0,0:0|0:0,0:0:0:0:
50,333,28013,2,0,P|90:357|144:348,1,84.5,10|0,1:2|0:0,0:0:0:0:
260,251,28521,6,0,L|267:200,2,42.25,2|2|2,1:2|0:0|0:0,0:0:0:0:
384,365,29030,2,0,P|435:372|481:335,1,84.5,10|2,1:2|0:0,0:0:0:0:
502,282,29411,1,2,0:0:0:0:
502,282,29538,2,0,L|493:193,1,84.5,2|2,1:2|0:0,0:0:0:0:
402,55,30046,2,0,B|328:47|354:84|265:69,1,126.75,10|0,1:2|0:0,0:0:0:0:
202,109,30555,6,0,P|212:166|195:197,1,84.5,10|2,1:2|0:0,0:0:0:0:
126,150,30936,5,2,0:0:0:0:
126,150,31063,2,0,P|116:93|133:62,1,84.5,10|2,1:2|0:0,0:0:0:0:
202,29,31445,5,2,0:0:0:0:
202,29,31572,2,0,P|212:86|195:117,1,84.5,10|2,1:2|0:0,0:0:0:0:
126,70,31953,5,2,0:0:0:0:
126,70,32080,2,0,L|70:76,1,42.25,10|10,1:2|0:0,0:0:0:0:
0,85,32335,1,10,0:0:0:0:
53,200,32589,6,0,B|149:182|120:240|224:218,1,169,6|8,1:2|0:0,0:0:0:0:
292,287,33352,2,0,P|320:286|336:277,1,42.25,2|2,0:0|0:0,0:0:0:0:
375,252,33606,2,0,P|403:253|419:262,2,42.25,2|2|2,1:2|0:0|0:0,0:0:0:0:
338,157,34114,2,0,P|329:115|344:74,1,84.5,10|2,1:2|0:0,0:0:0:0:
375,39,34496,1,0,0:0:0:0:
375,39,34623,6,0,L|274:28,1,84.5,2|2,1:2|0:0,0:0:0:0:
211,92,35131,2,0,L|115:105,1,84.5,8|2,1:2|0:0,0:0:0:0:
87,80,35513,1,2,0:0:0:0:
87,80,35640,2,0,P|66:77|47:86,1,42.25,2|2,1:2|0:0,0:0:0:0:
24,131,35894,2,0,P|21:151|30:170,1,42.25,2|2,0:0|0:0,0:0:0:0:
64,208,36148,2,0,P|70:249|55:288,1,84.5,10|2,1:2|0:0,0:0:0:0:
134,351,36657,6,0,L|229:340,1,84.5,2|2,1:2|0:0,0:0:0:0:
298,279,37165,1,8,1:2:0:0:
298,279,37292,2,0,L|304:236,2,42.25,0|2|2,0:0|0:0|0:0,0:0:0:0:
337,310,37674,2,0,P|374:321|419:297,1,84.5,2|2,1:2|0:0,0:0:0:0:
436,258,38055,1,2,0:0:0:0:
436,258,38182,2,0,L|425:171,1,84.5,10|2,1:2|0:0,0:0:0:0:
444,129,38563,1,2,0:0:0:0:
444,129,38691,5,2,1:2:0:0:
386,44,38945,1,2,0:0:0:0:
308,109,39199,2,0,P|260:116|220:95,1,84.5,10|2,1:2|0:0,0:0:0:0:
210,59,39580,1,2,0:0:0:0:
210,59,39708,2,0,L|162:65,1,42.25,2|2,1:2|0:0,0:0:0:0:
119,49,39962,2,0,L|71:43,1,42.25,2|2,0:0|0:0,0:0:0:0:
39,77,40216,2,0,L|48:172,1,84.5,10|2,1:2|0:0,0:0:0:0:
23,207,40597,1,2,0:0:0:0:
23,207,40724,6,0,P|63:196|101:212,1,84.5,2|2,1:2|0:0,0:0:0:0:
161,294,41233,2,0,L|256:284,1,84.5,8|2,1:2|0:0,0:0:0:0:
288,257,41614,1,2,0:0:0:0:
288,257,41741,2,0,L|373:265,1,84.5,2|2,1:2|0:0,0:0:0:0:
445,194,42250,2,0,P|448:164|443:155,1,42.25,10|2,1:2|0:0,0:0:0:0:
403,122,42504,2,0,P|400:92|405:83,1,42.25,2|2,0:0|0:0,0:0:0:0:
425,35,42758,6,0,L|324:50,1,84.5,2|2,1:2|0:0,0:0:0:0:
248,6,43267,2,0,B|229:23|229:23|241:81,1,84.5,10|2,1:2|0:0,0:0:0:0:
292,167,43775,2,0,P|305:217|288:259,1,84.5,2|2,1:2|0:0,0:0:0:0:
257,279,44157,1,0,0:0:0:0:
257,279,44284,2,0,P|207:266|165:283,1,84.5,10|2,1:2|0:0,0:0:0:0:
83,313,44792,6,0,L|73:263,1,42.25,2|0,1:2|0:0,0:0:0:0:
98,226,45046,1,2,0:0:0:0:
25,154,45301,2,0,P|16:126|19:110,1,42.25,8|0,1:2|0:0,0:0:0:0:
50,74,45555,1,2,0:0:0:0:
137,22,45809,2,0,L|235:32,1,84.5,2|2,1:2|0:0,0:0:0:0:
266,5,46191,1,2,0:0:0:0:
266,5,46318,2,0,P|258:42|278:94,1,84.5,8|2,0:0|0:0,0:0:0:0:
348,152,46826,6,0,P|356:189|336:241,1,84.5,10|2,1:2|0:0,0:0:0:0:
261,268,47208,5,2,0:0:0:0:
261,268,47335,2,0,P|253:231|273:179,1,84.5,10|2,1:2|0:0,0:0:0:0:
343,232,47716,5,2,0:0:0:0:
343,232,47843,2,0,P|351:269|331:321,1,84.5,10|2,1:2|0:0,0:0:0:0:
261,268,48224,5,2,0:0:0:0:
261,268,48352,2,0,L|206:263,1,42.25,10|10,1:2|0:0,0:0:0:0:
135,256,48606,1,10,0:0:0:0:
40,143,48860,5,6,1:2:0:0:
175,71,49114,2,0,B|76:84|114:29|1:49,1,169,2|2,0:0|0:0,0:0:0:0:
40,143,49877,2,0,L|52:235,1,84.5,2|2,1:2|0:0,0:0:0:0:
27,273,50258,1,0,0:0:0:0:
27,273,50385,2,0,L|15:365,1,84.5,8|2,1:2|0:0,0:0:0:0:
114,380,50894,5,2,1:2:0:0:
183,306,51148,2,0,P|223:296|268:323,1,84.5,2|8,0:0|1:2,0:0:0:0:
336,380,51657,1,2,0:0:0:0:
403,304,51911,6,0,L|391:212,1,84.5,2|2,1:2|0:0,0:0:0:0:
358,189,52292,1,0,0:0:0:0:
358,189,52419,2,0,L|370:97,1,84.5,8|2,1:2|0:0,0:0:0:0:
281,52,52928,6,0,P|238:70|196:58,1,84.5,2|2,1:2|0:0,0:0:0:0:
170,29,53309,1,0,0:0:0:0:
170,29,53436,2,0,P|188:72|176:114,1,84.5,8|2,1:2|0:0,0:0:0:0:
93,160,53945,6,0,L|85:251,1,84.5,2|2,1:2|0:0,0:0:0:0:
57,286,54326,1,0,0:0:0:0:
57,286,54453,2,0,L|142:293,1,84.5,8|2,1:2|0:0,0:0:0:0:
208,216,54962,6,0,P|244:205|291:232,1,84.5,2|2,1:2|0:0,0:0:0:0:
352,299,55470,1,8,1:2:0:0:
382,269,55597,1,2,0:0:0:0:
422,258,55724,1,2,0:0:0:0:
463,265,55852,1,2,0:0:0:0:
497,288,55979,2,0,L|488:203,1,84.5,2|2,1:2|0:0,0:0:0:0:
484,157,56360,1,0,0:0:0:0:
484,157,56487,2,0,P|439:169|405:144,1,84.5,8|2,1:2|0:0,0:0:0:0:
356,63,56996,5,6,0:0:0:0:
66,265,63097,6,0,L|56:213,2,42.25,10|2|2,1:2|0:0|0:0,0:0:0:0:
136,320,63479,5,2,0:0:0:0:
136,320,63606,2,0,L|126:372,2,42.25,10|2|2,1:2|0:0|0:0,0:0:0:0:
180,249,63987,5,2,0:0:0:0:
180,249,64114,2,0,L|170:197,2,42.25,10|2|10,1:2|0:0|0:0,0:0:0:0:
253,300,64496,1,2,0:0:0:0:
300,229,64623,5,10,1:2:0:0:
300,229,65131,6,0,L|308:136,1,84.5,6|2,1:2|0:0,0:0:0:0:
245,93,65513,1,0,0:0:0:0:
245,93,65640,2,0,L|237:0,1,84.5,10|2,1:2|0:0,0:0:0:0:
284,241,66148,6,0,L|292:148,1,84.5,2|2,1:2|0:0,0:0:0:0:
229,105,66530,1,0,0:0:0:0:
229,105,66657,2,0,L|221:12,1,84.5,10|0,1:2|0:0,0:0:0:0:
67,88,67165,6,0,P|59:121|68:147,2,42.25,2|2|2,1:2|0:0|0:0,0:0:0:0:
141,127,67546,1,0,0:0:0:0:
141,127,67674,2,0,P|148:176|127:220,1,84.5,10|2,1:2|0:0,0:0:0:0:
69,362,68182,6,0,P|62:313|83:269,1,84.5,2|2,1:2|0:0,0:0:0:0:
145,328,68563,1,0,0:0:0:0:
145,328,68691,2,0,L|231:315,1,84.5,10|0,1:2|0:0,0:0:0:0:
383,247,69199,6,0,P|405:209|393:162,1,84.5,2|2,1:2|0:0,0:0:0:0:
320,152,69580,1,2,0:0:0:0:
320,152,69708,2,0,P|298:190|310:237,1,84.5,10|2,1:2|0:0,0:0:0:0:
184,347,70216,6,0,P|189:305|168:270,1,84.5,2|2,1:2|0:0,0:0:0:0:
90,289,70597,1,0,0:0:0:0:
90,289,70724,2,0,P|84:330|105:365,1,84.5,10|0,1:2|0:0,0:0:0:0:
42,207,71233,6,0,P|23:219|3:221,2,42.25,2|2|2,1:2|0:0|0:0,0:0:0:0:
101,145,71614,1,0,0:0:0:0:
101,145,71741,2,0,P|146:141|185:173,1,84.5,10|2,1:2|0:0,0:0:0:0:
311,59,72250,6,0,L|305:12,1,42.25,2|0,1:2|0:0,0:0:0:0:
398,69,72504,2,0,L|392:22,1,42.25,10|0,1:2|0:0,0:0:0:0:
467,123,72758,2,0,L|455:213,1,84.5,10|0,1:2|0:0,0:0:0:0:
356,343,73267,6,0,P|361:310|357:291,1,42.25,6|0,1:2|0:0,0:0:0:0:
277,315,73521,2,0,P|265:284|252:270,1,42.25,2|0,0:0|0:0,0:0:0:0:
195,332,73775,2,0,P|159:319|109:336,1,84.5,10|2,1:2|0:0,0:0:0:0:
4,203,74284,6,0,L|59:212,1,42.25,2|0,1:2|0:0,0:0:0:0:
99,143,74538,2,0,L|154:134,1,42.25,2|0,0:0|0:0,0:0:0:0:
208,189,74792,2,0,P|228:146|214:94,1,84.5,10|0,1:2|0:0,0:0:0:0:
390,89,75301,6,0,L|381:42,2,42.25,2|2|2,1:2|0:0|0:0,0:0:0:0:
464,49,75682,1,2,0:0:0:0:
464,49,75809,2,0,L|473:2,2,42.25,10|2|2,1:2|0:0|0:0,0:0:0:0:
335,159,76318,5,2,1:2:0:0:
467,264,76572,2,0,P|488:266|506:277,1,42.25,2|0,0:0|0:0,0:0:0:0:
460,348,76826,2,0,P|420:372|366:363,1,84.5,10|0,1:2|0:0,0:0:0:0:
259,254,77335,6,0,L|266:203,2,42.25,2|2|2,1:2|0:0|0:0,0:0:0:0:
132,366,77843,2,0,P|81:373|35:336,1,84.5,10|2,1:2|0:0,0:0:0:0:
20,284,78224,1,2,0:0:0:0:
20,284,78352,2,0,L|11:195,1,84.5,2|2,1:2|0:0,0:0:0:0:
100,56,78860,2,0,B|174:48|148:85|237:70,1,126.75,10|0,1:2|0:0,0:0:0:0:
300,110,79369,6,0,P|290:167|307:198,1,84.5,10|2,1:2|0:0,0:0:0:0:
376,151,79750,5,2,0:0:0:0:
376,151,79877,2,0,P|386:94|369:63,1,84.5,10|2,1:2|0:0,0:0:0:0:
300,30,80258,5,2,0:0:0:0:
300,30,80385,2,0,P|290:87|307:118,1,84.5,10|2,1:2|0:0,0:0:0:0:
376,71,80767,5,2,0:0:0:0:
376,71,80894,2,0,L|432:77,1,42.25,10|10,1:2|0:0,0:0:0:0:
502,86,81148,1,10,0:0:0:0:
502,254,81402,6,0,B|408:233|439:290|328:269,1,169,2|10,1:2|1:2,0:0:0:0:
176,167,82419,1,2,1:2:0:0:
205,137,82546,1,2,0:0:0:0:
216,95,82674,1,2,0:0:0:0:
203,54,82801,1,2,0:0:0:0:
172,26,82928,2,0,L|85:39,1,84.5,10|2,1:2|0:0,0:0:0:0:
29,121,83436,6,0,P|21:172|45:212,1,84.5,2|2,1:2|0:0,0:0:0:0:
82,289,83945,1,10,1:2:0:0:
171,242,84199,1,2,0:0:0:0:
227,326,84453,2,0,L|329:331,1,84.5,2|2,1:2|0:0,0:0:0:0:
354,356,84835,1,0,0:0:0:0:
354,356,84962,2,0,P|340:315|349:273,1,84.5,10|2,1:2|0:0,0:0:0:0:
405,192,85470,6,0,P|325:174|260:224,1,169,2|8,1:2|1:2,0:0:0:0:
107,90,86487,2,0,L|97:36,2,42.25,2|2|2,1:2|0:0|0:0,0:0:0:0:
46,170,86996,2,0,L|34:254,1,84.5,10|2,1:2|0:0,0:0:0:0:
53,300,87377,1,2,0:0:0:0:
53,300,87504,5,2,1:2:0:0:
135,358,87758,1,2,0:0:0:0:
209,289,88013,2,0,P|219:248|209:208,1,84.5,10|2,1:2|0:0,0:0:0:0:
191,107,88521,2,0,L|286:96,1,84.5,2|2,1:2|0:0,0:0:0:0:
318,70,88902,1,0,0:0:0:0:
318,70,89030,2,0,L|311:164,1,84.5,10|2,1:2|0:0,0:0:0:0:
405,246,89538,6,0,B|389:185|433:134|488:108|532:150|541:218|470:231,1,253.5,2|0,1:2|0:0,0:0:0:0:
488,225,90555,6,0,L|478:135,1,84.5,2|2,1:2|0:0,0:0:0:0:
485,94,90936,1,0,0:0:0:0:
485,94,91063,2,0,P|443:104|387:73,1,84.5,10|2,1:2|0:0,0:0:0:0:
332,19,91572,5,0,1:2:0:0:
264,94,91826,1,2,0:0:0:0:
186,28,92080,2,0,L|98:43,1,84.5,10|2,1:2|0:0,0:0:0:0:
44,125,92589,2,0,P|34:169|54:208,1,84.5,2|10,1:2|1:2,0:0:0:0:
91,240,92970,1,0,0:0:0:0:
91,240,93097,2,0,L|175:250,1,84.5,10|2,1:2|0:0,0:0:0:0:
246,321,93606,6,0,B|341:338|321:282|412:300,1,169,2|10,1:2|1:2,0:0:0:0:
489,113,94623,2,0,P|449:136|410:128,1,84.5,2|2,1:2|0:0,0:0:0:0:
382,95,95004,1,0,0:0:0:0:
382,95,95131,2,0,L|286:79,1,84.5,10|2,1:2|0:0,0:0:0:0:
161,59,95640,6,0,P|160:29|152:13,2,42.25,10|2|2,1:2|0:0|0:0,0:0:0:0:
107,124,96021,5,2,0:0:0:0:
107,124,96148,2,0,P|80:109|62:108,2,42.25,10|2|2,1:2|0:0|0:0,0:0:0:0:
137,203,96530,5,2,0:0:0:0:
137,203,96657,2,0,P|111:218|101:233,2,42.25,10|2|10,1:2|0:0|0:0,0:0:0:0:
220,216,97038,5,2,0:0:0:0:
169,284,97165,2,0,L|173:326,2,42.25,10|10|10,1:2|0:0|0:0,0:0:0:0:
169,284,97674,6,0,P|255:265|328:319,1,169,2|10,1:2|1:2,0:0:0:0:
486,266,98691,1,2,1:2:0:0:
498,225,98818,1,2,0:0:0:0:
487,184,98945,1,2,0:0:0:0:
458,152,99072,1,2,0:0:0:0:
418,138,99199,2,0,L|371:148,2,42.25,10|2|2,1:2|0:0|0:0,0:0:0:0:
418,36,99708,6,0,P|370:20|335:36,1,84.5,2|0,1:2|0:0,0:0:0:0:
250,79,100216,1,10,1:2:0:0:
250,79,100343,1,2,0:0:0:0:
250,79,100470,1,2,0:0:0:0:
294,170,100724,2,0,L|281:257,1,84.5,2|2,1:2|0:0,0:0:0:0:
248,292,101106,1,2,0:0:0:0:
248,292,101233,2,0,P|244:331|253:347,2,42.25,10|2|2,1:2|0:0|0:0,0:0:0:0:
346,316,101741,6,0,P|390:306|430:330,1,84.5,2|0,1:2|0:0,0:0:0:0:
492,248,102250,2,0,L|484:206,2,42.25,8|2|2,1:2|0:0|0:0,0:0:0:0:
388,217,102758,2,0,L|398:125,1,84.5,2|2,1:2|0:0,0:0:0:0:
429,94,103140,1,2,0:0:0:0:
429,94,103267,2,0,P|463:93|483:115,2,42.25,10|2|2,1:2|0:0|0:0,0:0:0:0:
340,44,103775,6,0,P|298:38|257:66,1,84.5,2|0,1:2|0:0,0:0:0:0:
192,131,104284,1,10,1:2:0:0:
104,79,104538,1,2,0:0:0:0:
192,131,104792,2,0,L|181:223,1,84.5,2|0,1:2|0:0,0:0:0:0:
156,260,105174,1,0,0:0:0:0:
156,260,105301,2,0,L|168:350,1,84.5,8|0,1:2|0:0,0:0:0:0:
280,384,105809,5,6,0:0:0:0:
172,151,113436,6,0,P|193:146|217:161,1,42.25,8|0,0:0|0:0,0:0:0:0:
212,155,113945,6,0,L|204:248,1,84.5,6|2,1:2|0:0,0:0:0:0:
293,244,114326,1,0,0:0:0:0:
293,244,114453,2,0,L|301:151,1,84.5,10|2,1:2|0:0,0:0:0:0:
116,234,114962,6,0,L|108:327,1,84.5,2|2,1:2|0:0,0:0:0:0:
197,323,115343,1,0,0:0:0:0:
197,323,115470,2,0,L|205:230,1,84.5,10|0,1:2|0:0,0:0:0:0:
94,124,115979,5,2,1:2:0:0:
94,124,116106,1,2,0:0:0:0:
94,124,116233,2,0,P|86:91|95:65,1,42.25,2|0,0:0|0:0,0:0:0:0:
144,20,116487,2,0,L|239:30,1,84.5,10|2,1:2|0:0,0:0:0:0:
376,108,116996,6,0,P|383:157|362:201,1,84.5,2|2,1:2|0:0,0:0:0:0:
311,249,117377,1,0,0:0:0:0:
311,249,117504,2,0,L|225:236,1,84.5,10|0,1:2|0:0,0:0:0:0:
63,276,118013,6,0,P|41:314|53:361,1,84.5,2|2,1:2|0:0,0:0:0:0:
126,371,118394,1,2,0:0:0:0:
126,371,118521,2,0,P|148:333|136:286,1,84.5,10|2,1:2|0:0,0:0:0:0:
60,117,119030,6,0,P|38:155|50:202,1,84.5,2|2,1:2|0:0,0:0:0:0:
123,212,119411,1,0,0:0:0:0:
123,212,119538,2,0,P|145:174|133:127,1,84.5,10|0,1:2|0:0,0:0:0:0:
280,42,120046,5,2,1:2:0:0:
280,42,120174,1,2,0:0:0:0:
280,42,120301,2,0,P|299:30|319:28,1,42.25,2|0,0:0|0:0,0:0:0:0:
392,69,120555,2,0,L|380:155,1,84.5,10|2,1:2|0:0,0:0:0:0:
271,282,121063,6,0,L|277:329,1,42.25,2|0,1:2|0:0,0:0:0:0:
191,380,121318,2,0,L|185:338,1,42.25,10|0,0:0|0:0,0:0:0:0:
105,291,121572,2,0,P|91:330|101:370,1,84.5,10|0,1:2|0:0,0:0:0:0:
276,323,122080,6,0,P|309:328|328:324,1,42.25,6|0,1:2|0:0,0:0:0:0:
304,244,122335,2,0,P|335:232|349:219,1,42.25,2|0,0:0|0:0,0:0:0:0:
287,162,122589,2,0,P|300:126|283:76,1,84.5,10|2,1:2|0:0,0:0:0:0:
216,38,122970,1,2,0:0:0:0:
216,38,123097,6,0,L|161:29,1,42.25,2|0,1:2|0:0,0:0:0:0:
138,107,123352,2,0,L|96:113,1,42.25,2|0,0:0|0:0,0:0:0:0:
31,59,123606,2,0,P|11:102|25:154,1,84.5,10|0,1:2|0:0,0:0:0:0:
95,285,124114,5,2,1:2:0:0:
95,285,124241,1,2,0:0:0:0:
95,285,124369,2,0,P|99:324|90:348,1,42.25,2|2,0:0|0:0,0:0:0:0:
29,376,124623,1,10,1:2:0:0:
29,376,124750,1,2,0:0:0:0:
29,376,124877,1,2,0:0:0:0:
181,302,125131,5,2,1:2:0:0:
53,191,125385,2,0,P|32:189|14:178,1,42.25,2|0,0:0|0:0,0:0:0:0:
62,108,125640,2,0,L|156:93,1,84.5,10|0,1:2|0:0,0:0:0:0:
311,59,126148,6,0,L|323:18,2,42.25,2|2|2,1:2|0:0|0:0,0:0:0:0:
205,191,126657,2,0,P|198:242|235:288,1,84.5,8|2,1:2|0:0,0:0:0:0:
285,323,127038,1,2,0:0:0:0:
285,323,127165,2,0,L|374:311,1,84.5,2|2,1:2|0:0,0:0:0:0:
401,173,127674,2,0,B|327:181|353:144|264:159,1,126.75,10|0,1:2|0:0,0:0:0:0:
201,119,128182,6,0,P|211:62|194:31,1,84.5,10|2,1:2|0:0,0:0:0:0:
125,78,128563,5,2,0:0:0:0:
125,78,128691,2,0,P|115:135|132:166,1,84.5,8|2,1:2|0:0,0:0:0:0:
208,121,129072,5,2,0:0:0:0:
208,121,129199,2,0,P|218:64|201:33,1,84.5,10|2,1:2|0:0,0:0:0:0:
125,78,129580,5,2,0:0:0:0:
125,78,129708,2,0,L|69:72,1,42.25,10|10,1:2|0:0,0:0:0:0:
1,142,129962,1,10,0:0:0:0:
90,332,130216,6,0,B|185:314|159:374|266:354,1,169,2|8,1:2|1:2,0:0:0:0:
342,306,130979,2,0,P|348:278|342:259,1,42.25,2|2,0:0|0:0,0:0:0:0:
311,226,131233,2,0,P|298:188|318:132,1,84.5,2|2,1:2|0:0,0:0:0:0:
367,63,131741,2,0,L|466:78,1,84.5,10|2,1:2|0:0,0:0:0:0:
508,158,132250,5,2,1:2:0:0:
462,248,132504,2,0,L|363:263,1,84.5,2|8,0:0|1:2,0:0:0:0:
328,351,133013,1,2,0:0:0:0:
328,351,133140,1,2,0:0:0:0:
328,351,133267,2,0,P|278:370|241:360,1,84.5,2|10,1:2|1:2,0:0:0:0:
186,284,133775,2,0,B|116:275|133:309|61:297,1,126.75,10|0,1:2|0:0,0:0:0:0:
29,257,134284,6,0,L|41:173,1,84.5,2|2,1:2|0:0,0:0:0:0:
118,107,134792,2,0,P|151:129|202:121,1,84.5,8|2,1:2|0:0,0:0:0:0:
224,85,135174,1,2,0:0:0:0:
224,85,135301,2,0,P|257:63|308:71,1,84.5,2|2,1:2|0:0,0:0:0:0:
376,133,135809,2,0,L|363:216,1,84.5,10|0,1:2|0:0,0:0:0:0:
306,300,136318,5,2,1:2:0:0:
225,238,136572,1,2,0:0:0:0:
306,300,136826,2,0,P|342:320|383:314,1,84.5,10|2,1:2|0:0,0:0:0:0:
424,284,137208,1,2,0:0:0:0:
424,284,137335,5,2,1:2:0:0:
509,228,137589,1,10,1:2:0:0:
424,284,137843,2,0,L|408:194,1,84.5,10|0,1:2|0:0,0:0:0:0:
313,85,138352,6,0,B|222:99|240:44|148:63,1,169,2|8,1:2|1:2,0:0:0:0:
76,133,139114,2,0,L|85:187,1,42.25,2|2,0:0|0:0,0:0:0:0:
91,224,139369,2,0,P|132:214|177:241,1,84.5,2|2,1:2|0:0,0:0:0:0:
244,299,139877,2,0,L|237:362,1,42.25,8|0,1:2|0:0,0:0:0:0:
203,377,140131,1,2,0:0:0:0:
334,325,140385,6,0,L|342:240,1,84.5,2|0,1:2|0:0,0:0:0:0:
295,150,140894,2,0,P|259:129|207:140,1,84.5,8|2,1:2|0:0,0:0:0:0:
183,170,141275,1,2,0:0:0:0:
183,170,141402,2,0,P|147:191|95:180,1,84.5,2|10,1:2|1:2,0:0:0:0:
15,139,141911,2,0,L|2:234,1,84.5,10|0,1:2|0:0,0:0:0:0:
68,300,142419,6,0,B|167:283|132:344|247:327,1,169,2|8,1:2|1:2,0:0:0:0:
325,363,143182,2,0,L|383:376,1,42.25,2|2,0:0|0:0,0:0:0:0:
410,347,143436,2,0,P|424:309|410:259,1,84.5,2|2,1:2|0:0,0:0:0:0:
337,201,143945,2,0,L|323:114,1,84.5,8|0,1:2|0:0,0:0:0:0:
309,8,144453,6,0,L|368:18,2,42.25,10|2|2,1:2|0:0|0:0,0:0:0:0:
247,72,144835,5,2,0:0:0:0:
247,72,144962,2,0,L|188:82,2,42.25,10|2|2,1:2|0:0|0:0,0:0:0:0:
323,117,145343,5,2,0:0:0:0:
323,117,145470,2,0,L|365:124,1,42.25,10|2,1:2|0:0,0:0:0:0:
262,189,145724,2,0,L|221:196,1,42.25,10|2,0:0|0:0,0:0:0:0:
323,269,145979,5,10,1:2:0:0:
323,269,146106,1,0,0:0:0:0:
323,269,146233,1,10,0:0:0:0:
323,117,146487,5,6,1:2:0:0:
