osu file format v14

[General]
AudioFilename: audio.mp3
AudioLeadIn: 0
PreviewTime: 65124
Countdown: 0
SampleSet: Soft
StackLeniency: 0.3
Mode: 0
LetterboxInBreaks: 0
WidescreenStoryboard: 1

[Editor]
Bookmarks: 82412,98683,105039
DistanceSpacing: 0.9
BeatDivisor: 4
GridSize: 4
TimelineZoom: 2.799999

[Metadata]
Title:yoga
TitleUnicode:yoga
Artist:bbno$ & Rebecca Black
ArtistUnicode:bbno$ & Rebecca Black
Creator:Bakugo-
Version:bakugo- x gazza's normal
Source:
Tags:female male vocals collab rap hip hop hiphop collaboration vocalist vocalists gaz pop eat ya veggies bbno bakugo gokugohan12468 gokugohan kittyadventure thexo tadahitotsu gazza arronchu1207 chu arronchu xandeez nuts pokey [Poke] english gigarobloxian21 ft featuring feat
BeatmapID:3267059
BeatmapSetID:1596017

[Difficulty]
HPDrainRate:4
CircleSize:3.5
OverallDifficulty:3.6
ApproachRate:6
SliderMultiplier:1.4
SliderTickRate:1

[Events]
//Background and Video events
0,0,"anime-scenery-sunset-anime-school-girl-clouds-artwork-anime.jpeg",0,0
Video,65,"bbno__Rebecca_Black_-_yoga_Official_Video_edit.mp4"
//Break Periods
2,57195,61890
2,106009,110704
//Storyboard Layer 0 (Background)
//Storyboard Layer 1 (Fail)
//Storyboard Layer 2 (Pass)
//Storyboard Layer 3 (Foreground)
//Storyboard Layer 4 (Overlay)
//Storyboard Sound Samples

[TimingPoints]
47,508.474576271186,4,2,1,60,1,0
16318,-100,4,2,1,60,0,0
58902,-100,4,2,1,5,0,0
59029,-100,4,2,1,60,0,0
60936,-100,4,2,1,5,0,0
61063,-100,4,2,1,60,0,0
62970,-100,4,2,1,5,0,0
63097,-100,4,2,1,60,0,0
65131,-100,4,2,1,86,0,0
81402,-100,4,2,1,75,0,0
97673,-100,4,2,1,70,0,0
105809,-100,4,2,1,60,0,0
107716,-100,4,2,1,5,0,0
107843,-100,4,2,1,60,0,0
109750,-100,4,2,1,5,0,0
109877,-100,4,2,1,60,0,0
111911,-100,4,2,1,65,0,0
113945,-100,4,2,1,86,0,0
130216,-100,4,2,1,75,0,0

[Colours]
Combo1 : 255,128,192
Combo2 : 128,128,255
Combo3 : 255,181,106
Combo4 : 192,192,192

[HitObjects]
80,77,16318,6,0,B|133:71|133:71|168:84|168:84|234:76,1,140,2|10,1:2|1:2,0:0:0:0:
294,177,17334,2,0,B|228:206|228:206|164:160,1,140,2|10,1:2|1:2,0:0:0:0:
52,173,18351,5,2,1:2:0:0:
52,173,18606,2,0,B|34:207|34:207|43:247,1,70,2|10,0:0|1:2,0:0:0:0:
83,293,19114,1,2,0:0:0:0:
83,293,19368,2,0,B|153:283|153:283|207:335,1,140,2|10,1:2|1:2,0:0:0:0:
338,361,20385,6,0,B|390:328|390:328|342:240,1,140,2|10,1:2|1:2,0:0:0:0:
281,154,21402,2,0,P|314:133|351:124,1,70,2|2,1:2|0:0,0:0:0:0:
406,127,21911,1,10,1:2:0:0:
323,32,22419,6,0,B|284:12|235:30|264:43|226:69|165:42,1,140,2|10,1:2|1:2,0:0:0:0:
133,42,23182,1,2,0:0:0:0:
133,42,23436,2,0,P|119:75|123:120,1,70,2|10,1:2|1:2,0:0:0:0:
151,171,23945,1,10,1:2:0:0:
254,242,24453,6,0,B|280:213|280:213|273:168,2,70,2|2|10,1:2|0:0|1:2,0:0:0:0:
207,284,25216,1,2,0:0:0:0:
207,284,25470,2,0,B|264:290|264:290|286:311|286:311|355:320,1,140,2|10,1:2|1:2,0:0:0:0:
455,362,26487,6,0,B|474:308|474:308|446:208,1,140,2|10,1:2|1:2,0:0:0:0:
352,112,27504,2,0,B|386:94|386:94|426:106,1,70,2|2,1:2|0:0,0:0:0:0:
478,135,28012,1,10,1:2:0:0:
350,192,28521,6,0,P|292:167|273:82,1,140,2|10,1:2|1:2,0:0:0:0:
143,35,29538,2,0,P|125:76|98:90,1,70,2|2,1:2|0:0,0:0:0:0:
38,111,30046,1,10,1:2:0:0:
69,247,30555,6,0,L|143:234,1,70,10|2,1:2|0:0,0:0:0:0:
205,215,31063,2,0,L|273:227,1,70,10|2,1:2|0:0,0:0:0:0:
335,261,31572,1,10,1:2:0:0:
378,206,31826,1,2,0:0:0:0:
342,145,32080,1,10,1:2:0:0:
220,76,32589,6,0,B|191:53|152:69|164:82|119:99|87:69,1,140,6|8,1:2|1:2,0:0:0:0:
31,198,33606,2,0,P|70:189|103:196,1,70,2|2,1:2|0:0,0:0:0:0:
158,231,34114,2,0,P|192:236|225:227,1,70,10|2,1:2|0:0,0:0:0:0:
282,185,34623,2,0,B|310:225|310:225|270:333,1,140,2|8,1:2|1:2,0:0:0:0:
418,305,35640,6,0,P|437:268|439:236,1,70,2|2,1:2|0:0,0:0:0:0:
401,181,36148,2,0,P|405:146|422:116,1,70,10|2,1:2|0:0,0:0:0:0:
480,76,36656,1,2,1:2:0:0:
432,24,36911,2,0,B|397:35|397:35|349:27,1,70,2|8,0:0|1:2,0:0:0:0:
225,14,37673,6,0,L|212:88,1,70,2|2,1:2|0:0,0:0:0:0:
168,137,38182,2,0,L|180:205,1,70,10|2,1:2|0:0,0:0:0:0:
197,273,38690,1,2,1:2:0:0:
331,312,39199,6,0,P|389:346|454:326,1,140,10|2,1:2|1:2,0:0:0:0:
483,262,39962,1,2,0:0:0:0:
452,199,40216,2,0,P|440:157|446:123,1,70,10|2,1:2|0:0,0:0:0:0:
455,62,40724,1,2,1:2:0:0:
391,32,40979,1,2,0:0:0:0:
254,63,41487,6,0,L|242:15,2,35,2|2|2,0:0|0:0|1:2,0:0:0:0:
275,129,41995,1,2,0:0:0:0:
248,194,42250,2,0,B|230:229|230:229|239:273,1,70,10|2,1:2|0:0,0:0:0:0:
262,323,42758,1,2,1:2:0:0:
127,363,43267,1,10,1:2:0:0:
81,230,43775,6,0,B|44:218|44:218|14:233,2,70,2|2|10,1:2|0:0|1:2,0:0:0:0:
136,272,44538,1,2,0:0:0:0:
136,272,44792,1,2,1:2:0:0:
145,146,45301,1,8,1:2:0:0:
263,188,45809,2,0,P|300:172|328:142,2,70,2|2|8,1:2|0:0|0:0,0:0:0:0:
256,192,46826,12,10,47843,1:2:0:0:
123,75,48860,6,0,B|193:56|193:56|252:110,1,140,6|10,1:2|1:2,0:0:0:0:
284,157,49623,1,2,0:0:0:0:
325,213,49877,2,0,B|326:251|326:251|297:272,1,70,2|2,1:2|0:0,0:0:0:0:
243,310,50385,1,8,1:2:0:0:
111,357,50894,6,0,B|87:323|87:323|96:195,1,140,2|8,1:2|1:2,0:0:0:0:
102,155,51656,1,2,0:0:0:0:
152,106,51911,2,0,P|197:95|230:103,1,70,2|2,1:2|0:0,0:0:0:0:
277,137,52419,1,8,1:2:0:0:
387,223,52928,6,0,B|398:170|398:170|410:154|410:154|424:82,1,140,2|8,1:2|1:2,0:0:0:0:
398,23,53690,1,2,0:0:0:0:
327,26,53945,2,0,L|250:17,1,70,2|2,1:2|0:0,0:0:0:0:
190,38,54453,1,8,1:2:0:0:
119,159,54962,6,0,B|91:201|91:201|122:300,1,140,2|8,1:2|1:2,0:0:0:0:
176,326,55724,1,2,0:0:0:0:
245,336,55979,2,0,P|287:324|327:331,1,70,2|2,1:2|0:0,0:0:0:0:
372,362,56487,2,0,P|406:363|439:352,1,70,8|2,1:2|0:0,0:0:0:0:
485,299,56995,1,6,0:0:0:0:
256,192,63097,12,10,64114,1:2:0:0:
247,63,65131,6,0,L|197:56,2,35,6|2|2,1:2|0:0|0:0,0:0:0:0:
317,58,65640,2,0,B|329:93|329:93|316:134,1,70,10|2,1:2|0:0,0:0:0:0:
288,187,66148,1,2,1:2:0:0:
336,237,66402,1,2,0:0:0:0:
401,211,66656,1,10,1:2:0:0:
347,340,67165,6,0,L|384:332,2,35,2|2|2,1:2|0:0|0:0,0:0:0:0:
278,354,67673,2,0,B|236:356|236:356|206:329,1,70,10|2,1:2|0:0,0:0:0:0:
171,282,68182,1,2,1:2:0:0:
124,229,68436,1,2,0:0:0:0:
54,234,68690,1,10,1:2:0:0:
91,99,69199,6,0,P|129:88|164:92,1,70,2|2,1:2|0:0,0:0:0:0:
212,135,69707,2,0,P|246:137|279:126,1,70,10|2,1:2|0:0,0:0:0:0:
343,96,70216,1,2,1:2:0:0:
379,155,70470,1,2,0:0:0:0:
360,222,70724,1,10,1:2:0:0:
234,285,71233,6,0,L|226:243,2,35,2|2|2,1:2|0:0|0:0,0:0:0:0:
277,339,71741,2,0,B|317:328|317:328|359:348,1,70,10|2,1:2|0:0,0:0:0:0:
403,374,72250,1,2,1:2:0:0:
427,315,72504,1,10,1:2:0:0:
450,256,72758,1,10,1:2:0:0:
366,161,73267,6,0,B|350:124|350:124|361:96,2,70,6|2|10,1:2|0:0|1:2,0:0:0:0:
334,217,74029,1,2,0:0:0:0:
267,194,74284,2,0,P|227:187|187:205,1,70,2|2,1:2|0:0,0:0:0:0:
154,249,74792,1,10,1:2:0:0:
54,149,75301,6,0,P|76:120|113:103,1,70,2|2,1:2|0:0,0:0:0:0:
175,109,75809,2,0,P|205:92|226:64,1,70,10|2,1:2|0:0,0:0:0:0:
276,16,76317,1,2,1:2:0:0:
341,40,76572,1,2,0:0:0:0:
358,107,76826,1,10,1:2:0:0:
393,242,77334,6,0,P|360:224|322:227,1,70,2|2,1:2|0:0,0:0:0:0:
267,259,77843,2,0,P|232:259|202:241,1,70,10|2,1:2|0:0,0:0:0:0:
146,199,78351,1,2,1:2:0:0:
88,239,78606,1,2,0:0:0:0:
71,306,78860,1,10,1:2:0:0:
256,192,79368,12,10,80894,1:2:0:0:
184,312,82419,6,0,B|194:342|194:342|179:392,2,70,2|2|10,1:2|0:0|1:2,0:0:0:0:
134,262,83182,1,2,0:0:0:0:
82,214,83436,1,2,1:2:0:0:
124,95,83945,1,10,1:2:0:0:
267,76,84453,6,0,B|296:64|296:64|333:75,1,70,2|2,1:2|0:0,0:0:0:0:
382,124,84962,1,10,1:2:0:0:
448,101,85216,1,2,0:0:0:0:
494,152,85470,2,0,B|499:194|460:228|452:201|420:229|423:274,1,140,2|8,1:2|1:2,0:0:0:0:
274,295,86487,6,0,L|257:383,2,70,2|2|10,1:2|0:0|1:2,0:0:0:0:
308,233,87250,1,2,0:0:0:0:
289,165,87504,1,2,1:2:0:0:
176,81,88012,1,10,1:2:0:0:
63,163,88521,6,0,L|22:239,1,70,2|2,1:2|0:0,0:0:0:0:
6,290,89029,1,10,1:2:0:0:
46,346,89284,1,2,0:0:0:0:
114,330,89538,2,0,P|182:312|235:372,1,140,2|10,1:2|1:2,0:0:0:0:
366,322,90555,6,0,P|387:288|426:276,1,70,2|2,1:2|0:0,0:0:0:0:
463,226,91063,1,10,1:2:0:0:
463,226,91317,2,0,B|416:198|416:198|421:103,1,140,2|2,0:0|0:0,0:0:0:0:
427,50,92080,2,0,P|397:44|353:50,1,70,10|2,1:2|0:0,0:0:0:0:
299,86,92589,1,2,1:2:0:0:
240,48,92843,2,0,L|153:38,1,70,10|10,1:2|1:2,0:0:0:0:
168,189,93606,6,0,B|208:225|208:225|175:314,1,140,2|10,1:2|1:2,0:0:0:0:
306,222,94623,2,0,P|284:197|281:154,1,70,2|2,1:2|0:0,0:0:0:0:
328,112,95131,2,0,P|323:77|301:51,1,70,10|2,1:2|0:0,0:0:0:0:
236,23,95640,1,10,1:2:0:0:
256,192,95894,12,10,97165,1:2:0:0:
53,45,98690,6,0,L|4:45,2,35,2|2|2,1:2|0:0|0:0,0:0:0:0:
122,34,99199,1,10,1:2:0:0:
160,92,99453,1,2,0:0:0:0:
229,86,99707,1,2,1:2:0:0:
352,32,100216,6,0,L|366:-17,2,35,10|2|2,1:2|0:0|0:0,0:0:0:0:
373,98,100724,2,0,P|365:134|375:168,1,70,2|2,1:2|0:0,0:0:0:0:
421,216,101233,2,0,L|484:197,2,35,10|2|2,1:2|0:0|0:0,0:0:0:0:
359,248,101741,1,2,1:2:0:0:
267,141,102250,6,0,L|253:92,2,35,8|2|2,1:2|0:0|0:0,0:0:0:0:
203,170,102758,1,2,1:2:0:0:
134,156,103012,1,2,0:0:0:0:
84,205,103267,2,0,P|58:230|43:271,2,70,10|2|2,1:2|0:0|1:2,0:0:0:0:
195,289,104284,6,0,B|228:289|228:289|237:283|237:283|273:284,1,70,10|2,1:2|0:0,0:0:0:0:
332,275,104792,1,2,1:2:0:0:
451,201,105301,1,8,1:2:0:0:
327,134,105809,1,6,0:0:0:0:
256,192,111911,12,0,112928,0:0:0:0:
80,141,113945,6,0,L|27:125,2,35,6|2|2,1:2|0:0|0:0,0:0:0:0:
143,169,114453,2,0,B|154:194|154:194|133:250,1,70,10|2,1:2|0:0,0:0:0:0:
79,271,114962,1,2,1:2:0:0:
17,304,115216,1,2,0:0:0:0:
8,372,115470,1,10,1:2:0:0:
146,349,115979,6,0,L|136:393,2,35,2|2|2,1:2|0:0|0:0,0:0:0:0:
163,281,116487,2,0,P|185:246|233:230,1,70,10|2,1:2|0:0,0:0:0:0:
278,242,116995,1,2,1:2:0:0:
331,287,117250,1,2,0:0:0:0:
399,275,117504,1,10,1:2:0:0:
488,167,118012,6,0,P|511:132|506:87,1,70,2|2,1:2|0:0,0:0:0:0:
470,48,118521,2,0,L|400:30,1,70,10|2,1:2|0:0,0:0:0:0:
332,30,119029,1,2,1:2:0:0:
282,79,119284,1,2,0:0:0:0:
232,29,119538,1,10,1:2:0:0:
94,54,120046,6,0,L|78:17,2,35,2|2|2,1:2|0:0|0:0,0:0:0:0:
63,117,120555,2,0,B|51:153|51:153|58:193,1,70,10|2,1:2|0:0,0:0:0:0:
109,230,121063,1,2,1:2:0:0:
134,287,121317,1,10,0:0:0:0:
160,344,121572,1,10,1:2:0:0:
18,321,122080,6,0,L|1:231,2,70,6|2|10,1:2|0:0|1:2,0:0:0:0:
117,221,123097,2,0,L|134:131,2,70,2|2|10,1:2|0:0|1:2,0:0:0:0:
216,320,124114,6,0,P|251:329|301:304,1,70,2|2,1:2|0:0,0:0:0:0:
335,273,124623,1,10,1:2:0:0:
398,302,124877,1,2,0:0:0:0:
459,335,125131,2,0,P|482:307|486:252,1,70,2|2,1:2|0:0,0:0:0:0:
467,207,125640,1,10,1:2:0:0:
431,64,126148,6,0,B|392:56|392:56|343:80,1,70,2|2,1:2|0:0,0:0:0:0:
313,116,126656,2,0,B|281:131|281:131|244:122,1,70,8|2,1:2|0:0,0:0:0:0:
195,75,127165,1,2,1:2:0:0:
131,46,127419,1,2,0:0:0:0:
69,78,127673,1,10,1:2:0:0:
256,192,128182,12,10,129199,1:2:0:0:
237,273,130216,6,0,B|198:283|181:312|181:312|151:295|97:310,1,140,2|8,1:2|1:2,0:0:0:0:
69,173,131233,2,0,L|-14:160,2,70,2|2|10,1:2|0:0|1:2,0:0:0:0:
168,73,132250,6,0,B|201:97|201:97|250:132|289:90,1,140,2|8,1:2|1:2,0:0:0:0:
407,13,133267,2,0,P|444:11|489:25,2,70,2|10|10,1:2|1:2|1:2,0:0:0:0:
430,151,134284,6,0,B|437:205|437:205|462:240|462:240|474:311,1,140,2|8,1:2|1:2,0:0:0:0:
367,379,135301,2,0,L|348:303,2,70,2|2|10,1:2|0:0|1:2,0:0:0:0:
228,356,136317,6,0,B|209:339|209:339|192:263,1,70,2|2,1:2|0:0,0:0:0:0:
229,232,136826,1,10,1:2:0:0:
180,181,137080,1,2,0:0:0:0:
111,193,137334,2,0,B|101:236|101:236|82:253,1,70,2|10,1:2|1:2,0:0:0:0:
14,235,137843,1,10,1:2:0:0:
2,95,138351,6,0,P|34:41|118:22,1,140,2|8,1:2|1:2,0:0:0:0:
244,19,139368,2,0,L|335:19,2,70,2|2|8,1:2|0:0|1:2,0:0:0:0:
188,176,140385,6,0,B|256:200|256:200|348:164,1,140,2|8,1:2|1:2,0:0:0:0:
452,133,141402,2,0,L|438:201,2,70,2|10|10,1:2|1:2|1:2,0:0:0:0:
383,11,142419,6,0,P|330:49|304:129,1,140,2|8,1:2|1:2,0:0:0:0:
356,246,143436,2,0,B|356:282|333:315,2,70,2|2|8,1:2|0:0|1:2,0:0:0:0:
256,192,144453,12,6,146487,1:2:0:0:
