osu file format v12

[General]
AudioFilename: Perpetual Traumal.mp3
AudioLeadIn: 1000
PreviewTime: 1390
Countdown: 0
SampleSet: None
StackLeniency: 0.7
Mode: 1
LetterboxInBreaks: 0
WidescreenStoryboard: 1

[Editor]
DistanceSpacing: 0.1
BeatDivisor: 4
GridSize: 32

[Metadata]
Title:Perpetual Traumal
TitleUnicode:Perpetual Traumal
Artist:bbn
ArtistUnicode:bbn
Creator:Flower
Version:Taiko Oni
Source:Oblivious Garden
Tags:corypheesoft Carmina Burana Shirotsumekusa Lan Wings
BeatmapID:351836
BeatmapSetID:61819

[Difficulty]
HPDrainRate:5
CircleSize:5
OverallDifficulty:5
ApproachRate:5
SliderMultiplier:1.4
SliderTickRate:1

[Events]
//Background and Video events
0,0,"evlin05_1.jpg",0,0
Video,500,"Perpetual Traumal.flv"
//Break Periods
//Storyboard Layer 0 (Background)
//Storyboard Layer 1 (Fail)
//Storyboard Layer 2 (Pass)
//Storyboard Layer 3 (Foreground)
//Storyboard Sound Samples
//Background Colour Transformations
3,100,163,162,255

[TimingPoints]
11,344.827586206897,4,1,0,65,1,0
2769,-100,4,1,0,65,0,1
13459,-100,4,1,0,65,0,0
81390,-100,4,1,0,65,0,1
103459,-100,4,1,0,65,0,0

[Colours]
Combo1 : 250,16,22
Combo2 : 122,19,225
Combo3 : 49,186,238
Combo4 : 251,228,151

[HitObjects]
256,192,1562,1,0,0:0:0:0:
256,192,1735,1,0,0:0:0:0:
256,192,1907,1,8,0:0:0:0:
256,192,2079,1,0,0:0:0:0:
256,192,2252,1,8,0:0:0:0:
256,192,2597,1,0,0:0:0:0:
256,192,2769,1,4,0:0:0:0:
256,192,2942,1,0,0:0:0:0:
256,192,3028,1,0,0:0:0:0:
256,192,3114,1,8,0:0:0:0:
256,192,3286,1,0,0:0:0:0:
256,192,3373,1,0,0:0:0:0:
256,192,3459,1,0,0:0:0:0:
256,192,3631,1,8,0:0:0:0:
256,192,3717,1,8,0:0:0:0:
256,192,3804,1,0,0:0:0:0:
256,192,3976,1,8,0:0:0:0:
256,192,4148,1,0,0:0:0:0:
256,192,4321,1,0,0:0:0:0:
256,192,4407,1,0,0:0:0:0:
256,192,4493,1,8,0:0:0:0:
256,192,4666,1,0,0:0:0:0:
256,192,4752,1,0,0:0:0:0:
256,192,4838,1,0,0:0:0:0:
256,192,5011,1,8,0:0:0:0:
256,192,5097,1,8,0:0:0:0:
256,192,5183,1,0,0:0:0:0:
256,192,5355,1,8,0:0:0:0:
256,192,5528,1,0,0:0:0:0:
256,192,5700,1,8,0:0:0:0:
256,192,5786,1,8,0:0:0:0:
256,192,5873,1,0,0:0:0:0:
256,192,6045,1,8,0:0:0:0:
256,192,6131,1,0,0:0:0:0:
256,192,6217,1,0,0:0:0:0:
256,192,6390,1,8,0:0:0:0:
256,192,6476,1,8,0:0:0:0:
256,192,6562,1,0,0:0:0:0:
256,192,6735,1,8,0:0:0:0:
256,192,6907,1,0,0:0:0:0:
256,192,7079,1,0,0:0:0:0:
256,192,7166,1,0,0:0:0:0:
256,192,7252,1,8,0:0:0:0:
256,192,7424,1,0,0:0:0:0:
256,192,7511,1,0,0:0:0:0:
256,192,7597,1,0,0:0:0:0:
256,192,7769,1,0,0:0:0:0:
256,192,7942,1,8,0:0:0:0:
256,192,8114,1,0,0:0:0:0:
256,192,8286,1,0,0:0:0:0:
256,192,8459,1,0,0:0:0:0:
256,192,8545,1,0,0:0:0:0:
256,192,8631,1,8,0:0:0:0:
256,192,8804,1,0,0:0:0:0:
256,192,8890,1,8,0:0:0:0:
256,192,8976,1,0,0:0:0:0:
256,192,9148,1,0,0:0:0:0:
256,192,9321,1,8,0:0:0:0:
256,192,9493,1,8,0:0:0:0:
256,192,9579,1,8,0:0:0:0:
256,192,9666,1,0,0:0:0:0:
256,192,9838,1,0,0:0:0:0:
256,192,9924,1,0,0:0:0:0:
256,192,10011,1,8,0:0:0:0:
256,192,10183,1,0,0:0:0:0:
256,192,10269,1,0,0:0:0:0:
256,192,10355,1,0,0:0:0:0:
256,192,10528,1,0,0:0:0:0:
256,192,10700,1,8,0:0:0:0:
256,192,10873,1,0,0:0:0:0:
256,192,10959,1,0,0:0:0:0:
256,192,11045,1,0,0:0:0:0:
256,192,11217,1,8,0:0:0:0:
256,192,11304,1,8,0:0:0:0:
256,192,11390,1,0,0:0:0:0:
256,192,11562,1,0,0:0:0:0:
256,192,11648,1,0,0:0:0:0:
256,192,11735,1,0,0:0:0:0:
256,192,11907,1,0,0:0:0:0:
256,192,12079,1,8,0:0:0:0:
256,192,12166,1,8,0:0:0:0:
256,192,12252,1,0,0:0:0:0:
256,192,12424,1,0,0:0:0:0:
256,192,12597,1,0,0:0:0:0:
256,192,12683,1,0,0:0:0:0:
256,192,12769,1,8,0:0:0:0:
256,192,12942,1,8,0:0:0:0:
256,192,13286,1,0,0:0:0:0:
256,192,13459,1,8,0:0:0:0:
256,192,13804,1,4,0:0:0:0:
256,192,15183,1,0,0:0:0:0:
256,192,15355,1,0,0:0:0:0:
256,192,15528,1,8,0:0:0:0:
256,192,15700,1,0,0:0:0:0:
256,192,15873,1,0,0:0:0:0:
256,192,16045,1,0,0:0:0:0:
256,192,16217,1,8,0:0:0:0:
256,192,16390,1,0,0:0:0:0:
256,192,16562,1,0,0:0:0:0:
256,192,16735,1,0,0:0:0:0:
256,192,16907,1,8,0:0:0:0:
256,192,17079,1,0,0:0:0:0:
256,192,17252,1,0,0:0:0:0:
256,192,17424,1,0,0:0:0:0:
256,192,17511,1,0,0:0:0:0:
256,192,17597,1,8,0:0:0:0:
256,192,17769,1,0,0:0:0:0:
256,192,17942,1,0,0:0:0:0:
256,192,18114,1,0,0:0:0:0:
256,192,18286,1,8,0:0:0:0:
256,192,18459,1,0,0:0:0:0:
256,192,18631,1,0,0:0:0:0:
256,192,18804,1,0,0:0:0:0:
256,192,18976,1,8,0:0:0:0:
256,192,19148,1,0,0:0:0:0:
256,192,19321,1,0,0:0:0:0:
256,192,19493,1,0,0:0:0:0:
256,192,19666,1,8,0:0:0:0:
256,192,19838,1,0,0:0:0:0:
256,192,20011,1,0,0:0:0:0:
256,192,20183,1,0,0:0:0:0:
256,192,20269,1,0,0:0:0:0:
256,192,20355,1,8,0:0:0:0:
256,192,20528,1,0,0:0:0:0:
256,192,20700,1,0,0:0:0:0:
256,192,20873,1,0,0:0:0:0:
256,192,20959,1,0,0:0:0:0:
256,192,21045,1,8,0:0:0:0:
256,192,21217,1,0,0:0:0:0:
256,192,21390,1,0,0:0:0:0:
256,192,21562,1,0,0:0:0:0:
256,192,21735,1,8,0:0:0:0:
256,192,21907,1,0,0:0:0:0:
256,192,22079,1,0,0:0:0:0:
256,192,22252,1,0,0:0:0:0:
256,192,22338,1,0,0:0:0:0:
256,192,22424,1,8,0:0:0:0:
256,192,22597,1,0,0:0:0:0:
256,192,22769,1,0,0:0:0:0:
256,192,22942,1,0,0:0:0:0:
256,192,23028,1,0,0:0:0:0:
256,192,23114,1,8,0:0:0:0:
256,192,23286,1,0,0:0:0:0:
256,192,23373,1,0,0:0:0:0:
256,192,23459,1,0,0:0:0:0:
256,192,24321,1,0,0:0:0:0:
256,192,24493,1,0,0:0:0:0:
256,192,24666,1,0,0:0:0:0:
256,192,24838,1,4,0:0:0:0:
256,192,25528,1,0,0:0:0:0:
256,192,25873,1,8,0:0:0:0:
256,192,26217,1,4,0:0:0:0:
256,192,26562,1,0,0:0:0:0:
256,192,26907,1,8,0:0:0:0:
256,192,27252,1,8,0:0:0:0:
256,192,27597,1,0,0:0:0:0:
256,192,28114,1,0,0:0:0:0:
256,192,28286,1,0,0:0:0:0:
256,192,28804,1,0,0:0:0:0:
256,192,28976,1,0,0:0:0:0:
256,192,29321,1,0,0:0:0:0:
256,192,29666,1,8,0:0:0:0:
256,192,30011,1,8,0:0:0:0:
256,192,30355,1,0,0:0:0:0:
256,192,30873,1,0,0:0:0:0:
256,192,31045,1,0,0:0:0:0:
256,192,31562,1,0,0:0:0:0:
256,192,31735,1,4,0:0:0:0:
256,192,32079,1,0,0:0:0:0:
256,192,32424,1,8,0:0:0:0:
256,192,32769,1,8,0:0:0:0:
256,192,33114,1,4,0:0:0:0:
256,192,33459,1,0,0:0:0:0:
256,192,33804,1,8,0:0:0:0:
256,192,34148,1,8,0:0:0:0:
256,192,34493,1,4,0:0:0:0:
256,192,35183,1,0,0:0:0:0:
256,192,35873,1,4,0:0:0:0:
256,192,36476,1,8,0:0:0:0:
256,192,36562,1,8,0:0:0:0:
256,192,36735,1,0,0:0:0:0:
256,192,36821,1,0,0:0:0:0:
256,192,36907,1,8,0:0:0:0:
256,192,37079,1,8,0:0:0:0:
256,192,37252,1,4,0:0:0:0:
256,192,37424,1,0,0:0:0:0:
256,192,37511,1,8,0:0:0:0:
256,192,37597,1,0,0:0:0:0:
256,192,37769,1,0,0:0:0:0:
256,192,37855,1,0,0:0:0:0:
256,192,37942,1,0,0:0:0:0:
256,192,38114,1,8,0:0:0:0:
256,192,38286,1,0,0:0:0:0:
256,192,38373,1,0,0:0:0:0:
256,192,38459,1,8,0:0:0:0:
256,192,38545,1,8,0:0:0:0:
256,192,38631,1,0,0:0:0:0:
256,192,38804,1,8,0:0:0:0:
256,192,38890,1,8,0:0:0:0:
256,192,38976,1,0,0:0:0:0:
256,192,39148,1,8,0:0:0:0:
256,192,39235,1,8,0:0:0:0:
256,192,39321,1,8,0:0:0:0:
256,192,39493,1,0,0:0:0:0:
256,192,39579,1,0,0:0:0:0:
256,192,39666,1,0,0:0:0:0:
256,192,39838,1,8,0:0:0:0:
256,192,40011,1,0,0:0:0:0:
256,192,40097,1,0,0:0:0:0:
256,192,40183,1,8,0:0:0:0:
256,192,40269,1,8,0:0:0:0:
256,192,40355,1,8,0:0:0:0:
256,192,40528,5,0,0:0:0:0:
256,192,40700,1,0,0:0:0:0:
256,192,40786,1,0,0:0:0:0:
256,192,40873,1,8,0:0:0:0:
256,192,41045,1,0,0:0:0:0:
256,192,41131,1,0,0:0:0:0:
256,192,41217,1,8,0:0:0:0:
256,192,41390,1,0,0:0:0:0:
256,192,41476,1,0,0:0:0:0:
256,192,41562,1,0,0:0:0:0:
256,192,41648,1,0,0:0:0:0:
256,192,41735,1,8,0:0:0:0:
256,192,41907,1,0,0:0:0:0:
256,192,41993,1,0,0:0:0:0:
256,192,42079,1,0,0:0:0:0:
256,192,42252,1,0,0:0:0:0:
256,192,42424,1,8,0:0:0:0:
256,192,42597,1,8,0:0:0:0:
256,192,42683,1,8,0:0:0:0:
256,192,42769,1,0,0:0:0:0:
256,192,42942,1,0,0:0:0:0:
256,192,43028,1,0,0:0:0:0:
256,192,43114,1,8,0:0:0:0:
256,192,43286,1,8,0:0:0:0:
256,192,43373,1,8,0:0:0:0:
256,192,43459,1,0,0:0:0:0:
256,192,43545,1,0,0:0:0:0:
256,192,43631,1,0,0:0:0:0:
256,192,43804,1,8,0:0:0:0:
256,192,43976,1,8,0:0:0:0:
256,192,44148,1,0,0:0:0:0:
256,192,44321,1,0,0:0:0:0:
256,192,44407,1,0,0:0:0:0:
256,192,44493,1,8,0:0:0:0:
256,192,44666,1,8,0:0:0:0:
256,192,44752,1,8,0:0:0:0:
256,192,44838,1,0,0:0:0:0:
256,192,44924,1,0,0:0:0:0:
256,192,45011,1,0,0:0:0:0:
256,192,45183,1,8,0:0:0:0:
256,192,45355,1,0,0:0:0:0:
256,192,45528,1,0,0:0:0:0:
256,192,45614,1,0,0:0:0:0:
256,192,45700,1,8,0:0:0:0:
256,192,45873,1,0,0:0:0:0:
256,192,46045,1,8,0:0:0:0:
256,192,46217,1,0,0:0:0:0:
256,192,46304,1,0,0:0:0:0:
256,192,46390,1,8,0:0:0:0:
256,192,46562,1,0,0:0:0:0:
256,192,46735,1,8,0:0:0:0:
256,192,46907,1,0,0:0:0:0:
256,192,47079,1,8,0:0:0:0:
256,192,47166,1,8,0:0:0:0:
256,192,47252,1,0,0:0:0:0:
256,192,47424,1,8,0:0:0:0:
256,192,47597,1,0,0:0:0:0:
256,192,47683,1,0,0:0:0:0:
256,192,47769,1,8,0:0:0:0:
256,192,47855,1,8,0:0:0:0:
256,192,47942,1,0,0:0:0:0:
256,192,48114,1,8,0:0:0:0:
256,192,48286,1,4,0:0:0:0:
256,192,48459,1,0,0:0:0:0:
256,192,48545,1,0,0:0:0:0:
256,192,48631,1,8,0:0:0:0:
256,192,48804,1,0,0:0:0:0:
256,192,48976,1,0,0:0:0:0:
256,192,49062,1,0,0:0:0:0:
256,192,49148,1,0,0:0:0:0:
256,192,49235,1,0,0:0:0:0:
256,192,49321,1,8,0:0:0:0:
256,192,49493,1,0,0:0:0:0:
256,192,49579,1,0,0:0:0:0:
256,192,49666,1,0,0:0:0:0:
256,192,49838,1,0,0:0:0:0:
256,192,49924,1,0,0:0:0:0:
256,192,50011,1,8,0:0:0:0:
256,192,50183,1,0,0:0:0:0:
256,192,50269,1,0,0:0:0:0:
256,192,50355,1,0,0:0:0:0:
256,192,50528,1,0,0:0:0:0:
256,192,50614,1,0,0:0:0:0:
256,192,50700,1,8,0:0:0:0:
256,192,50873,1,8,0:0:0:0:
256,192,50959,1,8,0:0:0:0:
256,192,51045,1,0,0:0:0:0:
256,192,51217,1,8,0:0:0:0:
256,192,51304,1,8,0:0:0:0:
256,192,51390,1,0,0:0:0:0:
256,192,51562,1,8,0:0:0:0:
256,192,51648,1,8,0:0:0:0:
256,192,51735,1,0,0:0:0:0:
256,192,51821,1,0,0:0:0:0:
256,192,51907,1,0,0:0:0:0:
256,192,51993,1,0,0:0:0:0:
256,192,52079,1,8,0:0:0:0:
256,192,52252,1,8,0:0:0:0:
256,192,52424,1,0,0:0:0:0:
256,192,52597,1,8,0:0:0:0:
256,192,52683,1,8,0:0:0:0:
256,192,52769,1,0,0:0:0:0:
256,192,52942,1,8,0:0:0:0:
256,192,53028,1,8,0:0:0:0:
256,192,53114,1,0,0:0:0:0:
256,192,53200,1,0,0:0:0:0:
256,192,53286,1,8,0:0:0:0:
256,192,53459,1,8,0:0:0:0:
256,192,53545,1,8,0:0:0:0:
256,192,53631,1,0,0:0:0:0:
256,192,53804,1,0,0:0:0:0:
256,192,53976,1,0,0:0:0:0:
256,192,54062,1,0,0:0:0:0:
256,192,54148,1,8,0:0:0:0:
256,192,54321,1,0,0:0:0:0:
256,192,54407,1,0,0:0:0:0:
256,192,54493,1,8,0:0:0:0:
256,192,54666,1,0,0:0:0:0:
256,192,54752,1,0,0:0:0:0:
256,192,54838,1,0,0:0:0:0:
256,192,54924,1,0,0:0:0:0:
256,192,55011,1,8,0:0:0:0:
256,192,55183,1,0,0:0:0:0:
256,192,55355,1,0,0:0:0:0:
256,192,55442,1,0,0:0:0:0:
256,192,55528,1,8,0:0:0:0:
256,192,55700,1,0,0:0:0:0:
256,192,55786,1,0,0:0:0:0:
256,192,55873,1,8,0:0:0:0:
256,192,56045,1,8,0:0:0:0:
256,192,56131,1,8,0:0:0:0:
256,192,56217,1,0,0:0:0:0:
256,192,56390,1,8,0:0:0:0:
256,192,56562,1,0,0:0:0:0:
256,192,56648,1,0,0:0:0:0:
256,192,56735,1,0,0:0:0:0:
256,192,56821,1,0,0:0:0:0:
256,192,56907,1,0,0:0:0:0:
256,192,57079,1,0,0:0:0:0:
256,192,57166,1,0,0:0:0:0:
256,192,57252,1,0,0:0:0:0:
256,192,57338,1,0,0:0:0:0:
256,192,57424,1,0,0:0:0:0:
256,192,57597,1,8,0:0:0:0:
256,192,57769,1,0,0:0:0:0:
256,192,57942,12,0,58976,0:0:0:0:
256,192,59321,5,4,0:0:0:0:
256,192,59666,1,8,0:0:0:0:
256,192,59838,1,0,0:0:0:0:
256,192,60011,1,0,0:0:0:0:
256,192,60355,1,8,0:0:0:0:
256,192,60528,1,0,0:0:0:0:
256,192,60700,1,0,0:0:0:0:
256,192,60786,1,0,0:0:0:0:
256,192,60873,1,0,0:0:0:0:
256,192,60959,1,0,0:0:0:0:
256,192,61045,1,8,0:0:0:0:
256,192,61131,1,8,0:0:0:0:
256,192,61217,1,8,0:0:0:0:
256,192,61304,1,8,0:0:0:0:
256,192,61390,1,0,0:0:0:0:
256,192,61476,1,0,0:0:0:0:
256,192,61562,1,0,0:0:0:0:
256,192,61648,1,0,0:0:0:0:
256,192,61735,1,8,0:0:0:0:
256,192,61821,1,0,0:0:0:0:
256,192,61907,1,0,0:0:0:0:
256,192,61993,1,0,0:0:0:0:
256,192,62079,1,8,0:0:0:0:
256,192,62424,1,8,0:0:0:0:
256,192,62597,1,0,0:0:0:0:
256,192,62769,1,0,0:0:0:0:
256,192,63114,1,8,0:0:0:0:
256,192,63286,1,0,0:0:0:0:
256,192,63459,1,0,0:0:0:0:
256,192,63545,1,0,0:0:0:0:
256,192,63631,1,0,0:0:0:0:
256,192,63717,1,0,0:0:0:0:
256,192,63804,1,8,0:0:0:0:
256,192,63890,1,8,0:0:0:0:
256,192,63976,1,8,0:0:0:0:
256,192,64062,1,8,0:0:0:0:
256,192,64148,1,0,0:0:0:0:
256,192,64235,1,0,0:0:0:0:
256,192,64321,1,0,0:0:0:0:
256,192,64407,1,0,0:0:0:0:
256,192,64493,1,8,0:0:0:0:
256,192,64579,1,0,0:0:0:0:
256,192,64666,1,0,0:0:0:0:
256,192,64752,1,0,0:0:0:0:
256,192,64838,1,8,0:0:0:0:
256,192,65183,1,8,0:0:0:0:
256,192,65355,1,0,0:0:0:0:
256,192,65528,1,0,0:0:0:0:
256,192,65873,1,0,0:0:0:0:
256,192,66045,1,0,0:0:0:0:
256,192,66217,1,8,0:0:0:0:
256,192,66562,1,0,0:0:0:0:
256,192,66735,1,8,0:0:0:0:
256,192,66907,1,0,0:0:0:0:
256,192,66993,1,0,0:0:0:0:
256,192,67079,1,0,0:0:0:0:
256,192,67166,1,0,0:0:0:0:
256,192,67252,1,8,0:0:0:0:
256,192,67338,1,8,0:0:0:0:
256,192,67424,1,8,0:0:0:0:
256,192,67511,1,8,0:0:0:0:
256,192,67597,1,8,0:0:0:0:
256,192,67942,1,0,0:0:0:0:
256,192,68114,1,8,0:0:0:0:
256,192,68286,1,0,0:0:0:0:
256,192,68373,1,0,0:0:0:0:
256,192,68459,1,0,0:0:0:0:
256,192,68545,1,0,0:0:0:0:
256,192,68631,1,8,0:0:0:0:
256,192,68717,1,0,0:0:0:0:
256,192,68804,1,0,0:0:0:0:
256,192,68890,1,0,0:0:0:0:
256,192,68976,1,8,0:0:0:0:
256,192,69148,1,0,0:0:0:0:
256,192,69321,1,8,0:0:0:0:
256,192,69493,1,0,0:0:0:0:
256,192,69666,1,0,0:0:0:0:
256,192,69781,1,0,0:0:0:0:
256,192,69896,1,0,0:0:0:0:
256,192,70011,1,8,0:0:0:0:
256,192,70125,1,8,0:0:0:0:
256,192,70240,1,8,0:0:0:0:
256,192,70355,1,4,0:0:0:0:
256,192,70528,1,0,0:0:0:0:
256,192,70614,1,0,0:0:0:0:
256,192,70700,1,8,0:0:0:0:
256,192,70873,1,0,0:0:0:0:
256,192,70959,1,0,0:0:0:0:
256,192,71045,1,8,0:0:0:0:
256,192,71217,1,0,0:0:0:0:
256,192,71390,1,8,0:0:0:0:
256,192,71505,1,8,0:0:0:0:
256,192,71620,1,8,0:0:0:0:
256,192,71735,1,0,0:0:0:0:
256,192,71907,1,0,0:0:0:0:
256,192,71993,1,0,0:0:0:0:
256,192,72079,1,8,0:0:0:0:
256,192,72252,1,8,0:0:0:0:
256,192,72338,1,8,0:0:0:0:
256,192,72424,1,0,0:0:0:0:
256,192,72511,1,0,0:0:0:0:
256,192,72597,1,0,0:0:0:0:
256,192,72683,1,0,0:0:0:0:
256,192,72769,1,8,0:0:0:0:
256,192,72855,1,8,0:0:0:0:
256,192,72942,1,8,0:0:0:0:
256,192,73028,1,8,0:0:0:0:
256,192,73114,1,0,0:0:0:0:
256,192,73200,1,0,0:0:0:0:
256,192,73286,1,0,0:0:0:0:
256,192,73373,1,0,0:0:0:0:
256,192,73459,1,8,0:0:0:0:
256,192,73545,1,8,0:0:0:0:
256,192,73631,1,8,0:0:0:0:
256,192,73717,1,8,0:0:0:0:
256,192,73804,1,0,0:0:0:0:
256,192,73890,1,0,0:0:0:0:
256,192,73976,1,0,0:0:0:0:
256,192,74062,1,0,0:0:0:0:
256,192,74148,1,8,0:0:0:0:
256,192,74235,1,8,0:0:0:0:
256,192,74321,1,8,0:0:0:0:
256,192,74407,1,8,0:0:0:0:
256,192,74493,1,0,0:0:0:0:
256,192,74666,1,0,0:0:0:0:
256,192,74838,1,8,0:0:0:0:
256,192,75011,1,8,0:0:0:0:
256,192,75097,1,8,0:0:0:0:
256,192,75183,1,0,0:0:0:0:
256,192,75355,1,0,0:0:0:0:
256,192,75442,1,0,0:0:0:0:
256,192,75528,1,8,0:0:0:0:
256,192,75700,1,0,0:0:0:0:
256,192,75873,1,0,0:0:0:0:
256,192,75959,1,0,0:0:0:0:
256,192,76045,1,0,0:0:0:0:
256,192,76217,1,8,0:0:0:0:
256,192,76390,1,0,0:0:0:0:
256,192,76476,1,0,0:0:0:0:
256,192,76562,1,0,0:0:0:0:
256,192,76648,1,0,0:0:0:0:
256,192,76735,1,0,0:0:0:0:
256,192,76907,1,8,0:0:0:0:
256,192,77079,1,8,0:0:0:0:
256,192,77166,1,8,0:0:0:0:
256,192,77252,1,0,0:0:0:0:
256,192,77338,1,0,0:0:0:0:
256,192,77424,1,0,0:0:0:0:
256,192,77511,1,0,0:0:0:0:
256,192,77597,1,8,0:0:0:0:
256,192,77683,1,8,0:0:0:0:
256,192,77769,1,8,0:0:0:0:
256,192,77855,1,8,0:0:0:0:
256,192,77942,1,0,0:0:0:0:
256,192,78028,1,0,0:0:0:0:
256,192,78114,1,0,0:0:0:0:
256,192,78200,1,0,0:0:0:0:
256,192,78286,1,8,0:0:0:0:
256,192,78373,1,8,0:0:0:0:
256,192,78459,1,8,0:0:0:0:
256,192,78545,1,8,0:0:0:0:
256,192,78631,1,0,0:0:0:0:
256,192,78717,1,0,0:0:0:0:
256,192,78804,1,0,0:0:0:0:
256,192,78890,1,0,0:0:0:0:
256,192,78976,1,0,0:0:0:0:
256,192,79148,1,0,0:0:0:0:
256,192,79235,1,0,0:0:0:0:
256,192,79321,1,0,0:0:0:0:
256,192,79407,1,0,0:0:0:0:
256,192,79493,1,0,0:0:0:0:
256,192,79666,1,0,0:0:0:0:
256,192,79838,1,0,0:0:0:0:
256,192,80011,1,8,0:0:0:0:
256,192,80585,1,8,0:0:0:0:
256,192,80700,1,0,0:0:0:0:
256,192,80815,1,0,0:0:0:0:
256,192,80930,1,0,0:0:0:0:
256,192,81045,1,8,0:0:0:0:
256,192,81160,1,8,0:0:0:0:
256,192,81275,1,8,0:0:0:0:
256,192,81390,1,4,0:0:0:0:
256,192,81562,1,0,0:0:0:0:
256,192,81648,1,0,0:0:0:0:
256,192,81735,1,8,0:0:0:0:
256,192,81907,1,0,0:0:0:0:
256,192,81993,1,0,0:0:0:0:
256,192,82079,1,0,0:0:0:0:
256,192,82252,1,8,0:0:0:0:
256,192,82338,1,8,0:0:0:0:
256,192,82424,1,0,0:0:0:0:
256,192,82597,1,8,0:0:0:0:
256,192,82769,1,0,0:0:0:0:
256,192,82942,1,0,0:0:0:0:
256,192,83028,1,0,0:0:0:0:
256,192,83114,1,8,0:0:0:0:
256,192,83286,1,0,0:0:0:0:
256,192,83373,1,0,0:0:0:0:
256,192,83459,1,0,0:0:0:0:
256,192,83631,1,8,0:0:0:0:
256,192,83717,1,8,0:0:0:0:
256,192,83804,1,0,0:0:0:0:
256,192,83976,1,8,0:0:0:0:
256,192,84148,1,0,0:0:0:0:
256,192,84321,1,8,0:0:0:0:
256,192,84407,1,8,0:0:0:0:
256,192,84493,1,0,0:0:0:0:
256,192,84666,1,8,0:0:0:0:
256,192,84752,1,0,0:0:0:0:
256,192,84838,1,0,0:0:0:0:
256,192,85011,1,8,0:0:0:0:
256,192,85097,1,8,0:0:0:0:
256,192,85183,1,0,0:0:0:0:
256,192,85355,1,8,0:0:0:0:
256,192,85528,1,0,0:0:0:0:
256,192,85700,1,0,0:0:0:0:
256,192,85786,1,0,0:0:0:0:
256,192,85873,1,8,0:0:0:0:
256,192,86045,1,0,0:0:0:0:
256,192,86131,1,0,0:0:0:0:
256,192,86217,1,0,0:0:0:0:
256,192,86390,1,0,0:0:0:0:
256,192,86562,1,8,0:0:0:0:
256,192,86735,1,0,0:0:0:0:
256,192,86907,1,0,0:0:0:0:
256,192,87079,1,0,0:0:0:0:
256,192,87166,1,0,0:0:0:0:
256,192,87252,1,8,0:0:0:0:
256,192,87424,1,0,0:0:0:0:
256,192,87511,1,8,0:0:0:0:
256,192,87597,1,0,0:0:0:0:
256,192,87769,1,0,0:0:0:0:
256,192,87942,1,8,0:0:0:0:
256,192,88114,1,8,0:0:0:0:
256,192,88200,1,8,0:0:0:0:
256,192,88286,1,0,0:0:0:0:
256,192,88459,1,0,0:0:0:0:
256,192,88545,1,0,0:0:0:0:
256,192,88631,1,8,0:0:0:0:
256,192,88804,1,0,0:0:0:0:
256,192,88890,1,0,0:0:0:0:
256,192,88976,1,0,0:0:0:0:
256,192,89148,1,0,0:0:0:0:
256,192,89321,1,8,0:0:0:0:
256,192,89493,1,0,0:0:0:0:
256,192,89579,1,0,0:0:0:0:
256,192,89666,1,0,0:0:0:0:
256,192,89838,1,8,0:0:0:0:
256,192,89924,1,8,0:0:0:0:
256,192,90011,1,0,0:0:0:0:
256,192,90183,1,0,0:0:0:0:
256,192,90269,1,0,0:0:0:0:
256,192,90355,1,0,0:0:0:0:
256,192,90528,1,0,0:0:0:0:
256,192,90700,1,8,0:0:0:0:
256,192,90786,1,8,0:0:0:0:
256,192,90873,1,0,0:0:0:0:
256,192,91045,1,0,0:0:0:0:
256,192,91217,1,0,0:0:0:0:
256,192,91304,1,0,0:0:0:0:
256,192,91390,1,8,0:0:0:0:
256,192,91562,1,8,0:0:0:0:
256,192,91907,1,0,0:0:0:0:
256,192,92079,1,8,0:0:0:0:
256,192,92252,1,0,0:0:0:0:
256,192,92424,1,4,0:0:0:0:
256,192,92597,1,0,0:0:0:0:
256,192,92683,1,0,0:0:0:0:
256,192,92769,1,8,0:0:0:0:
256,192,92942,1,0,0:0:0:0:
256,192,93028,1,0,0:0:0:0:
256,192,93114,1,0,0:0:0:0:
256,192,93200,1,0,0:0:0:0:
256,192,93286,1,8,0:0:0:0:
256,192,93373,1,8,0:0:0:0:
256,192,93459,1,0,0:0:0:0:
256,192,93631,1,8,0:0:0:0:
256,192,93804,1,0,0:0:0:0:
256,192,93976,1,0,0:0:0:0:
256,192,94062,1,0,0:0:0:0:
256,192,94148,1,8,0:0:0:0:
256,192,94321,1,0,0:0:0:0:
256,192,94407,1,0,0:0:0:0:
256,192,94493,1,0,0:0:0:0:
256,192,94579,1,0,0:0:0:0:
256,192,94666,1,8,0:0:0:0:
256,192,94752,1,8,0:0:0:0:
256,192,94838,1,0,0:0:0:0:
256,192,95011,1,8,0:0:0:0:
256,192,95183,1,0,0:0:0:0:
256,192,95355,1,8,0:0:0:0:
256,192,95442,1,8,0:0:0:0:
256,192,95528,1,0,0:0:0:0:
256,192,95700,1,8,0:0:0:0:
256,192,95786,1,0,0:0:0:0:
256,192,95873,1,0,0:0:0:0:
256,192,96045,1,8,0:0:0:0:
256,192,96131,1,8,0:0:0:0:
256,192,96217,1,0,0:0:0:0:
256,192,96304,1,0,0:0:0:0:
256,192,96390,1,8,0:0:0:0:
256,192,96562,1,0,0:0:0:0:
256,192,96735,1,0,0:0:0:0:
256,192,96821,1,0,0:0:0:0:
256,192,96907,1,8,0:0:0:0:
256,192,97079,1,0,0:0:0:0:
256,192,97166,1,0,0:0:0:0:
256,192,97252,1,0,0:0:0:0:
256,192,97424,1,0,0:0:0:0:
256,192,97511,1,0,0:0:0:0:
256,192,97597,1,8,0:0:0:0:
256,192,97683,1,8,0:0:0:0:
256,192,97769,1,0,0:0:0:0:
256,192,97942,1,0,0:0:0:0:
256,192,98114,1,0,0:0:0:0:
256,192,98200,1,0,0:0:0:0:
256,192,98286,1,8,0:0:0:0:
256,192,98459,1,0,0:0:0:0:
256,192,98545,1,8,0:0:0:0:
256,192,98631,1,0,0:0:0:0:
256,192,98804,1,0,0:0:0:0:
256,192,98890,1,0,0:0:0:0:
256,192,98976,1,8,0:0:0:0:
256,192,99148,1,8,0:0:0:0:
256,192,99235,1,8,0:0:0:0:
256,192,99321,1,0,0:0:0:0:
256,192,99493,1,0,0:0:0:0:
256,192,99579,1,0,0:0:0:0:
256,192,99666,1,8,0:0:0:0:
256,192,99838,1,0,0:0:0:0:
256,192,99924,1,0,0:0:0:0:
256,192,100011,1,0,0:0:0:0:
256,192,100097,1,0,0:0:0:0:
256,192,100183,1,0,0:0:0:0:
256,192,100355,1,8,0:0:0:0:
256,192,100528,1,0,0:0:0:0:
256,192,100614,1,0,0:0:0:0:
256,192,100700,1,0,0:0:0:0:
256,192,100873,1,8,0:0:0:0:
256,192,100959,1,8,0:0:0:0:
256,192,101045,1,0,0:0:0:0:
256,192,101217,1,0,0:0:0:0:
256,192,101304,1,0,0:0:0:0:
256,192,101390,1,0,0:0:0:0:
256,192,101562,1,0,0:0:0:0:
256,192,101648,1,0,0:0:0:0:
256,192,101735,1,8,0:0:0:0:
256,192,101821,1,8,0:0:0:0:
256,192,101907,1,0,0:0:0:0:
256,192,102079,1,0,0:0:0:0:
256,192,102252,1,0,0:0:0:0:
256,192,102338,1,0,0:0:0:0:
256,192,102424,1,8,0:0:0:0:
256,192,102597,1,8,0:0:0:0:
256,192,102683,1,8,0:0:0:0:
256,192,102769,1,8,0:0:0:0:
256,192,102942,1,0,0:0:0:0:
256,192,103028,1,0,0:0:0:0:
256,192,103114,1,8,0:0:0:0:
256,192,103200,1,8,0:0:0:0:
256,192,103286,1,0,0:0:0:0:
256,192,103459,1,4,0:0:0:0:
