osu file format v12

[General]
AudioFilename: Perpetual Traumal.mp3
AudioLeadIn: 1000
PreviewTime: 1390
Countdown: 0
SampleSet: None
StackLeniency: 0.7
Mode: 1
LetterboxInBreaks: 0
WidescreenStoryboard: 1

[Editor]
DistanceSpacing: 0.1
BeatDivisor: 4
GridSize: 32

[Metadata]
Title:Perpetual Traumal
TitleUnicode:Perpetual Traumal
Artist:bbn
ArtistUnicode:bbn
Creator:Flower
Version:Taiko Muzukashii
Source:Oblivious Garden
Tags:corypheesoft Carmina Burana Shirotsumekusa Lan Wings
BeatmapID:351835
BeatmapSetID:61819

[Difficulty]
HPDrainRate:5
CircleSize:5
OverallDifficulty:5
ApproachRate:5
SliderMultiplier:1.4
SliderTickRate:1

[Events]
//Background and Video events
0,0,"evlin05_1.jpg",0,0
Video,500,"Perpetual Traumal.flv"
//Break Periods
//Storyboard Layer 0 (Background)
//Storyboard Layer 1 (Fail)
//Storyboard Layer 2 (Pass)
//Storyboard Layer 3 (Foreground)
//Storyboard Sound Samples
//Background Colour Transformations
3,100,163,162,255

[TimingPoints]
11,344.827586206897,4,1,0,65,1,0
2769,-100,4,1,0,65,0,1
13459,-100,4,1,0,65,0,0
81390,-100,4,1,0,65,0,1
103459,-100,4,1,0,65,0,0

[Colours]
Combo1 : 250,16,22
Combo2 : 122,19,225
Combo3 : 49,186,238
Combo4 : 251,228,151

[HitObjects]
256,192,1562,1,0,0:0:0:0:
256,192,1735,1,0,0:0:0:0:
256,192,1907,1,0,0:0:0:0:
256,192,2079,1,0,0:0:0:0:
256,192,2252,1,0,0:0:0:0:
256,192,2597,1,8,0:0:0:0:
256,192,2769,1,4,0:0:0:0:
256,192,3114,1,8,0:0:0:0:
256,192,3459,1,0,0:0:0:0:
256,192,3631,1,0,0:0:0:0:
256,192,3804,1,8,0:0:0:0:
256,192,3976,1,0,0:0:0:0:
256,192,4148,1,0,0:0:0:0:
256,192,4493,1,8,0:0:0:0:
256,192,4838,1,0,0:0:0:0:
256,192,5011,1,8,0:0:0:0:
256,192,5183,1,0,0:0:0:0:
256,192,5355,1,8,0:0:0:0:
256,192,5528,1,0,0:0:0:0:
256,192,5700,1,0,0:0:0:0:
256,192,5786,1,0,0:0:0:0:
256,192,5873,1,8,0:0:0:0:
256,192,6217,1,0,0:0:0:0:
256,192,6390,1,8,0:0:0:0:
256,192,6562,1,0,0:0:0:0:
256,192,6735,1,8,0:0:0:0:
256,192,6907,1,0,0:0:0:0:
256,192,7079,1,8,0:0:0:0:
256,192,7166,1,8,0:0:0:0:
256,192,7252,1,0,0:0:0:0:
256,192,7597,1,0,0:0:0:0:
256,192,7769,1,0,0:0:0:0:
256,192,7942,1,8,0:0:0:0:
256,192,8114,1,0,0:0:0:0:
256,192,8286,1,0,0:0:0:0:
256,192,8631,1,8,0:0:0:0:
256,192,8976,1,0,0:0:0:0:
256,192,9148,1,0,0:0:0:0:
256,192,9321,1,8,0:0:0:0:
256,192,9493,1,0,0:0:0:0:
256,192,9666,1,0,0:0:0:0:
256,192,9838,1,0,0:0:0:0:
256,192,9924,1,0,0:0:0:0:
256,192,10011,1,8,0:0:0:0:
256,192,10355,1,0,0:0:0:0:
256,192,10700,1,0,0:0:0:0:
256,192,11045,1,0,0:0:0:0:
256,192,11217,1,8,0:0:0:0:
256,192,11304,1,8,0:0:0:0:
256,192,11390,1,0,0:0:0:0:
256,192,11735,1,0,0:0:0:0:
256,192,11907,1,8,0:0:0:0:
256,192,12079,1,0,0:0:0:0:
256,192,12252,1,8,0:0:0:0:
256,192,12424,1,0,0:0:0:0:
256,192,12769,1,0,0:0:0:0:
256,192,12942,1,8,0:0:0:0:
256,192,13459,1,8,0:0:0:0:
256,192,13804,1,4,0:0:0:0:
256,192,15183,1,4,0:0:0:0:
256,192,16562,1,0,0:0:0:0:
256,192,17942,1,0,0:0:0:0:
256,192,19321,1,0,0:0:0:0:
256,192,20011,1,0,0:0:0:0:
256,192,20355,1,0,0:0:0:0:
256,192,20700,1,0,0:0:0:0:
256,192,21045,1,0,0:0:0:0:
256,192,21390,1,8,0:0:0:0:
256,192,21735,1,0,0:0:0:0:
256,192,22079,1,0,0:0:0:0:
256,192,22424,1,0,0:0:0:0:
256,192,22769,1,8,0:0:0:0:
256,192,23114,1,0,0:0:0:0:
256,192,23459,1,0,0:0:0:0:
256,192,24321,1,0,0:0:0:0:
256,192,24493,1,8,0:0:0:0:
256,192,24666,1,0,0:0:0:0:
256,192,24838,1,0,0:0:0:0:
256,192,25528,1,8,0:0:0:0:
256,192,25873,1,0,0:0:0:0:
256,192,26217,1,4,0:0:0:0:
256,192,27252,1,8,0:0:0:0:
256,192,27597,1,0,0:0:0:0:
256,192,28114,1,8,0:0:0:0:
256,192,28286,1,0,0:0:0:0:
256,192,28804,1,0,0:0:0:0:
256,192,28976,1,0,0:0:0:0:
256,192,30011,1,8,0:0:0:0:
256,192,30355,1,0,0:0:0:0:
256,192,30873,1,8,0:0:0:0:
256,192,31045,1,0,0:0:0:0:
256,192,31562,1,0,0:0:0:0:
256,192,31735,1,4,0:0:0:0:
256,192,33114,1,4,0:0:0:0:
256,192,34493,1,4,0:0:0:0:
256,192,35873,1,4,0:0:0:0:
256,192,37252,1,0,0:0:0:0:
256,192,37597,1,8,0:0:0:0:
256,192,37942,1,0,0:0:0:0:
256,192,38114,1,0,0:0:0:0:
256,192,38286,1,8,0:0:0:0:
256,192,38631,1,0,0:0:0:0:
256,192,38976,1,8,0:0:0:0:
256,192,39321,1,0,0:0:0:0:
256,192,39407,1,0,0:0:0:0:
256,192,39493,1,0,0:0:0:0:
256,192,39666,1,8,0:0:0:0:
256,192,40011,1,0,0:0:0:0:
256,192,40355,1,8,0:0:0:0:
256,192,40700,1,0,0:0:0:0:
256,192,40873,1,0,0:0:0:0:
256,192,41045,1,8,0:0:0:0:
256,192,41390,1,0,0:0:0:0:
256,192,41735,1,8,0:0:0:0:
256,192,42079,1,0,0:0:0:0:
256,192,42166,1,0,0:0:0:0:
256,192,42252,1,0,0:0:0:0:
256,192,42424,1,8,0:0:0:0:
256,192,42769,1,0,0:0:0:0:
256,192,42942,1,0,0:0:0:0:
256,192,43028,1,0,0:0:0:0:
256,192,43114,1,8,0:0:0:0:
256,192,43459,1,0,0:0:0:0:
256,192,43804,1,8,0:0:0:0:
256,192,44148,1,0,0:0:0:0:
256,192,44321,1,0,0:0:0:0:
256,192,44407,1,0,0:0:0:0:
256,192,44493,1,8,0:0:0:0:
256,192,44838,1,0,0:0:0:0:
256,192,45011,1,0,0:0:0:0:
256,192,45183,1,8,0:0:0:0:
256,192,45528,1,0,0:0:0:0:
256,192,45873,1,8,0:0:0:0:
256,192,46217,1,0,0:0:0:0:
256,192,46390,1,0,0:0:0:0:
256,192,46562,1,8,0:0:0:0:
256,192,46907,1,0,0:0:0:0:
256,192,47079,1,0,0:0:0:0:
256,192,47166,1,0,0:0:0:0:
256,192,47252,1,8,0:0:0:0:
256,192,47597,1,8,0:0:0:0:
256,192,47942,1,8,0:0:0:0:
256,192,48286,1,4,0:0:0:0:
256,192,48631,1,8,0:0:0:0:
256,192,48976,1,0,0:0:0:0:
256,192,49148,1,0,0:0:0:0:
256,192,49321,1,8,0:0:0:0:
256,192,49666,1,0,0:0:0:0:
256,192,49752,1,0,0:0:0:0:
256,192,49838,1,0,0:0:0:0:
256,192,50011,1,8,0:0:0:0:
256,192,50355,1,0,0:0:0:0:
256,192,50528,1,0,0:0:0:0:
256,192,50700,1,8,0:0:0:0:
256,192,51045,1,0,0:0:0:0:
256,192,51390,1,8,0:0:0:0:
256,192,51735,1,0,0:0:0:0:
256,192,51907,1,8,0:0:0:0:
256,192,52079,1,8,0:0:0:0:
256,192,52424,1,0,0:0:0:0:
256,192,52597,1,0,0:0:0:0:
256,192,52683,1,0,0:0:0:0:
256,192,52769,1,8,0:0:0:0:
256,192,53114,1,0,0:0:0:0:
256,192,53286,1,8,0:0:0:0:
256,192,53459,1,8,0:0:0:0:
256,192,53804,1,0,0:0:0:0:
256,192,53890,1,0,0:0:0:0:
256,192,53976,1,0,0:0:0:0:
256,192,54148,1,8,0:0:0:0:
256,192,54493,1,0,0:0:0:0:
256,192,54666,1,0,0:0:0:0:
256,192,54838,1,8,0:0:0:0:
256,192,55183,1,0,0:0:0:0:
256,192,55355,1,8,0:0:0:0:
256,192,55442,1,8,0:0:0:0:
256,192,55528,1,8,0:0:0:0:
256,192,55873,1,0,0:0:0:0:
256,192,56045,1,0,0:0:0:0:
256,192,56217,1,8,0:0:0:0:
256,192,56390,1,0,0:0:0:0:
256,192,56562,1,0,0:0:0:0:
256,192,57597,1,8,0:0:0:0:
256,192,57769,1,8,0:0:0:0:
256,192,57942,1,0,0:0:0:0:
256,192,58286,1,0,0:0:0:0:
256,192,58631,1,0,0:0:0:0:
256,192,58976,1,0,0:0:0:0:
256,192,59321,1,4,0:0:0:0:
256,192,60700,1,0,0:0:0:0:
256,192,60786,1,0,0:0:0:0:
256,192,60873,1,0,0:0:0:0:
256,192,61045,1,0,0:0:0:0:
256,192,61131,1,0,0:0:0:0:
256,192,61217,1,0,0:0:0:0:
256,192,61390,1,8,0:0:0:0:
256,192,61735,1,8,0:0:0:0:
256,192,62079,1,0,0:0:0:0:
256,192,63459,1,0,0:0:0:0:
256,192,63545,1,0,0:0:0:0:
256,192,63631,1,0,0:0:0:0:
256,192,63804,1,0,0:0:0:0:
256,192,63890,1,0,0:0:0:0:
256,192,63976,1,0,0:0:0:0:
256,192,64148,1,8,0:0:0:0:
256,192,64493,1,8,0:0:0:0:
256,192,64838,1,0,0:0:0:0:
256,192,65183,1,8,0:0:0:0:
256,192,65528,1,0,0:0:0:0:
256,192,65873,1,8,0:0:0:0:
256,192,66217,1,0,0:0:0:0:
256,192,66907,1,0,0:0:0:0:
256,192,66993,1,0,0:0:0:0:
256,192,67079,1,0,0:0:0:0:
256,192,67252,1,8,0:0:0:0:
256,192,67338,1,8,0:0:0:0:
256,192,67424,1,8,0:0:0:0:
256,192,67597,1,0,0:0:0:0:
256,192,68286,1,0,0:0:0:0:
256,192,68373,1,0,0:0:0:0:
256,192,68459,1,0,0:0:0:0:
256,192,68631,1,8,0:0:0:0:
256,192,68717,1,8,0:0:0:0:
256,192,68804,1,8,0:0:0:0:
256,192,68976,1,0,0:0:0:0:
256,192,69321,1,0,0:0:0:0:
256,192,69666,1,0,0:0:0:0:
256,192,70011,1,8,0:0:0:0:
256,192,70355,1,0,0:0:0:0:
256,192,70528,1,0,0:0:0:0:
256,192,70700,1,8,0:0:0:0:
256,192,70873,1,8,0:0:0:0:
256,192,71045,1,0,0:0:0:0:
256,192,71217,1,0,0:0:0:0:
256,192,71390,1,8,0:0:0:0:
256,192,71735,1,0,0:0:0:0:
256,192,71907,1,0,0:0:0:0:
256,192,72079,1,8,0:0:0:0:
256,192,72252,1,8,0:0:0:0:
256,192,72424,1,0,0:0:0:0:
256,192,72597,1,0,0:0:0:0:
256,192,72769,1,8,0:0:0:0:
256,192,73114,1,0,0:0:0:0:
256,192,73200,1,0,0:0:0:0:
256,192,73286,1,0,0:0:0:0:
256,192,73459,1,0,0:0:0:0:
256,192,73545,1,0,0:0:0:0:
256,192,73631,1,0,0:0:0:0:
256,192,73804,1,8,0:0:0:0:
256,192,73976,1,8,0:0:0:0:
256,192,74148,1,0,0:0:0:0:
256,192,74321,1,8,0:0:0:0:
256,192,74493,1,0,0:0:0:0:
256,192,74838,1,8,0:0:0:0:
256,192,75183,1,0,0:0:0:0:
256,192,75355,1,0,0:0:0:0:
256,192,75528,1,8,0:0:0:0:
256,192,75700,1,0,0:0:0:0:
256,192,75873,1,0,0:0:0:0:
256,192,75959,1,0,0:0:0:0:
256,192,76045,1,0,0:0:0:0:
256,192,76217,1,8,0:0:0:0:
256,192,76562,1,0,0:0:0:0:
256,192,76648,1,0,0:0:0:0:
256,192,76735,1,0,0:0:0:0:
256,192,76907,1,8,0:0:0:0:
256,192,77252,1,0,0:0:0:0:
256,192,77338,1,0,0:0:0:0:
256,192,77424,1,0,0:0:0:0:
256,192,77597,1,8,0:0:0:0:
256,192,77683,1,8,0:0:0:0:
256,192,77769,1,8,0:0:0:0:
256,192,77942,1,0,0:0:0:0:
256,192,78028,1,0,0:0:0:0:
256,192,78114,1,0,0:0:0:0:
256,192,78286,1,8,0:0:0:0:
256,192,78459,1,8,0:0:0:0:
256,192,78631,1,0,0:0:0:0:
256,192,78804,1,0,0:0:0:0:
256,192,78976,1,0,0:0:0:0:
256,192,79148,1,0,0:0:0:0:
256,192,79321,1,0,0:0:0:0:
256,192,79493,1,0,0:0:0:0:
256,192,79666,1,0,0:0:0:0:
256,192,79838,1,0,0:0:0:0:
256,192,80011,1,8,0:0:0:0:
256,192,81390,1,4,0:0:0:0:
256,192,81735,1,8,0:0:0:0:
256,192,82079,1,0,0:0:0:0:
256,192,82252,1,0,0:0:0:0:
256,192,82424,1,8,0:0:0:0:
256,192,82597,1,0,0:0:0:0:
256,192,82769,1,0,0:0:0:0:
256,192,83114,1,8,0:0:0:0:
256,192,83459,1,0,0:0:0:0:
256,192,83631,1,8,0:0:0:0:
256,192,83804,1,0,0:0:0:0:
256,192,83976,1,8,0:0:0:0:
256,192,84148,1,0,0:0:0:0:
256,192,84321,1,0,0:0:0:0:
256,192,84407,1,0,0:0:0:0:
256,192,84493,1,8,0:0:0:0:
256,192,84838,1,0,0:0:0:0:
256,192,85011,1,8,0:0:0:0:
256,192,85183,1,0,0:0:0:0:
256,192,85355,1,8,0:0:0:0:
256,192,85528,1,0,0:0:0:0:
256,192,85700,1,8,0:0:0:0:
256,192,85786,1,8,0:0:0:0:
256,192,85873,1,0,0:0:0:0:
256,192,86217,1,0,0:0:0:0:
256,192,86390,1,0,0:0:0:0:
256,192,86562,1,8,0:0:0:0:
256,192,86735,1,0,0:0:0:0:
256,192,86907,1,0,0:0:0:0:
256,192,87252,1,8,0:0:0:0:
256,192,87597,1,0,0:0:0:0:
256,192,87769,1,0,0:0:0:0:
256,192,87942,1,8,0:0:0:0:
256,192,88114,1,0,0:0:0:0:
256,192,88286,1,0,0:0:0:0:
256,192,88459,1,0,0:0:0:0:
256,192,88545,1,0,0:0:0:0:
256,192,88631,1,8,0:0:0:0:
256,192,88976,1,0,0:0:0:0:
256,192,89321,1,0,0:0:0:0:
256,192,89666,1,0,0:0:0:0:
256,192,89838,1,8,0:0:0:0:
256,192,89924,1,8,0:0:0:0:
256,192,90011,1,0,0:0:0:0:
256,192,90355,1,0,0:0:0:0:
256,192,90528,1,8,0:0:0:0:
256,192,90700,1,0,0:0:0:0:
256,192,90873,1,8,0:0:0:0:
256,192,91045,1,0,0:0:0:0:
256,192,91390,1,0,0:0:0:0:
256,192,91562,1,8,0:0:0:0:
256,192,92079,1,8,0:0:0:0:
256,192,92424,1,4,0:0:0:0:
256,192,92769,1,8,0:0:0:0:
256,192,92942,1,0,0:0:0:0:
256,192,93028,1,0,0:0:0:0:
256,192,93114,1,0,0:0:0:0:
256,192,93286,1,0,0:0:0:0:
256,192,93459,1,8,0:0:0:0:
256,192,93631,1,0,0:0:0:0:
256,192,93804,1,0,0:0:0:0:
256,192,94148,1,8,0:0:0:0:
256,192,94321,1,0,0:0:0:0:
256,192,94407,1,0,0:0:0:0:
256,192,94493,1,0,0:0:0:0:
256,192,94666,1,8,0:0:0:0:
256,192,94838,1,0,0:0:0:0:
256,192,95011,1,8,0:0:0:0:
256,192,95183,1,0,0:0:0:0:
256,192,95355,1,0,0:0:0:0:
256,192,95442,1,0,0:0:0:0:
256,192,95528,1,8,0:0:0:0:
256,192,95700,1,0,0:0:0:0:
256,192,96045,1,8,0:0:0:0:
256,192,96217,1,0,0:0:0:0:
256,192,96390,1,8,0:0:0:0:
256,192,96562,1,0,0:0:0:0:
256,192,96735,1,8,0:0:0:0:
256,192,96821,1,8,0:0:0:0:
256,192,96907,1,0,0:0:0:0:
256,192,97252,1,0,0:0:0:0:
256,192,97424,1,0,0:0:0:0:
256,192,97597,1,8,0:0:0:0:
256,192,97769,1,0,0:0:0:0:
256,192,97942,1,0,0:0:0:0:
256,192,98114,1,0,0:0:0:0:
256,192,98200,1,0,0:0:0:0:
256,192,98286,1,8,0:0:0:0:
256,192,98631,1,0,0:0:0:0:
256,192,98804,1,0,0:0:0:0:
256,192,98976,1,8,0:0:0:0:
256,192,99148,1,0,0:0:0:0:
256,192,99321,1,0,0:0:0:0:
256,192,99493,1,0,0:0:0:0:
256,192,99579,1,0,0:0:0:0:
256,192,99666,1,8,0:0:0:0:
256,192,100011,1,0,0:0:0:0:
256,192,100355,1,0,0:0:0:0:
256,192,100700,1,0,0:0:0:0:
256,192,100873,1,8,0:0:0:0:
256,192,100959,1,8,0:0:0:0:
256,192,101045,1,0,0:0:0:0:
256,192,101390,1,0,0:0:0:0:
256,192,101562,1,8,0:0:0:0:
256,192,101735,1,0,0:0:0:0:
256,192,101907,1,8,0:0:0:0:
256,192,102079,1,0,0:0:0:0:
256,192,102424,1,0,0:0:0:0:
256,192,102597,1,8,0:0:0:0:
256,192,102769,1,0,0:0:0:0:
256,192,103114,1,8,0:0:0:0:
256,192,103459,1,4,0:0:0:0:
