osu file format v14

[General]
AudioFilename: Perpetual Traumal.mp3
AudioLeadIn: 1000
PreviewTime: 1390
Countdown: 0
SampleSet: Soft
StackLeniency: 0.7
Mode: 0
LetterboxInBreaks: 1
WidescreenStoryboard: 0

[Editor]
DistanceSpacing: 0.7
BeatDivisor: 4
GridSize: 4
TimelineZoom: 1

[Metadata]
Title:Perpetual Traumal
TitleUnicode:Perpetual Traumal
Artist:bbn
ArtistUnicode:bbn
Creator:Flower
Version:Oblivion
Source:Oblivious Garden
Tags:corypheesoft Carmina Burana Shirotsumekusa Lan Wings
BeatmapID:184042
BeatmapSetID:61819

[Difficulty]
HPDrainRate:6
CircleSize:4
OverallDifficulty:7
ApproachRate:9
SliderMultiplier:1.8
SliderTickRate:1

[Events]
//Background and Video events
0,0,"evlin05_1.jpg",0,0
Video,500,"Perpetual Traumal.flv"
//Break Periods
//Storyboard Layer 0 (Background)
//Storyboard Layer 1 (Fail)
//Storyboard Layer 2 (Pass)
//Storyboard Layer 3 (Foreground)
//Storyboard Sound Samples

[TimingPoints]
11,344.827586206897,4,2,0,35,1,0
2769,-100,4,2,4,45,0,1
12942,-66.6666666666667,4,2,4,45,0,1
13459,-100,4,2,0,30,0,0
15183,-100,4,2,1,40,0,0
26217,-100,4,2,1,30,0,0
26390,-100,4,2,1,40,0,0
28114,-100,4,2,1,30,0,0
28286,-100,4,2,1,50,0,0
28373,-100,4,2,1,40,0,0
31735,-100,4,2,1,30,0,0
31907,-100,4,2,1,40,0,0
33114,-100,4,2,1,30,0,0
33286,-100,4,2,1,40,0,0
34493,-100,4,2,1,25,0,0
34666,-100,4,2,1,40,0,0
35873,-100,4,2,1,15,0,0
36045,-100,4,2,1,20,0,0
36217,-100,4,2,1,25,0,0
36390,-100,4,2,1,30,0,0
36562,-100,4,2,1,20,0,0
36907,-100,4,2,1,30,0,0
37252,-100,4,2,4,40,0,0
57942,-100,4,2,4,20,0,0
58286,-100,4,2,4,25,0,0
58631,-100,4,2,4,30,0,0
58976,-100,4,2,4,35,0,0
59321,-100,4,2,4,40,0,0
66735,-100,4,2,4,30,0,0
66907,-100,4,2,4,40,0,0
68114,-100,4,2,4,30,0,0
68286,-100,4,2,4,40,0,0
79321,-100,4,2,4,30,0,0
79666,-100,4,2,4,35,0,0
80011,-100,4,2,4,40,0,0
81390,-100,4,2,4,45,0,1
102079,-100,4,2,4,40,0,1
102769,-100,4,2,4,35,0,1
103114,-100,4,2,4,40,0,1
103459,-100,4,2,4,45,0,0

[Colours]
Combo1 : 250,16,22
Combo2 : 122,19,225
Combo3 : 49,186,238
Combo4 : 251,228,151

[HitObjects]
84,136,1562,2,0,P|108:108|164:84,1,90,2|0,0:0|0:0,0:0:0:0:
80,228,1907,2,0,P|43:221|-6:184,1,90,2|0,0:0|0:0,0:0:0:0:
168,185,2252,2,0,B|173:198|178:207|178:207|180:212|180:212|179:218|179:218|181:222|181:222|179:226|179:226|181:232|181:232|178:238|178:238|178:244|178:244|176:248|176:248|175:252|175:252|170:266|161:275|161:275|189:297|240:294,1,180,2|0,0:0|0:0,0:0:0:0:
348,376,2769,6,0,B|369:359|382:324|382:324|368:289|330:258,1,135,12|0,0:0|0:0,0:0:0:0:
276,228,3114,2,0,P|286:181|319:146,1,90,8|0,1:2|0:0,0:0:0:0:
356,32,3373,5,2,0:0:0:0:
356,32,3459,2,0,P|373:51|384:72,1,45,0|0,0:0|0:0,0:0:0:0:
376,200,3631,2,0,P|387:177|392:154,1,45,10|0,0:0|0:0,0:0:0:0:
448,104,3804,1,8,1:2:0:0:
325,119,3976,5,2,0:0:0:0:
301,98,4062,1,0,0:0:0:0:
272,84,4148,2,0,B|232:69|199:70|199:70|185:101|146:114,1,135,8|0,0:0|0:0,0:0:0:0:
103,214,4493,2,0,P|80:159|89:115,1,90,8|2,1:2|0:0,0:0:0:0:
42,52,4752,5,0,0:0:0:0:
40,52,4838,2,0,P|76:36|136:42,1,90,0|10,0:0|0:0,0:0:0:0:
280,243,5183,2,0,P|241:234|195:195,1,90,8|2,1:2|0:0,0:0:0:0:
409,51,5528,5,8,0:0:0:0:
245,108,5700,1,0,0:0:0:0:
222,80,5786,1,2,0:0:0:0:
217,43,5873,1,8,1:2:0:0:
479,107,6045,2,0,P|481:134|476:158,1,45,2|0,0:0|0:0,0:0:0:0:
430,203,6217,5,0,0:0:0:0:
280,243,6390,1,8,0:0:0:0:
308,39,6562,1,8,1:2:0:0:
479,107,6735,1,2,0:0:0:0:
414,282,6907,6,0,B|374:272|354:232|354:232|329:222|289:232,1,135,8|0,0:0|0:0,0:0:0:0:
162,286,7252,2,0,P|198:294|248:281,1,90,0|2,1:2|0:0,0:0:0:0:
280,154,7511,5,0,0:0:0:0:
280,154,7597,2,0,P|248:175|239:188,1,45,0|0,0:0|0:0,0:0:0:0:
179,265,7769,2,0,P|132:226|117:190,1,90,10|8,0:0|1:2,0:0:0:0:
227,22,8114,1,8,0:0:0:0:
414,81,8286,5,8,0:0:0:0:
142,65,8459,1,0,0:0:0:0:
135,91,8545,1,2,0:0:0:0:
140,117,8631,1,8,1:2:0:0:
280,154,8804,5,0,0:0:0:0:
280,154,8890,2,0,P|254:115|205:89,1,90,0|2,0:0|0:0,0:0:0:0:
258,227,9148,2,0,P|304:227|343:198,1,90,8|0,0:0|1:2,0:0:0:0:
187,184,9493,1,2,0:0:0:0:
390,254,9666,6,0,B|421:229|411:181|411:181|432:164|462:159,1,135,8|2,0:0|0:0,0:0:0:0:
512,213,10011,1,8,1:2:0:0:
264,359,10183,2,0,P|229:347|214:335,1,45,0|8,0:0|0:0,0:0:0:0:
183,353,10355,5,8,0:0:0:0:
155,322,10442,1,0,0:0:0:0:
142,283,10528,1,10,0:0:0:0:
143,242,10614,1,0,0:0:0:0:
179,258,10700,5,8,1:2:0:0:
179,217,10786,1,0,0:0:0:0:
160,180,10873,1,10,0:0:0:0:
132,150,10959,1,0,0:0:0:0:
102,177,11045,6,0,B|104:134|129:110|129:110|162:107|183:79,1,135,8|0,0:0|0:0,0:0:0:0:
124,35,11390,1,8,1:2:0:0:
337,84,11562,5,2,0:0:0:0:
309,61,11648,1,0,0:0:0:0:
276,45,11735,1,0,0:0:0:0:
289,251,11907,5,10,0:0:0:0:
311,228,11993,1,0,0:0:0:0:
325,200,12079,1,8,1:2:0:0:
185,165,12252,5,2,0:0:0:0:
158,167,12338,1,0,0:0:0:0:
133,177,12424,1,8,0:0:0:0:
402,201,12597,6,0,P|397:171|390:151,1,45,8|0,0:0|0:0,0:0:0:0:
380,21,12769,2,0,P|402:41|416:57,1,45,8|0,1:2|0:0,0:0:0:0:
340,96,12942,6,0,B|317:108|284:112|284:112|272:148|260:192|180:208|92:168|108:48|180:20|224:24|268:56,1,405.000015449525,2|6,0:0|0:0,0:0:0:0:
294,330,13804,1,4,0:0:0:0:
294,330,15183,6,0,P|250:341|207:335,1,90,2|0,0:0|0:0,0:0:0:0:
294,330,15528,1,2,0:0:0:0:
184,216,15700,1,0,0:0:0:0:
145,297,15873,6,0,P|109:265|95:225,1,90,2|0,0:0|0:0,0:0:0:0:
145,297,16217,1,2,0:0:0:0:
194,138,16390,1,0,0:0:0:0:
109,148,16562,6,0,P|117:103|145:68,1,90,2|0,0:0|0:0,0:0:0:0:
109,148,16907,1,2,0:0:0:0:
219,43,17079,1,0,0:0:0:0:
289,131,17252,6,0,P|331:137|376:126,1,90,2|2,0:0|0:0,0:0:0:0:
307,38,17597,2,0,P|264:32|220:43,1,90,2|0,0:0|0:0,0:0:0:0:
402,43,17942,5,2,0:0:0:0:
367,210,18114,2,0,L|403:294,1,90,0|2,0:0|0:0,0:0:0:0:
306,270,18459,1,0,0:0:0:0:
426,153,18631,5,2,0:0:0:0:
227,166,18804,2,0,L|146:120,1,90,0|2,0:0|0:0,0:0:0:0:
174,228,19148,1,0,0:0:0:0:
283,108,19321,5,2,0:0:0:0:
306,270,19493,2,0,L|266:362,2,90,0|2|0,0:0|0:0|0:0,0:0:0:0:
377,79,20011,2,0,P|423:71|471:82,1,90,2|2,0:0|0:0,0:0:0:0:
326,178,20355,2,0,P|280:186|232:175,1,90,2|0,0:0|0:0,0:0:0:0:
116,61,20700,5,2,0:2:0:0:
283,108,20873,1,0,0:0:0:0:
111,156,21045,1,2,0:0:0:0:
288,13,21217,1,0,0:0:0:0:
276,198,21390,6,0,L|382:173,1,90,2|0,0:0|0:0,0:0:0:0:
389,184,21648,1,0,0:0:0:0:
412,198,21735,1,2,0:0:0:0:
391,364,21907,5,0,0:0:0:0:
356,342,21993,1,0,0:0:0:0:
338,305,22079,1,2,0:0:0:0:
464,58,22252,6,0,P|438:78|421:83,1,45
386,87,22424,1,2,0:0:0:0:
181,25,22597,1,0,0:0:0:0:
311,111,22769,6,0,P|262:106|220:71,1,90,2|0,0:0|0:0,0:0:0:0:
464,58,23114,1,2,0:0:0:0:
264,190,23286,1,0,0:0:0:0:
232,229,23373,1,0,0:0:0:0:
219,276,23459,6,0,B|279:264|310:219|310:219|251:172|188:181|188:181|136:144|159:63,1,360,10|0,0:0|0:0,0:0:0:0:
137,241,24321,5,2,0:0:0:0:
235,102,24493,1,0,0:0:0:0:
41,139,24666,1,0,0:0:0:0:
298,32,24838,6,0,B|324:83|314:129|314:129|336:150|398:145,1,180,2|0,0:0|0:0,0:0:0:0:
389,145,25528,1,2,0:0:0:0:
503,244,25873,2,0,B|464:241|431:217|431:217|404:230|365:225,1,135,8|0,0:0|0:0,0:0:0:0:
338,261,26217,5,6,0:0:0:0:
496,161,26390,1,0,0:0:0:0:
416,316,26562,5,2,0:0:0:0:
338,261,26735,1,0,0:0:0:0:
300,172,26907,1,2,0:0:0:0:
388,22,27079,5,0,0:0:0:0:
410,109,27252,1,2,0:0:0:0:
403,198,27424,1,0,0:0:0:0:
198,356,27597,6,0,B|177:311|186:258|186:258|234:260|269:236,1,180,2|0,0:0|0:0,0:0:0:0:
196,84,28114,1,2,0:0:0:0:
503,152,28286,6,0,B|468:118|408:114|408:114|378:147|337:144,1,180,8|0,0:0|0:0,0:0:0:0:
120,52,28804,1,8,0:0:0:0:
268,118,28976,5,10,0:0:0:0:
168,256,29148,1,0,0:0:0:0:
124,132,29321,2,0,L|35:131,1,90,2|0,0:0|0:0,0:0:0:0:
266,103,29666,5,2,0:0:0:0:
169,269,29838,1,0,0:0:0:0:
108,144,30011,2,0,L|19:143,1,90,2|0,0:0|0:0,0:0:0:0:
262,90,30355,5,2,0:0:0:0:
172,282,30527,1,0,0:0:0:0:
92,156,30700,2,0,L|3:155,1,90,8|0,0:0|0:0,0:0:0:0:
216,200,31045,6,0,B|256:236|256:280|256:280|288:304|344:300,1,180,8|0,0:0|0:0,0:0:0:0:
488,104,31562,1,0,0:0:0:0:
404,232,31735,6,0,P|428:274|432:322,1,90,6|0,0:0|0:0,0:0:0:0:
313,211,32079,2,0,P|337:168|377:141,1,90,2|0,0:0|0:0,0:0:0:0:
484,193,32424,1,2,0:0:0:0:
339,300,32597,1,0,0:0:0:0:
172,126,32769,2,0,L|141:23,1,90,10|0,0:0|0:0,0:0:0:0:
246,166,33114,6,0,P|209:200|152:206,1,90,6|0,0:0|0:0,0:0:0:0:
246,78,33459,2,0,P|293:93|327:139,1,90,2|0,0:0|0:0,0:0:0:0:
86,199,33804,1,2,0:0:0:0:
86,199,33976,1,0,0:0:0:0:
276,304,34148,1,2,0:0:0:0:
276,304,34321,1,0,0:0:0:0:
246,78,34493,6,0,B|248:124|197:147|197:147|185:195|214:243,1,180,4|2,0:0|0:0,0:0:0:0:
403,214,35011,5,0,0:0:0:0:
432,202,35097,1,0,0:0:0:0:
457,183,35183,1,2,0:0:0:0:
279,198,35355,5,0,0:0:0:0:
280,232,35441,1,0,0:0:0:0:
290,265,35527,1,2,0:0:0:0:
357,88,35700,5,0,0:0:0:0:
324,62,35786,1,0,0:0:0:0:
286,46,35873,2,2,L|249:55,14,22.5,0|0|0|0|0|0|0|0|0|0|0|0|0|0|2,0:0|0:0|0:0|0:0|0:0|0:0|0:0|0:0|0:0|0:0|0:0|0:0|0:0|0:0|0:0,0:0:0:0:
233,44,36562,5,10,0:0:0:0:
228,84,36648,1,8,0:0:0:0:
209,120,36735,1,0,0:0:0:0:
174,141,36821,1,10,0:0:0:0:
143,114,36907,5,10,0:0:0:0:
122,148,36993,1,8,0:0:0:0:
130,187,37079,1,8,0:0:0:0:
157,217,37166,1,10,0:0:0:0:
196,227,37252,6,0,B|198:272|172:309|172:309|149:319|124:321,1,135,14|0,0:0|0:0,0:0:0:0:
45,231,37597,6,0,P|65:250|96:263,1,45,8|0,1:2|0:0,0:0:0:0:
293,331,37769,2,0,P|265:335|232:327,1,45,2|10,0:0|0:0,0:0:0:0:
274,247,37942,2,0,B|321:243|351:266|351:266|378:262|408:243,1,135,0|2,0:0|0:0,0:0:0:0:
452,196,38286,5,8,1:2:0:0:
183,33,38459,1,2,0:0:0:0:
201,68,38545,1,0,0:0:0:0:
233,92,38631,1,8,0:0:0:0:
508,94,38804,2,0,P|478:78|459:75,1,45,2|0,0:0|0:0,0:0:0:0:
406,113,38976,6,0,P|395:63|418:18,1,90,8|2,1:2|0:0,0:0:0:0:
452,196,39321,2,0,P|475:241|464:290,1,90,8|0,0:0|0:0,0:0:0:0:
180,192,39666,1,8,1:2:0:0:
400,252,39838,5,2,0:0:0:0:
375,271,39924,1,0,0:0:0:0:
344,279,40011,1,8,0:0:0:0:
149,356,40183,1,2,0:0:0:0:
177,327,40269,1,8,1:2:0:0:
36,128,40442,1,2,0:0:0:0:
36,128,40528,2,0,L|66:168,1,45,8|0,0:0|0:0,0:0:0:0:
53,237,40700,6,0,P|78:235|113:225,1,45,8|0,0:0|0:0,0:0:0:0:
201,110,40873,2,0,P|176:112|141:122,1,45,10|0,0:0|0:0,0:0:0:0:
180,192,41045,2,0,P|219:225|259:236,1,90,8|2,1:2|0:0,0:0:0:0:
502,143,41390,6,0,B|466:125|426:123|426:123|416:152|390:165,1,135,8|2,0:0|0:0,0:0:0:0:
355,101,41735,5,8,1:2:0:0:
386,371,41907,1,2,0:0:0:0:
434,359,41993,1,0,0:0:0:0:
464,320,42079,2,0,B|413:307|394:289|394:289|413:266|413:228,1,135,8|2,0:0|0:0,0:0:0:0:
274,131,42424,6,0,P|299:154|312:179,1,45,8|0,1:2|0:0,0:0:0:0:
301,326,42597,2,0,P|313:294|315:266,1,45,2|0,0:0|0:0,0:0:0:0:
241,202,42769,2,0,P|192:207|152:225,1,90,8|2,0:0|0:0,0:0:0:0:
106,351,43028,2,0,P|148:325|176:292,1,90,8|2,1:2|0:0,0:0:0:0:
356,234,43286,2,0,P|323:220|303:215,1,45,8|0,0:0|0:0,0:0:0:0:
241,202,43459,5,8,0:0:0:0:
437,219,43631,1,2,0:0:0:0:
288,267,43804,1,8,1:2:0:0:
219,53,43976,1,2,0:0:0:0:
258,45,44062,1,0,0:0:0:0:
297,54,44148,6,0,P|300:103|278:146,1,90,8|2,0:0|0:0,0:0:0:0:
162,202,44407,2,0,P|179:156|218:126,1,90,8|2,1:2|0:0,0:0:0:0:
408,132,44666,2,0,P|381:143|352:146,1,45,8|0,0:0|0:0,0:0:0:0:
283,139,44838,5,8,0:0:0:0:
468,92,45011,1,2,0:0:0:0:
416,272,45183,1,8,1:2:0:0:
352,204,45355,1,2,0:0:0:0:
440,180,45528,5,8,0:0:0:0:
320,288,45700,1,2,0:0:0:0:
283,139,45873,1,8,1:2:0:0:
492,312,46045,5,2,0:0:0:0:
472,336,46131,1,0,0:0:0:0:
444,352,46217,1,8,0:0:0:0:
152,212,46390,2,0,P|184:204|204:204,1,45,2|0,0:0|0:0,0:0:0:0:
264,220,46562,1,8,1:2:0:0:
268,356,46735,1,10,0:0:0:0:
80,268,46907,6,0,P|60:208|68:168,1,90,8|2,0:0|0:0,0:0:0:0:
152,52,47166,1,0,0:0:0:0:
152,52,47252,2,0,P|148:92|116:148,1,90,8|2,1:2|0:0,0:0:0:0:
16,92,47511,5,0,0:0:0:0:
16,92,47597,2,0,P|44:84|80:80,1,45,8|0,0:0|0:0,0:0:0:0:
260,120,47769,2,0,P|232:128|196:132,1,45,2|2,0:0|0:0,0:0:0:0:
112,28,47942,2,0,P|140:20|176:16,1,45,8|0,1:2|0:0,0:0:0:0:
168,188,48114,2,0,P|140:196|104:200,1,45,2|0,0:0|0:0,0:0:0:0:
216,96,48286,6,0,B|256:84|296:96|296:96|276:116|272:168,1,135,8|2,0:0|0:0,0:0:0:0:
308,212,48631,1,8,1:2:0:0:
460,120,48804,5,2,0:0:0:0:
480,84,48890,1,0,0:0:0:0:
480,44,48976,1,8,0:0:0:0:
368,160,49148,6,0,P|384:192|396:204,1,45,2|8,0:0|0:0,0:0:0:0:
450,240,49321,1,8,1:2:0:0:
216,96,49493,5,2,0:0:0:0:
175,131,49579,1,0,0:0:0:0:
173,185,49666,2,0,P|219:205|249:234,1,90,8|2,0:0|0:0,0:0:0:0:
310,329,49924,2,0,P|287:304|273:282,1,45,0|8,0:0|1:2,0:0:0:0:
104,367,50183,5,2,0:0:0:0:
120,335,50269,1,0,0:0:0:0:
151,318,50355,2,0,L|190:344,1,45,8|0,0:0|0:0,0:0:0:0:
153,235,50528,2,0,L|199:225,1,45,2|8,0:0|0:0,0:0:0:0:
110,163,50700,2,0,L|136:123,1,45,8|0,1:2|0:0,0:0:0:0:
31,163,50873,2,0,L|21:116,1,45,2|0,0:0|0:0,0:0:0:0:
35,35,51045,6,0,P|76:23|128:26,1,90,8|2,0:0|0:0,0:0:0:0:
244,140,51304,2,0,P|204:122|166:87,1,90,8|2,1:2|0:0,0:0:0:0:
256,13,51562,2,0,P|236:40|211:59,1,45,8|0,0:0|0:0,0:0:0:0:
160,96,51735,5,8,0:0:0:0:
340,64,51907,1,2,0:0:0:0:
244,140,52079,1,8,1:2:0:0:
424,108,52251,1,2,0:0:0:0:
420,116,52338,1,0,0:0:0:0:
416,124,52424,6,0,P|444:160|452:208,1,90,8|2,0:0|0:0,0:0:0:0:
324,264,52683,1,2,0:0:0:0:
324,264,52769,2,0,P|339:222|386:185,1,90,8|2,1:2|0:0,0:0:0:0:
484,288,53028,1,0,0:0:0:0:
484,288,53114,6,0,P|460:284|440:276,1,45,8|0,0:0|0:0,0:0:0:0:
212,220,53286,2,0,P|235:213|256:212,1,45,2|8,0:0|0:0,0:0:0:0:
420,336,53459,2,0,P|402:318|390:300,1,45,8|0,1:2|0:0,0:0:0:0:
264,160,53631,2,0,P|286:168|305:179,1,45,2|0,0:0|0:0,0:0:0:0:
308,344,53804,6,0,B|263:335|243:297|243:297|218:287|179:299,1,135,8|2,0:0|0:0,0:0:0:0:
44,356,54148,2,0,P|92:352|140:328,1,90,8|2,1:2|0:0,0:0:0:0:
140,176,54407,5,8,0:0:0:0:
140,176,54493,2,0,P|116:216|120:272,1,90,8|2,0:0|0:0,0:0:0:0:
300,252,54838,1,8,1:2:0:0:
216,56,55011,1,2,0:0:0:0:
68,200,55183,5,8,0:0:0:0:
420,232,55355,2,0,P|388:228|356:228,1,45,2|0,0:0|0:0,0:0:0:0:
300,252,55528,6,0,P|300:208|336:152,1,90,8|2,1:2|0:0,0:0:0:0:
396,76,55786,1,0,0:0:0:0:
396,76,55873,6,0,P|384:104|364:124,1,45,8|0,0:0|0:0,0:0:0:0:
232,160,56045,2,0,P|244:132|264:112,1,45,10|0,0:0|0:0,0:0:0:0:
420,232,56217,2,0,P|392:207|383:183,1,45,8|0,1:2|0:0,0:0:0:0:
296,32,56390,2,0,P|310:66|308:91,1,45,2|0,0:0|0:0,0:0:0:0:
316,152,56562,5,10,0:0:0:0:
292,188,56648,1,0,0:0:0:0:
260,220,56735,1,2,0:0:0:0:
220,236,56821,1,0,0:0:0:0:
236,280,56907,5,8,1:2:0:0:
192,284,56993,1,0,0:0:0:0:
148,272,57079,1,10,0:0:0:0:
108,248,57166,1,0,0:0:0:0:
72,272,57252,6,8,L|23:276,1,45
79,162,57424,2,0,L|36:138,1,45,2|8,0:0|0:0,0:0:0:0:
178,98,57597,2,0,L|157:54,1,45,10|0,1:3|0:0,0:0:0:0:
288,77,57769,2,0,L|296:29,1,45,10|0,0:0|0:0,0:0:0:0:
400,100,57942,6,2,L|432:76,30,22.5,2|0|0|0|0|0|0|0|0|0|0|0|0|0|0|0|2|0|0|0|0|0|0|0|2|0|0|0|0|0|0,0:0|0:0|0:0|0:0|0:0|0:0|0:0|0:0|1:0|0:0|0:0|0:0|0:0|0:0|0:0|0:0|0:0|0:0|0:0|0:0|0:0|0:0|0:0|0:0|1:2|0:0|0:0|0:0|0:0|0:0|0:0,0:0:0:0:
392,176,59321,6,0,B|304:156|304:156|248:176,1,135,6|0,0:0|0:0,0:0:0:0:
228,288,59666,2,0,B|272:272|272:272|304:228,1,90,2|0,0:0|0:0,0:0:0:0:
200,52,60011,1,0,0:0:0:0:
112,124,60183,2,0,L|100:176,2,45,0|0|2,0:0|0:0|0:0,0:0:0:0:
12,72,60528,1,0,0:0:0:0:
232,192,60700,5,0,0:0:0:0:
232,192,60786,1,0,0:0:0:0:
232,192,60873,1,2,0:0:0:0:
232,192,60959,1,0,0:0:0:0:
232,192,61045,1,0,0:0:0:0:
232,192,61131,1,0,0:0:0:0:
232,192,61217,1,2,0:0:0:0:
232,192,61304,1,0,0:0:0:0:
232,192,61390,6,0,B|292:136|292:136|352:152,1,135
432,284,61735,2,0,B|392:256|392:256|384:216,1,90,2|0,0:0|0:0,0:0:0:0:
420,148,61993,1,2,0:0:0:0:
420,148,62079,6,0,B|457:110|457:110|438:30,1,135
296,32,62424,2,0,B|320:68|320:68|376:80,1,90,2|0,0:0|0:0,0:0:0:0:
196,116,62769,2,0,B|172:80|172:80|116:68,1,90
124,80,63028,1,0,0:0:0:0:
120,88,63114,1,2,0:0:0:0:
36,204,63286,1,0,0:0:0:0:
144,204,63459,6,0,L|176:248,3,45,0|0|2|0,0:0|0:0|0:0|0:0,0:0:0:0:
224,196,63804,2,0,L|256:240,3,45,0|0|2|0,0:0|0:0|0:0|0:0,0:0:0:0:
304,188,64148,1,0,0:0:0:0:
316,208,64235,1,0,0:0:0:0:
328,228,64321,1,2,0:0:0:0:
340,248,64407,1,0,0:0:0:0:
352,268,64493,2,0,L|419:199,1,90,2|0,0:0|0:0,0:0:0:0:
368,144,64752,1,2,0:0:0:0:
368,144,64838,6,0,B|358:84|358:84|403:12,1,135
443,133,65183,2,0,B|481:151|481:151|503:193,1,90,2|0,0:0|0:0,0:0:0:0:
328,352,65528,2,0,B|289:333|289:333|267:291,1,90
260,304,65786,1,0,0:0:0:0:
252,316,65873,1,2,0:0:0:0:
176,192,66045,1,0,0:0:0:0:
32,320,66217,6,0,B|116:328|116:328|164:296,1,135
120,240,66562,1,2,0:0:0:0:
292,212,66735,1,2,0:0:0:0:
44,80,66907,5,0,0:0:0:0:
76,96,66993,1,0,0:0:0:0:
108,112,67079,1,2,0:0:0:0:
140,128,67166,1,0,0:0:0:0:
168,104,67252,5,0,0:0:0:0:
204,100,67338,1,0,0:0:0:0:
240,96,67424,1,2,0:0:0:0:
276,92,67511,1,0,0:0:0:0:
296,64,67597,6,0,B|364:124|364:124|316:156,1,135
292,212,67942,1,2,0:0:0:0:
196,184,68114,1,2,0:0:0:0:
304,360,68286,5,0,0:0:0:0:
332,332,68373,1,0,0:0:0:0:
360,304,68459,1,2,0:0:0:0:
388,276,68545,1,0,0:0:0:0:
424,292,68631,5,0,0:0:0:0:
416,252,68717,1,0,0:0:0:0:
408,212,68804,1,2,0:0:0:0:
400,172,68890,1,0,0:0:0:0:
432,148,68976,6,0,L|476:64,1,90
196,184,69321,2,0,L|260:256,1,90,2|0,0:0|0:0,0:0:0:0:
144,40,69666,6,0,L|208:28,1,60
268,72,69896,1,2,0:0:0:0:
140,116,70011,6,0,L|204:104,1,60
264,148,70241,1,2,0:0:0:0:
336,112,70355,6,0,P|384:108|432:128,1,90,12|0,0:0|0:0,0:0:0:0:
496,304,70700,2,0,P|448:308|400:288,1,90,8|2,1:2|0:0,0:0:0:0:
176,264,71045,6,0,B|236:268|264:228|264:228|300:216|344:240,1,180,8|8,0:0|1:2,0:0:0:0:
364,312,71505,5,0,0:0:0:0:
300,356,71620,5,2,0:0:0:0:
228,332,71735,6,0,L|264:288,1,45,8|0,0:0|0:0,0:0:0:0:
176,264,71907,2,0,L|224:234,1,45,0|0,0:0|0:0,0:0:0:0:
152,180,72079,2,0,L|207:169,1,45,8|0,1:2|0:0,0:0:0:0:
154,93,72251,2,0,L|210:102,1,45,2|0,0:0|0:0,0:0:0:0:
248,44,72424,5,8,0:0:0:0:
280,76,72511,1,0,0:0:0:0:
300,116,72597,1,2,0:0:0:0:
300,160,72683,1,0,0:0:0:0:
284,200,72769,1,8,1:2:0:0:
328,196,72855,1,0,0:0:0:0:
372,180,72942,2,0,L|400:144,1,45,2|0,0:0|0:0,0:0:0:0:
384,72,73114,5,10,0:0:0:0:
420,104,73200,1,0,0:0:0:0:
448,144,73286,1,0,0:0:0:0:
460,192,73373,1,2,0:0:0:0:
456,240,73459,1,8,1:2:0:0:
408,256,73545,1,0,0:0:0:0:
360,252,73631,1,2,0:0:0:0:
316,232,73717,1,0,0:0:0:0:
280,196,73804,5,8,0:0:0:0:
240,226,73890,1,0,0:0:0:0:
220,271,73976,1,2,1:2:0:0:
220,320,74062,1,0,0:0:0:0:
236,366,74148,1,8,1:2:0:0:
191,359,74235,1,0,0:0:0:0:
148,344,74321,1,2,0:0:0:0:
124,305,74407,1,0,0:0:0:0:
124,260,74493,6,0,P|153:233|160:168,1,90,8|0,0:0|0:0,0:0:0:0:
44,120,74752,1,2,0:0:0:0:
44,120,74838,2,0,P|64:170|107:198,1,90,8|0,1:2|0:0,0:0:0:0:
301,120,75183,2,0,P|251:108|204:120,1,90,8|2,0:0|0:0,0:0:0:0:
121,122,75528,6,0,P|137:90|161:66,1,45,8|0,1:2|0:0,0:0:0:0:
278,42,75700,2,0,P|242:46|211:60,1,45
199,189,75873,5,8,0:0:0:0:
368,76,76045,2,0,P|392:80|416:96,1,45,2|0,0:0|0:0,0:0:0:0:
464,144,76217,1,8,1:2:0:0:
372,332,76390,1,2,0:0:0:0:
380,300,76476,1,0,0:0:0:0:
376,268,76562,1,8,0:0:0:0:
159,252,76735,6,0,P|183:264|215:268,1,45,2|0,1:2|0:0,0:0:0:0:
275,260,76907,1,8,1:2:0:0:
392,180,77079,1,2,0:0:0:0:
280,32,77252,5,8,0:0:0:0:
236,36,77338,1,0,0:0:0:0:
200,64,77424,1,0,0:0:0:0:
196,108,77511,1,2,0:0:0:0:
220,144,77597,5,8,1:2:0:0:
264,128,77683,1,0,0:0:0:0:
300,156,77769,1,2,0:0:0:0:
316,196,77855,1,0,0:0:0:0:
292,236,77942,1,8,0:0:0:0:
248,252,78028,1,2,0:0:0:0:
208,232,78114,1,0,0:0:0:0:
196,188,78200,1,2,0:0:0:0:
156,168,78286,6,0,L|104:152,1,45,8|0,1:2|0:0,0:0:0:0:
8,204,78459,2,0,L|60:220,1,45,2|0,1:2|0:0,0:0:0:0:
80,244,78631,5,8,0:0:0:0:
96,280,78717,1,0,0:0:0:0:
100,320,78804,1,10,0:0:0:0:
80,356,78890,1,0,0:0:0:0:
124,340,78976,5,8,1:2:0:0:
168,336,79062,1,0,0:0:0:0:
212,336,79148,1,10,0:0:0:0:
252,356,79235,1,0,0:0:0:0:
296,332,79321,5,8,0:0:0:0:
328,292,79407,1,8,0:0:0:0:
332,244,79493,1,10,1:2:0:0:
316,196,79579,1,10,0:0:0:0:
288,156,79666,6,8,L|216:148,1,45,8|8,1:2|0:0,0:0:0:0:
84,24,79838,2,8,L|156:32,1,45,10|8,0:0|0:0,0:0:0:0:
188,72,80011,5,10,0:0:0:0:
188,72,80585,5,2,0:0:0:0:
68,152,80700,6,0,L|136:136,1,60,0|2,0:0|0:0,0:0:0:0:
312,136,80930,6,0,L|244:152,1,60,0|2,0:0|0:0,0:0:0:0:
140,224,81160,6,0,L|208:208,1,60,0|2,0:0|0:0,0:0:0:0:
302,222,81390,6,0,B|337:214|349:193|349:193|337:147|373:113,1,135,12|0,0:0|0:0,0:0:0:0:
504,150,81735,2,0,P|468:170|414:170,1,90,8|0,1:2|0:0,0:0:0:0:
389,26,81993,5,2,0:0:0:0:
389,26,82079,2,0,P|434:68|445:99,1,90,0|10,0:0|0:0,0:0:0:0:
408,246,82424,1,8,1:2:0:0:
267,146,82597,1,2,0:0:0:0:
403,326,82769,6,0,B|358:326|333:282|333:282|308:277|275:291,1,135,8|0,0:0|0:0,0:0:0:0:
144,355,83114,2,0,P|195:351|236:329,1,90,8|2,1:2|0:0,0:0:0:0:
236,228,83373,5,0,0:0:0:0:
236,228,83459,2,0,P|251:207|272:188,1,45,8|0,0:0|0:0,0:0:0:0:
383,142,83631,2,0,P|357:144|330:153,1,45,2|0,0:0|0:0,0:0:0:0:
372,60,83804,2,0,P|419:74|452:106,1,90,8|10,1:2|0:0,0:0:0:0:
487,299,84148,6,0,B|452:332|422:335|422:335|396:320|366:310,1,135,8|0,0:0|0:0,0:0:0:0:
296,302,84493,1,8,1:2:0:0:
46,358,84666,5,0,0:0:0:0:
86,363,84752,1,2,0:0:0:0:
125,357,84838,1,0,0:0:0:0:
242,134,85011,5,10,0:0:0:0:
227,161,85097,1,0,0:0:0:0:
225,192,85183,2,0,P|231:239|265:276,1,90,8|2,1:2|0:0,0:0:0:0:
313,78,85528,6,0,B|278:38|241:30|241:30|231:52|199:62,1,135,8|0,0:0|0:0,0:0:0:0:
44,44,85873,2,0,P|92:41|135:54,1,90,8|2,1:2|0:0,0:0:0:0:
164,121,86131,5,0,0:0:0:0:
164,121,86217,2,0,P|144:142|128:149,1,45,8|0,0:0|0:0,0:0:0:0:
10,262,86390,2,0,P|19:234|30:221,1,45,10|0,0:0|0:0,0:0:0:0:
23,119,86562,2,0,P|43:135|59:159,1,45,10|0,1:2|0:0,0:0:0:0:
116,308,86735,2,0,P|100:287|91:260,1,45,0|0,0:0|0:0,0:0:0:0:
153,221,86907,6,0,B|196:227|231:191|231:191|233:245,1,135,8|0,0:0|0:0,0:0:0:0:
277,299,87252,1,8,1:2:0:0:
491,272,87424,5,2,0:0:0:0:
456,250,87511,1,0,0:0:0:0:
417,236,87597,1,0,0:0:0:0:
180,117,87769,2,0,P|229:107|286:111,1,90,10|8,0:0|1:2,0:0:0:0:
382,135,88114,1,0,0:0:0:0:
140,234,88286,5,8,0:0:0:0:
293,203,88459,1,0,0:0:0:0:
323,229,88545,1,2,0:0:0:0:
337,266,88631,2,0,P|308:294|263:313,1,90,8|2,1:2|0:0,0:0:0:0:
24,140,88976,6,0,P|66:142|109:159,1,90,8|0,0:0|0:0,0:0:0:0:
168,312,89321,1,8,1:2:0:0:
14,220,89493,1,8,0:0:0:0:
10,179,89579,1,0,0:0:0:0:
24,140,89666,6,0,B|32:104|68:80|68:80|96:92|136:84,1,135,8|2,0:0|0:0,0:0:0:0:
244,188,90011,2,0,P|218:173|190:121,1,90,0|2,1:2|0:0,0:0:0:0:
192,48,90269,5,0,0:0:0:0:
192,48,90355,2,0,P|224:40|240:40,1,45,8|0,0:0|0:0,0:0:0:0:
408,80,90528,2,0,P|379:63|363:59,1,45,2|0,0:0|0:0,0:0:0:0:
216,152,90700,2,0,P|228:132|248:116,1,45,10|0,1:2|0:0,0:0:0:0:
360,172,90873,2,0,P|353:149|338:128,1,45
320,244,91045,6,0,B|364:260|404:240|404:240|424:256|428:288,1,135,10|0,0:0|0:0,0:0:0:0:
484,324,91390,1,0,1:2:0:0:
280,348,91562,2,0,B|284:301|245:266|245:266|240:217|277:183,1,180,2|0,0:0|0:0,0:0:0:0:
484,40,92079,1,10,1:2:0:0:
404,144,92252,1,0,0:0:0:0:
188,24,92424,6,0,B|232:32|264:56|264:56|260:80|272:112,1,135,12|0,0:0|0:0,0:0:0:0:
380,224,92769,2,0,P|357:178|315:145,1,90,8|2,1:2|0:0,0:0:0:0:
184,220,93028,5,0,0:0:0:0:
184,220,93114,2,0,P|237:204|271:164,1,90,0|10,0:0|0:0,0:0:0:0:
340,40,93459,1,8,1:2:0:0:
100,48,93631,5,0,0:0:0:0:
116,84,93717,1,0,0:0:0:0:
148,112,93804,1,8,0:0:0:0:
40,284,93976,5,0,0:0:0:0:
44,252,94062,1,2,0:0:0:0:
60,224,94148,2,0,P|97:207|150:203,1,90,8|2,1:2|0:0,0:0:0:0:
216,364,94493,6,0,P|182:339|153:296,1,90,8|2,0:0|0:0,0:0:0:0:
240,92,94838,2,0,P|248:120|248:152,1,45,8|0,1:2|0:0,0:0:0:0:
240,284,95011,2,0,P|252:264|264:232,1,45,2|8,0:0|0:0,0:0:0:0:
312,188,95183,6,0,B|340:228|328:272|328:272|348:288|384:296,1,135,10|0,0:0|0:0,0:0:0:0:
440,312,95528,1,8,1:2:0:0:
364,32,95700,1,2,0:0:0:0:
416,236,95873,6,0,P|464:188|468:152,1,90,0|10,0:0|0:0,0:0:0:0:
280,116,96217,2,0,P|232:164|228:200,1,90,8|0,1:2|0:0,0:0:0:0:
296,364,96562,6,0,B|275:329|229:306|229:306|219:284|223:256,1,135,10|2,0:0|0:0,0:0:0:0:
72,240,96907,2,0,P|112:224|172:220,1,90,8|2,1:2|0:0,0:0:0:0:
336,224,97166,1,0,0:0:0:0:
336,224,97252,2,0,P|292:200|240:192,1,90,8|0,0:0|0:0,0:0:0:0:
188,152,97511,5,8,0:0:0:0:
188,152,97597,2,0,P|164:135|148:116,1,45,8|0,1:2|0:0,0:0:0:0:
232,24,97769,2,0,P|229:52|220:76,1,45,2|0,0:0|0:0,0:0:0:0:
56,112,97942,6,0,B|80:56|100:40|100:40|132:48|168:44,1,135,8|2,0:0|0:0,0:0:0:0:
292,116,98286,2,0,P|248:144|212:148,1,90,8|2,1:2|0:0,0:0:0:0:
316,40,98631,5,8,0:0:0:0:
344,56,98717,1,0,0:0:0:0:
360,84,98804,1,10,0:0:0:0:
368,112,98890,1,0,0:0:0:0:
408,128,98976,5,10,1:2:0:0:
396,168,99062,1,0,0:0:0:0:
364,192,99148,1,8,0:0:0:0:
324,204,99235,1,0,0:0:0:0:
284,200,99321,6,0,B|276:244|288:288|288:288|256:296|216:280,1,135,10|0,0:0|0:0,0:0:0:0:
8,280,99666,2,0,P|40:276|64:276,1,45,8|0,1:2|0:0,0:0:0:0:
192,352,99838,2,0,P|160:347|136:341,1,45,2|2,0:0|0:0,0:0:0:0:
44,204,100011,2,0,P|68:216|88:236,1,45,0|0,0:0|0:0,0:0:0:0:
180,336,100183,2,0,P|159:318|145:293,1,45,10|0,0:0|0:0,0:0:0:0:
100,152,100355,2,0,P|116:172|128:196,1,45,8|0,1:2|0:0,0:0:0:0:
176,316,100528,2,0,P|165:292|160:266,1,45,2|0,0:0|0:0,0:0:0:0:
196,136,100700,6,0,B|212:180|204:212|204:212|220:236|252:248,1,135,8|2,0:0|0:0,0:0:0:0:
288,244,101045,5,8,1:2:0:0:
328,248,101131,1,0,0:0:0:0:
364,268,101217,1,2,0:0:0:0:
388,300,101304,1,2,0:0:0:0:
400,344,101390,5,8,0:0:0:0:
436,316,101476,1,0,0:0:0:0:
460,276,101562,1,10,0:0:0:0:
468,232,101648,1,0,0:0:0:0:
456,188,101735,6,0,L|412:172,1,45,8|0,1:2|0:0,0:0:0:0:
248,40,101907,2,0,L|292:56,1,45,10|0,0:0|0:0,0:0:0:0:
344,136,102079,5,8,0:0:0:0:
296,144,102166,1,0,0:0:0:0:
252,164,102252,1,10,0:0:0:0:
220,204,102338,1,0,0:0:0:0:
240,252,102424,5,8,1:2:0:0:
188,272,102511,1,0,0:0:0:0:
136,272,102597,1,10,0:0:0:0:
84,260,102683,1,0,0:0:0:0:
28,268,102769,5,8,0:0:0:0:
32,208,102855,1,8,0:0:0:0:
52,152,102942,1,8,0:0:0:0:
96,116,103028,1,8,0:0:0:0:
148,92,103114,6,0,P|165:103|180:124,1,45,8|0,1:2|0:0,0:0:0:0:
344,309,103286,2,0,P|329:294|319:272,1,45,8|0,1:2|0:0,0:0:0:0:
296,188,103459,5,12,0:0:0:0:
