osu file format v12

[General]
AudioFilename: Perpetual Traumal.mp3
AudioLeadIn: 1000
PreviewTime: 1390
Countdown: 0
SampleSet: Soft
StackLeniency: 0.7
Mode: 0
LetterboxInBreaks: 1
WidescreenStoryboard: 1

[Editor]
DistanceSpacing: 1
BeatDivisor: 4
GridSize: 4

[Metadata]
Title:Perpetual Traumal
TitleUnicode:Perpetual Traumal
Artist:bbn
ArtistUnicode:bbn
Creator:Flower
Version:Normal
Source:Oblivious Garden
Tags:corypheesoft Carmina Burana Shirotsumekusa Lan Wings
BeatmapID:325507
BeatmapSetID:61819

[Difficulty]
HPDrainRate:4
CircleSize:3
OverallDifficulty:4
ApproachRate:5
SliderMultiplier:1.12
SliderTickRate:1

[Events]
//Background and Video events
0,0,"evlin05_1.jpg",0,0
Video,500,"Perpetual Traumal.flv"
//Break Periods
//Storyboard Layer 0 (Background)
//Storyboard Layer 1 (Fail)
//Storyboard Layer 2 (Pass)
//Storyboard Layer 3 (Foreground)
//Storyboard Sound Samples
//Background Colour Transformations
3,100,163,162,255

[TimingPoints]
11,344.827586206897,4,2,0,35,1,0
2769,-100,4,2,4,45,0,1
13459,-100,4,2,0,30,0,0
15183,-100,4,2,1,40,0,0
26217,-100,4,2,1,30,0,0
26390,-100,4,2,1,40,0,0
28114,-100,4,2,1,30,0,0
28286,-100,4,2,1,50,0,0
28373,-100,4,2,1,40,0,0
31735,-100,4,2,1,30,0,0
31907,-100,4,2,1,40,0,0
33114,-100,4,2,1,30,0,0
33286,-100,4,2,1,40,0,0
34493,-100,4,2,1,25,0,0
34666,-100,4,2,1,40,0,0
35873,-100,4,2,1,20,0,0
37252,-100,4,2,4,40,0,0
57942,-100,4,2,4,20,0,0
58286,-100,4,2,4,25,0,0
58631,-100,4,2,4,30,0,0
58976,-100,4,2,4,35,0,0
59321,-100,4,2,4,40,0,0
66735,-100,4,2,4,30,0,0
66907,-100,4,2,4,40,0,0
68114,-100,4,2,4,30,0,0
68286,-100,4,2,4,40,0,0
79321,-100,4,2,4,30,0,0
79666,-100,4,2,4,35,0,0
80011,-100,4,2,4,40,0,0
81390,-100,4,2,4,45,0,1
102079,-100,4,2,4,40,0,1
102769,-100,4,2,4,35,0,1
103459,-100,4,2,4,45,0,0

[Colours]
Combo1 : 250,16,22
Combo2 : 122,19,225
Combo3 : 49,186,238
Combo4 : 251,228,151

[HitObjects]
460,103,1562,2,0,B|474:139|460:179|460:179|469:219,2,112,2|2|2,0:0|0:0|0:0,0:0:0:0:
354,64,2597,1,0,0:0:0:0:
354,64,2769,6,0,L|237:73,1,112,12|8,0:0|1:2,0:0:0:0:
18,93,3804,1,8,1:2:0:0:
21,204,4148,2,0,P|66:198|118:144,1,112,8|8,0:0|1:2,0:0:0:0:
280,127,5011,1,10,0:0:0:0:
280,127,5183,2,0,L|400:138,1,112,8|8,1:2|0:0,0:0:0:0:
503,143,5873,5,8,1:2:0:0:
405,344,6562,1,8,1:2:0:0:
496,279,6907,2,0,P|461:248|397:234,1,112,8|0,0:0|1:2,0:0:0:0:
263,334,7769,1,10,0:0:0:0:
263,334,7942,2,0,L|147:343,1,112,8|8,1:2|0:0,0:0:0:0:
45,307,8631,6,0,B|0:272|18:204|18:204|52:171|52:171|42:103,1,224,8|0,1:2|1:2,0:0:0:0:
129,37,9666,2,0,L|240:42,1,112,8|8,0:0|1:2,0:0:0:0:
408,50,10528,1,10,0:0:0:0:
408,50,10700,2,0,P|431:103|423:166,1,112,8|8,1:2|0:0,0:0:0:0:
388,261,11390,5,8,1:2:0:0:
169,212,12079,1,8,1:2:0:0:
273,171,12424,6,0,B|289:235|257:281|257:281|276:335,2,168,8|8|2,0:0|0:0|0:0,0:0:0:0:
222,70,13804,1,4,0:0:0:0:
26,337,15183,6,0,L|153:344,1,112,2|2,0:0|0:0,0:0:0:0:
247,317,15873,2,0,P|292:345|463:308,1,224,2|2,0:0|0:0,0:0:0:0:
511,223,16907,1,2,0:0:0:0:
448,130,17252,2,0,L|333:118,1,112,2|2,0:0|0:0,0:0:0:0:
239,62,17942,6,0,P|221:106|242:176,1,112,2|2,0:0|0:0,0:0:0:0:
327,230,18631,2,0,P|288:261|133:209,1,224,2|2,0:0|0:0,0:0:0:0:
44,152,19666,2,0,L|55:40,2,112,2|2|2,0:0|0:0|0:0,0:0:0:0:
9,258,20700,6,0,B|35:323|35:323|92:300|146:330|146:330|186:308,1,224,2|2,0:2|0:0,0:0:0:0:
220,206,21735,1,2,0:0:0:0:
300,128,22079,2,0,B|361:109|411:142|411:142|393:191|393:191|417:248,1,224,2|2,0:0|0:0,0:0:0:0:
450,348,23114,1,2,0:0:0:0:
450,348,23459,5,10,0:0:0:0:
170,325,24321,2,0,B|106:309|64:352|64:352|18:320,1,168,2|2,0:0|0:0,0:0:0:0:
41,98,25528,1,2,0:0:0:0:
142,145,25873,1,8,0:0:0:0:
231,78,26217,6,0,L|351:71,1,112,6|2,0:0|0:0,0:0:0:0:
314,180,26907,2,0,L|434:193,1,112,2|2,0:0|0:0,0:0:0:0:
496,279,27597,2,0,P|469:336|364:344,1,168,2|2,0:0|0:0,0:0:0:0:
326,318,28286,2,0,B|261:312|261:312|225:357|165:350,1,168,8|8,0:0|0:0,0:0:0:0:
118,328,28976,6,0,L|50:233,1,112,10|2,0:0|0:0,0:0:0:0:
159,200,29666,2,0,L|141:83,1,112,2|2,0:0|0:0,0:0:0:0:
246,47,30355,2,0,B|305:38|305:38|346:80|409:72,1,168,2|0,0:0|0:0,0:0:0:0:
443,111,31045,2,0,L|424:280,1,168,8|0,0:0|0:0,0:0:0:0:
389,322,31735,6,0,P|341:340|265:329,1,112,6|2,0:0|0:0,0:0:0:0:
320,230,32424,2,0,P|273:208|227:147,1,112,2|10,0:0|0:0,0:0:0:0:
157,81,33114,6,0,P|98:64|36:80,1,112,6|2,0:0|0:0,0:0:0:0:
90,177,33804,2,0,P|36:206|3:261,1,112,2|2,0:0|0:0,0:0:0:0:
66,343,34493,5,4,0:0:0:0:
289,335,35183,1,2,0:0:0:0:
175,141,35873,1,4,0:0:0:0:
481,33,37252,6,0,L|489:150,1,112,14|8,0:0|1:2,0:0:0:0:
371,335,38286,1,8,1:2:0:0:
259,346,38631,2,0,B|218:343|196:299|196:299|158:303,1,112,8|8,0:0|1:2,0:0:0:0:
55,318,39321,2,0,L|20:365,2,56,8|0|8,0:0|0:0|1:2,0:0:0:0:
91,211,40011,6,0,L|76:90,1,112,8|8,0:0|1:2,0:0:0:0:
293,40,41045,1,8,1:2:0:0:
234,135,41390,2,0,P|291:150|354:134,1,112,8|8,0:0|1:2,0:0:0:0:
442,91,42079,2,0,L|465:38,2,56,8|0|8,0:0|0:0|1:2,0:0:0:0:
435,203,42769,6,0,B|441:242|441:242|424:273|439:314,1,112,8|8,0:0|1:2,0:0:0:0:
334,352,43459,2,0,L|216:347,1,112,8|8,0:0|1:2,0:0:0:0:
111,363,44148,2,0,P|109:325|154:260,1,112,8|8,0:0|1:2,0:0:0:0:
254,232,44838,2,0,L|324:235,2,56,8|0|8,0:0|0:0|1:2,0:0:0:0:
174,153,45528,6,0,L|49:173,1,112,8|8,0:0|1:2,0:0:0:0:
7,73,46217,2,0,L|132:53,1,112,8|8,0:0|1:2,0:0:0:0:
229,54,46907,2,0,B|266:74|279:110|279:110|269:160,1,112,8|8,0:0|1:2,0:0:0:0:
242,252,47597,1,8,0:0:0:0:
336,311,47942,1,8,1:2:0:0:
427,247,48286,6,0,L|442:127,1,112,8|8,0:0|1:2,0:0:0:0:
229,54,49321,1,8,1:2:0:0:
120,80,49666,2,0,B|93:112|103:157|103:157|131:178,1,112,8|8,0:0|1:2,0:0:0:0:
290,216,50528,1,8,0:0:0:0:
290,216,50700,2,0,L|406:211,1,112,8|8,1:2|0:0,0:0:0:0:
473,297,51390,5,8,1:2:0:0:
254,344,52079,2,0,L|132:336,1,112,8|8,1:2|0:0,0:0:0:0:
30,327,52769,1,8,1:2:0:0:
19,159,53286,1,8,0:0:0:0:
19,159,53459,2,0,P|61:163|112:221,1,112,8|8,1:2|0:0,0:0:0:0:
210,256,54148,5,8,1:2:0:0:
428,204,54838,2,0,L|438:90,1,112,8|8,1:2|0:0,0:0:0:0:
338,39,55528,1,8,1:2:0:0:
177,88,56045,1,8,0:0:0:0:
177,88,56217,2,0,P|187:133|246:176,1,112,8|10,1:2|0:0,0:0:0:0:
337,221,56907,6,0,L|328:338,1,112,8|8,1:2|0:0,0:0:0:0:
217,351,57597,1,10,1:3:0:0:
113,307,57942,6,0,P|86:253|89:193,1,112,2|0,0:0|1:0,0:0:0:0:
161,118,58631,2,0,P|188:172|185:232,1,112,2|2,0:0|1:2,0:0:0:0:
286,276,59321,6,0,B|341:298|341:298|386:265|442:284|442:284|496:252,1,224,6|0,0:0|0:0,0:0:0:0:
499,143,60355,1,2,0:0:0:0:
404,83,60700,2,0,B|356:71|323:88|323:88|293:79,1,112,0|2,0:0|0:0,0:0:0:0:
184,62,61390,2,0,B|142:81|98:66|98:66|75:83,1,112,0|2,0:0|0:0,0:0:0:0:
17,173,62079,6,0,B|43:223|16:282|16:282|62:311|62:311|136:301,1,224,2|0,0:0|0:0,0:0:0:0:
229,291,63114,1,2,0:0:0:0:
297,202,63459,2,0,L|305:85,1,112,0|2,0:0|0:0,0:0:0:0:
201,46,64148,2,0,L|193:163,1,112,0|2,0:0|0:0,0:0:0:0:
103,225,64838,6,0,B|149:272|207:262|207:262|134:349,1,224,2|0,0:0|0:0,0:0:0:0:
29,314,65873,1,2,0:0:0:0:
2,205,66217,2,0,B|-13:143|27:101|27:101|90:116,1,168,0|2,0:0|0:0,0:0:0:0:
121,74,66907,6,0,P|176:82|235:53,1,112,0|0,0:0|0:0,0:0:0:0:
336,85,67597,2,0,B|393:95|431:45|431:45|447:121,1,168,2|2,0:0|0:0,0:0:0:0:
494,124,68286,6,0,L|479:249,1,112,0|0,0:0|0:0,0:0:0:0:
464,346,68976,2,0,L|405:353,1,56,2|0,0:0|0:0,0:0:0:0:
366,314,69321,2,0,L|307:321,1,56,2|0,0:0|0:0,0:0:0:0:
257,302,69666,6,0,B|153:254|148:361|34:308,1,224,2|12,0:0|0:0,0:0:0:0:
6,205,70700,1,8,1:2:0:0:
83,124,71045,2,0,L|194:128,1,112,8|8,0:0|1:2,0:0:0:0:
271,210,71735,6,0,P|303:157|293:90,1,112,8|8,0:0|1:2,0:0:0:0:
402,60,72424,2,0,L|472:51,2,56,8|2|8,0:0|0:0|1:2,0:0:0:0:
394,172,73114,6,0,B|387:212|387:212|422:233|433:279,1,112,10|8,0:0|1:2,0:0:0:0:
325,309,73804,2,0,L|337:369,2,56,8|2|8,0:0|1:2|1:2,0:0:0:0:
222,263,74493,2,0,P|172:260|106:295,1,112,8|8,0:0|1:2,0:0:0:0:
18,231,75183,2,0,L|10:116,1,112,8|8,0:0|1:2,0:0:0:0:
120,98,75873,6,0,L|129:36,2,56,8|0|8,0:0|0:0|1:2,0:0:0:0:
227,129,76562,2,0,L|267:67,2,56,8|0|8,0:0|0:0|1:2,0:0:0:0:
157,217,77252,2,0,P|205:239|272:228,1,112,8|8,0:0|1:2,0:0:0:0:
367,193,77942,1,8,0:0:0:0:
417,93,78286,1,8,1:2:0:0:
312,53,78631,6,0,L|256:47,1,56,8|10,0:0|0:0,0:0:0:0:
222,92,78976,2,0,L|166:86,1,56,8|10,1:2|0:0,0:0:0:0:
116,111,79321,2,0,L|123:228,1,112,8|8,0:0|1:2,0:0:0:0:
130,334,80011,1,10,0:0:0:0:
446,154,81390,6,0,P|378:170|334:148,1,112,12|8,0:0|1:2,0:0:0:0:
132,73,82424,1,8,1:2:0:0:
48,147,82769,2,0,P|37:197|52:255,1,112,8|8,0:0|1:2,0:0:0:0:
119,344,83459,2,0,L|180:340,1,56,8|10,0:2|0:0,0:0:0:0:
224,313,83804,2,0,L|292:330,1,56,8|2,1:2|0:0,0:0:0:0:
330,347,84148,6,0,P|382:360|451:340,1,112,8|8,0:0|1:2,0:0:0:0:
505,133,85183,2,0,P|487:81|438:45,1,112,8|8,1:2|0:0,0:0:0:0:
332,30,85873,1,8,1:2:0:0:
200,134,86390,1,10,0:0:0:0:
200,134,86562,2,0,L|72:121,1,112,8|8,1:2|0:0,0:0:0:0:
3,196,87252,6,0,P|31:240|30:309,1,112,8|0,1:2|0:0,0:0:0:0:
129,356,87942,1,8,1:2:0:0:
233,316,88286,2,0,P|270:268|275:210,1,112,8|8,0:0|1:2,0:0:0:0:
286,106,88976,2,0,L|345:97,1,56,8|2,0:0|0:0,0:0:0:0:
393,118,89321,2,0,L|451:128,1,56,8|8,1:2|0:0,0:0:0:0:
490,165,89666,6,0,P|501:215|481:272,1,112,8|0,0:0|1:2,0:0:0:0:
269,344,90700,1,8,1:2:0:0:
191,263,91045,2,0,B|236:225|293:233|293:233|328:178,2,168,10|2|8,0:0|0:0|1:2,0:0:0:0:
108,338,92424,6,0,P|63:340|4:299,1,112,12|8,0:0|1:2,0:0:0:0:
30,83,93459,1,0,1:2:0:0:
140,66,93804,2,0,P|183:55|256:58,1,112,8|8,0:0|1:2,0:0:0:0:
409,110,94666,1,2,0:0:0:0:
409,110,94838,2,0,L|405:223,1,112,8|10,1:2|0:0,0:0:0:0:
350,320,95528,6,0,P|316:339|235:332,1,112,8|0,1:2|0:0,0:0:0:0:
142,291,96217,1,8,1:2:0:0:
227,218,96562,2,0,L|235:102,1,112,10|8,0:0|1:2,0:0:0:0:
72,60,97424,1,2,0:0:0:0:
72,60,97597,2,0,P|36:93|26:160,1,112,8|8,1:2|0:0,0:0:0:0:
56,260,98286,5,8,1:2:0:0:
157,306,98631,2,0,L|220:302,1,56,8|10,0:0|0:0,0:0:0:0:
250,344,98976,2,0,L|313:340,1,56,8|8,1:2|0:0,0:0:0:0:
361,330,99321,6,0,P|385:285|378:215,1,112,10|8,0:0|1:2,0:0:0:0:
283,89,100183,1,10,0:0:0:0:
283,89,100355,2,0,L|163:92,1,112,8|8,1:2|0:0,0:0:0:0:
58,95,101045,1,8,1:2:0:0:
256,192,101217,12,4,103459,0:0:0:0:
