osu file format v12

[General]
AudioFilename: Perpetual Traumal.mp3
AudioLeadIn: 1000
PreviewTime: 1390
Countdown: 0
SampleSet: None
StackLeniency: 0.7
Mode: 0
LetterboxInBreaks: 1
WidescreenStoryboard: 1

[Editor]
DistanceSpacing: 0.8
BeatDivisor: 8
GridSize: 4

[Metadata]
Title:Perpetual Traumal
TitleUnicode:Perpetual Traumal
Artist:bbn
ArtistUnicode:bbn
Creator:Flower
Version:Lan
Source:Oblivious Garden
Tags:corypheesoft Carmina Burana Shirotsumekusa Lan Wings
BeatmapID:306145
BeatmapSetID:61819

[Difficulty]
HPDrainRate:6
CircleSize:4
OverallDifficulty:8
ApproachRate:9
SliderMultiplier:2.00000000596047
SliderTickRate:1

[Events]
//Background and Video events
0,0,"evlin05_1.jpg",0,0
Video,0,"Perpetual Traumal.flv"
//Break Periods
//Storyboard Layer 0 (Background)
//Storyboard Layer 1 (Fail)
//Storyboard Layer 2 (Pass)
//Storyboard Layer 3 (Foreground)
//Storyboard Sound Samples
//Background Colour Transformations
3,100,163,162,255

[TimingPoints]
11,344.827586206897,4,2,1,40,1,0
2769,-100,4,2,1,40,0,1
2812,-100,4,2,3,35,0,1
8200,-100,4,2,1,50,0,1
8329,-100,4,2,3,35,0,1
13459,-66.6666666666667,4,2,3,50,0,0
13804,-100,4,2,1,30,0,0
15355,-100,4,2,1,40,0,0
16648,-100,4,2,1,30,0,0
17683,-100,4,2,1,25,0,0
19062,-100,4,2,1,20,0,0
20614,-100,4,2,2,20,0,0
20829,-100,4,2,1,15,0,0
23416,-100,4,2,1,20,0,0
23545,-100,4,2,1,23,0,0
23717,-100,4,2,1,26,0,0
23890,-100,4,2,1,30,0,0
24752,-100,4,2,2,40,0,0
24924,-100,4,2,1,20,0,0
25829,-133.333333333333,4,2,1,25,0,0
26131,-100,4,2,1,5,0,0
26174,-100,4,2,1,30,0,0
32855,-100,4,2,1,35,0,0
34235,-100,4,2,1,40,0,0
35829,-100,4,2,2,40,0,0
35916,-100,4,2,2,20,0,0
36692,-100,4,2,1,20,0,0
36821,-100,4,2,1,25,0,0
36907,-100,4,2,1,30,0,0
36993,-100,4,2,1,35,0,0
37079,-100,4,2,1,40,0,0
37252,-100,4,2,3,40,0,1
37554,-100,4,2,1,25,0,1
37640,-100,4,2,3,40,0,1
37855,-100,4,2,1,25,0,1
38028,-100,4,2,3,40,0,1
58890,-100,4,2,3,30,0,1
59019,-100,4,2,3,40,0,1
59235,-100,4,2,1,40,0,1
59321,-100,4,2,1,30,0,0
59493,-100,4,2,3,30,0,0
70312,-100,4,2,1,30,0,0
70657,-100,4,2,3,30,0,0
70743,-100,4,2,1,30,0,0
71174,-100,4,2,3,30,0,0
71261,-100,4,2,1,30,0,0
71347,-100,4,2,3,30,0,0
71692,-100,4,2,1,30,0,0
71993,-100,4,2,3,30,0,0
73114,-100,4,2,1,30,0,1
73157,-100,4,2,3,30,0,0
74450,-100,4,2,1,30,0,0
74579,-100,4,2,3,30,0,0
76476,-100,4,2,1,30,0,0
76821,-100,4,2,3,30,0,0
77855,-100,4,2,1,30,0,0
77985,-100,4,2,3,30,0,0
78545,-100,4,2,2,30,0,0
79967,-200,4,2,1,30,0,0
80183,-200,4,2,1,40,0,0
80585,-100,4,2,1,40,0,0
81390,-100,4,1,0,40,0,1
81476,-100,4,2,3,40,0,1
103459,-100,4,2,1,40,0,0

[Colours]
Combo1 : 250,16,22
Combo2 : 122,19,225
Combo3 : 49,186,238
Combo4 : 251,228,151

[HitObjects]
156,284,1562,1,2,0:0:0:0:
120,140,1735,1,0,0:0:0:0:
204,232,1907,1,0,0:0:0:0:
72,88,2079,1,2,0:0:0:0:
256,184,2252,2,0,B|320:188|352:136|352:136|316:32,1,200.000000596047,2|0,0:0|0:0,0:0:0:0:
428,112,2769,5,8,0:0:0:0:
440,140,2855,1,0,0:0:0:0:
452,168,2942,1,0,0:0:0:0:
464,196,3028,1,0,0:0:0:0:
476,224,3114,2,0,B|500:284,1,50.0000001490117,8|0,0:0|0:0,0:0:0:0:
404,296,3286,2,0,B|406:360,1,50.0000001490117,0|0,0:0|0:0,0:0:0:0:
312,328,3459,5,0,0:0:0:0:
128,276,3631,1,2,0:0:0:0:
300,192,3804,1,8,0:0:0:0:
392,48,3976,1,2,0:0:0:0:
144,120,4148,2,0,B|112:176|48:168,1,100.000000298023,2|2,0:0|0:0,0:0:0:0:
8,160,4407,2,0,B|0:188,2,25.0000000745059,0|0|10,0:0|0:0|0:0,0:0:0:0:
63,72,4666,6,0,B|113:65|144:120,1,100.000000298023,2|0,0:0|0:0,0:0:0:0:
156,228,5011,2,0,B|212:216|236:172|236:172|292:176|344:228,1,200.000000596047,2|2,0:0|0:0,0:0:0:0:
220,344,5528,2,0,B|236:288|284:252,1,100.000000298023,0|2,0:0|0:0,0:0:0:0:
340,280,5786,1,0,0:0:0:0:
340,280,5873,2,0,B|400:264|396:192,1,100.000000298023,8|2,0:0|0:0,0:0:0:0:
464,192,6131,1,0,0:0:0:0:
464,192,6217,5,2,0:0:0:0:
308,72,6390,1,2,0:0:0:0:
231,255,6562,1,8,0:0:0:0:
388,136,6735,5,2,0:0:0:0:
428,108,6821,1,0,0:0:0:0:
476,100,6907,1,2,0:0:0:0:
232,136,7079,1,2,0:0:0:0:
192,164,7165,1,0,0:0:0:0:
144,172,7252,2,0,B|112:176|92:160|92:160|24:172,1,100.000000298023,8|2,0:0|0:0,0:0:0:0:
188,320,7597,5,0,0:0:0:0:
188,320,7769,1,2,0:0:0:0:
284,184,7942,1,8,0:0:0:0:
284,184,8114,1,2,0:0:0:0:
156,52,8286,5,10,0:0:0:0:
208,60,8373,1,0,0:0:0:0:
256,68,8459,1,2,0:0:0:0:
304,68,8545,1,0,0:0:0:0:
348,68,8631,1,8,0:0:0:0:
396,88,8717,1,0,0:0:0:0:
436,120,8804,1,2,0:0:0:0:
468,156,8890,1,0,0:0:0:0:
484,204,8976,2,0,B|495:234|480:264,1,50.0000001490117
412,232,9148,5,2,0:0:0:0:
292,324,9321,1,8,0:0:0:0:
360,184,9493,1,2,0:0:0:0:
488,316,9666,1,2,0:0:0:0:
428,160,9838,1,2,0:0:0:0:
428,160,9924,1,0,0:0:0:0:
428,160,10011,1,8,0:0:0:0:
240,280,10183,5,2,0:0:0:0:
416,304,10355,1,0,0:0:0:0:
196,228,10528,1,2,0:0:0:0:
372,112,10700,1,8,0:0:0:0:
352,272,10873,1,2,0:0:0:0:
168,164,11045,6,0,B|148:112|148:36,1,100.000000298023,0|2,0:0|0:0,0:0:0:0:
264,20,11304,1,0,0:0:0:0:
264,20,11390,2,0,B|259:74|212:124,1,100.000000298023,8|2,0:0|0:0,0:0:0:0:
288,204,11648,2,0,B|260:196|243:182,1,50.0000001490117
64,84,11907,5,2,0:0:0:0:
0,288,12079,1,8,0:0:0:0:
208,228,12252,1,2,0:0:0:0:
208,228,12338,1,0,0:0:0:0:
208,228,12424,2,0,B|246:264|260:336,1,100.000000298023,0|2,0:0|0:0,0:0:0:0:
428,308,12769,2,0,B|375:301|322:251,1,100.000000298023,8|2,0:0|0:0,0:0:0:0:
64,316,13114,2,0,B|110:290|182:299,1,100.000000298023,0|2,0:0|0:0,0:0:0:0:
416,224,13459,6,0,B|458:243|537:187|508:105|440:50|362:105|365:151,1,300.000012338163,2|4,0:0|0:0,0:0:0:0:
208,64,15183,6,0,B|272:148,1,100.000000298023,12|2,0:0|0:0,0:0:0:0:
304,320,15528,2,0,B|240:236,1,100.000000298023,0|2,0:0|0:0,0:0:0:0:
408,152,15873,2,0,B|316:212,1,100.000000298023,2|2,0:0|0:0,0:0:0:0:
104,232,16217,2,0,B|196:172,2,100.000000298023,0|2|0,0:0|0:0|0:0,0:0:0:0:
216,276,16735,5,2,0:0:0:0:
248,288,16821,1,0,0:0:0:0:
280,300,16907,1,0,0:0:0:0:
344,216,17079,1,2,0:0:0:0:
376,204,17165,1,0,0:0:0:0:
408,193,17251,1,2,0:0:0:0:
392,100,17424,2,0,B|445:2,1,100.000000298023,2|0,0:0|0:0,0:0:0:0:
280,60,17769,6,0,B|216:80,2,50.0000001490117,2|0|0,0:0|0:0|0:0,0:0:0:0:
248,148,18114,2,0,B|181:144,2,50.0000001490117,2|0|0,0:0|0:0|0:0,0:0:0:0:
188,220,18459,2,0,B|126:194,2,50.0000001490117,2|0|2,0:0|0:0|0:0,0:0:0:0:
104,260,18804,2,0,B|54:214,2,50.0000001490117,2|0|0,0:0|0:0|0:0,0:0:0:0:
196,340,19148,5,2,0:0:0:0:
192,356,19235,1,0,0:0:0:0:
188,372,19321,1,0,0:0:0:0:
276,264,19493,1,2,0:0:0:0:
283,278,19580,1,0,0:0:0:0:
290,293,19666,1,0,0:0:0:0:
332,160,19838,1,2,0:0:0:0:
346,166,19925,1,0,0:0:0:0:
361,173,20011,6,0,B|416:192|416:192|460:192,1,100.000000298023,2|2,0:0|0:0,0:0:0:0:
288,80,20355,2,0,B|233:61|233:61|189:61,1,100.000000298023,0|2,0:0|0:0,0:0:0:0:
64,140,20700,6,0,B|104:200|104:200|140:220|196:216,1,150.000000447035,0|0,0:0|0:0,0:0:0:0:
288,80,21045,6,0,B|216:84|216:84|180:105|156:156,1,150.000000447035,2|0,0:0|0:0,0:0:0:0:
232,308,21390,6,0,B|263:243|263:243|263:202|231:155,1,150.000000447035,2|0,0:0|0:0,0:0:0:0:
196,180,21735,5,2,0:0:0:0:
149,283,21907,5,0,0:0:0:0:
132,296,21993,1,0,0:0:0:0:
116,308,22079,1,2,0:0:0:0:
196,180,22252,1,0,0:0:0:0:
200,160,22338,1,0,0:0:0:0:
204,140,22424,1,2,0:0:0:0:
218,290,22597,1,0,0:0:0:0:
224,308,22683,1,0,0:0:0:0:
232,328,22769,1,2,0:0:0:0:
135,214,22942,1,0,0:0:0:0:
120,204,23028,1,0,0:0:0:0:
104,192,23114,1,2,0:0:0:0:
247,227,23286,1,0,0:0:0:0:
268,228,23372,1,0,0:0:0:0:
288,228,23458,5,2,0:0:0:0:
337,283,23631,1,0,0:0:0:0:
381,163,23804,1,0,0:0:0:0:
389,339,23976,1,2,0:0:0:0:
268,108,24321,5,2,0:0:0:0:
88,92,24493,1,0,0:0:0:0:
304,172,24666,1,2,0:0:0:0:
128,32,24838,1,0,0:0:0:0:
340,236,25011,2,0,B|372:300,2,50.0000001490117,0|0|0,0:0|0:0|0:0,0:0:0:0:
44,152,25355,2,0,B|8:196,2,50.0000001490117,0|0|2,0:0|0:0|0:0,0:0:0:0:
376,84,25700,1,0,0:0:0:0:
376,84,25786,1,0,0:0:0:0:
376,84,25873,2,0,B|324:112|268:108,1,112.500004626811,4|0,0:0|0:0,0:0:0:0:
267,107,26217,6,0,B|179:174,1,100.000000298023,12|2,0:0|0:0,0:0:0:0:
96,304,26562,2,0,B|184:237,1,100.000000298023,0|2,0:0|0:0,0:0:0:0:
308,176,26907,5,0,0:0:0:0:
456,160,27079,1,2,0:0:0:0:
228,184,27252,5,0,0:0:0:0:
401,226,27424,1,2,0:0:0:0:
148,192,27597,5,0,0:0:0:0:
346,292,27769,2,0,B|304:332|248:344,1,100.000000298023,2|0,0:0|0:0,0:0:0:0:
248,224,28114,2,0,B|264:160|312:116,1,100.000000298023,2|0,0:0|0:0,0:0:0:0:
152,296,28459,1,2,0:0:0:0:
124,296,28545,1,0,0:0:0:0:
96,288,28631,1,0,0:0:0:0:
364,192,28804,5,2,0:0:0:0:
392,184,28890,1,0,0:0:0:0:
420,184,28976,2,0,B|476:180|512:216,1,100.000000298023,0|2,0:0|0:0,0:0:0:0:
340,116,29321,2,0,B|298:153|247:145,1,100.000000298023,0|2,0:0|0:0,0:0:0:0:
216,140,29579,1,0,0:0:0:0:
188,128,29666,1,0,0:0:0:0:
264,60,29838,5,2,0:0:0:0:
160,216,30011,2,0,B|116:256|60:236,1,100.000000298023,2|0,0:0|0:0,0:0:0:0:
284,240,30355,2,0,B|328:200|384:220,1,100.000000298023,2|0,0:0|0:0,0:0:0:0:
320,336,30700,2,0,P|264:344|216:317,1,100.000000298023,0|2,0:0|0:0,0:0:0:0:
208,303,30959,1,0,0:0:0:0:
201,275,31045,1,2,0:0:0:0:
212,168,31217,1,0,0:0:0:0:
300,216,31390,1,2,0:0:0:0:
180,132,31562,5,0,0:0:0:0:
180,132,31648,2,0,B|124:120,1,50.0000001490117,0|12,0:0|0:0,0:0:0:0:
332,252,31907,1,0,0:0:0:0:
332,252,31993,2,0,B|388:264,1,50.0000001490117,0|2,0:0|0:0,0:0:0:0:
152,92,32252,1,0,0:0:0:0:
152,92,32338,2,0,B|103:61,1,50.0000001490117,0|2,0:0|0:0,0:0:0:0:
360,292,32597,1,0,0:0:0:0:
360,292,32683,2,0,B|408:322,1,50.0000001490117,0|2,0:0|0:0,0:0:0:0:
136,200,32942,5,2,0:0:0:0:
112,220,33028,1,0,0:0:0:0:
88,240,33114,1,12,0:0:0:0:
376,184,33286,1,0,0:0:0:0:
400,164,33372,1,0,0:0:0:0:
424,144,33458,1,2,0:0:0:0:
169,275,33631,1,0,0:0:0:0:
163,306,33717,1,0,0:0:0:0:
158,336,33803,1,2,0:0:0:0:
342,108,33975,1,0,0:0:0:0:
348,77,34061,1,0,0:0:0:0:
353,47,34147,1,2,0:0:0:0:
472,216,34321,6,0,B|504:292,1,50.0000001490117
464,328,34494,1,12,0:0:0:0:
336,296,34666,2,0,B|292:270,1,50.0000001490117
256,210,34839,1,2,0:0:0:0:
140,259,35011,2,0,B|184:281,1,50.0000001490117
228,338,35184,1,2,0:0:0:0:
84,204,35355,2,0,B|40:182,1,50.0000001490117
0,116,35528,1,2,0:0:0:0:
124,116,35700,2,0,B|172:144,1,50.0000001490117,2|0,0:0|0:0,0:0:0:0:
208,208,35873,5,4,0:0:0:0:
224,228,35959,1,0,0:0:0:0:
248,240,36045,1,0,0:0:0:0:
272,244,36131,1,0,0:0:0:0:
296,240,36217,1,0,0:0:0:0:
316,228,36304,1,0,0:0:0:0:
332,208,36390,1,0,0:0:0:0:
340,184,36476,1,0,0:0:0:0:
344,160,36562,1,0,0:0:0:0:
340,136,36648,1,0,0:0:0:0:
344,112,36735,6,0,B|380:112,1,25.0000000745059,8|0,0:0|0:0,0:0:0:0:
355,81,36821,2,0,B|388:93,1,25.0000000745059,8|0,0:0|0:0,0:0:0:0:
378,54,36907,2,0,B|405:77,1,25.0000000745059,8|0,0:0|0:0,0:0:0:0:
404,39,36993,2,0,B|422:70,1,25.0000000745059,8|0,0:0|0:0,0:0:0:0:
436,34,37079,2,0,B|442:69,1,25.0000000745059,8|0,0:0|0:0,0:0:0:0:
474,42,37166,2,0,B|465:74,1,25.0000000745059,8|0,0:0|0:0,0:0:0:0:
436,128,37252,6,0,B|452:172|452:172|492:208,1,100.000000298023,4|2,0:0|0:0,0:0:0:0:
420,244,37511,2,0,B|472:288,1,50.0000001490117,2|8,0:0|0:0,0:0:0:0:
348,280,37683,1,0,0:0:0:0:
312,300,37769,2,0,B|200:312,1,100.000000298023,2|8,0:0|0:0,0:0:0:0:
32,204,38114,1,8,0:0:0:0:
88,308,38286,1,8,0:0:0:0:
152,208,38459,5,2,0:0:0:0:
164,168,38545,1,0,0:0:0:0:
168,128,38631,1,0,0:0:0:0:
76,144,38804,1,2,0:0:0:0:
268,88,38976,1,8,0:0:0:0:
28,88,39148,1,2,0:0:0:0:
312,140,39321,5,0,0:0:0:0:
455,174,39493,1,2,0:0:0:0:
467,321,39666,1,8,0:0:0:0:
330,378,39838,1,2,0:0:0:0:
234,265,40011,1,0,0:0:0:0:
108,184,40183,5,2,0:0:0:0:
80,176,40269,1,0,0:0:0:0:
52,168,40355,1,8,0:0:0:0:
256,124,40528,1,2,0:0:0:0:
284,132,40614,1,0,0:0:0:0:
312,140,40700,1,0,0:0:0:0:
430,237,40873,5,2,0:0:0:0:
334,354,41045,1,8,0:0:0:0:
217,258,41217,1,2,0:0:0:0:
312,140,41390,1,0,0:0:0:0:
152,100,41562,5,2,0:0:0:0:
152,100,41648,2,0,B|80:112,1,50.0000001490117,0|8,0:0|0:0,0:0:0:0:
0,176,41907,1,2,0:0:0:0:
0,176,41993,2,0,B|72:164,1,50.0000001490117,0|0,0:0|0:0,0:0:0:0:
220,209,42252,2,0,B|170:216|124:188,1,100.000000298023,8|8,0:0|0:0,0:0:0:0:
68,244,42511,2,0,B|44:292,2,50.0000001490117,0|2|0,0:0|0:0|0:0,0:0:0:0:
120,300,42769,6,0,B|120:336,1,25.0000000745059,2|0,0:0|0:0,0:0:0:0:
152,304,42855,2,0,B|158:339,1,25.0000000745059,2|0,0:0|0:0,0:0:0:0:
184,304,42942,2,0,B|196:337,1,25.0000000745059,2|0,0:0|0:0,0:0:0:0:
220,300,43028,2,0,B|237:331,1,25.0000000745059,0|0,0:0|0:0,0:0:0:0:
256,292,43114,6,0,B|320:304,1,50.0000001490117,8|0,0:0|0:0,0:0:0:0:
428,264,43286,2,0,B|378:254,1,50.0000001490117,2|0,0:0|0:0,0:0:0:0:
296,180,43459,2,0,B|308:116,1,50.0000001490117,2|0,0:0|0:0,0:0:0:0:
216,112,43631,2,0,B|228:48,1,50.0000001490117,2|0,0:0|0:0,0:0:0:0:
136,40,43804,1,8,0:0:0:0:
44,180,43976,5,0,0:0:0:0:
32,196,44062,1,0,0:0:0:0:
20,212,44148,1,2,0:0:0:0:
152,304,44321,1,2,0:0:0:0:
159,322,44407,1,0,0:0:0:0:
167,340,44493,1,8,0:0:0:0:
320,288,44666,1,2,0:0:0:0:
339,290,44752,1,0,0:0:0:0:
358,293,44838,1,0,0:0:0:0:
380,136,45011,5,2,0:0:0:0:
216,112,45183,1,8,0:0:0:0:
380,136,45355,1,2,0:0:0:0:
356,292,45528,5,0,0:0:0:0:
264,200,45700,1,2,0:0:0:0:
380,136,45873,1,8,0:0:0:0:
300,32,46045,1,2,0:0:0:0:
40,312,46217,5,0,0:0:0:0:
132,220,46389,1,10,0:0:0:0:
16,156,46562,1,8,0:0:0:0:
96,52,46734,1,2,0:0:0:0:
216,112,46907,5,0,0:0:0:0:
348,72,47079,1,2,0:0:0:0:
416,56,47166,2,0,B|444:116,1,50.0000001490117,2|8,0:0|0:0,0:0:0:0:
308,184,47424,1,2,0:0:0:0:
376,168,47511,2,0,B|404:228,1,50.0000001490117,0|2,0:0|0:0,0:0:0:0:
320,308,47769,5,2,0:0:0:0:
140,256,47942,1,8,0:0:0:0:
192,76,48114,1,2,0:0:0:0:
372,128,48286,2,0,B|432:144,1,50.0000001490117,2|2,0:0|0:0,0:0:0:0:
284,96,48459,2,0,B|267:36,1,50.0000001490117,2|0,0:0|0:0,0:0:0:0:
304,184,48631,2,0,B|272:220|272:220|208:220,1,100.000000298023,8|2,0:0|0:0,0:0:0:0:
188,220,48890,1,0,0:0:0:0:
160,220,48976,1,0,0:0:0:0:
3,68,49148,5,2,0:0:0:0:
31,68,49234,1,0,0:0:0:0:
64,68,49321,2,0,B|115:68|115:68|147:104,1,100.000000298023,8|2,0:0|0:0,0:0:0:0:
76,152,49579,1,0,0:0:0:0:
76,152,49666,2,0,B|24:184,1,50.0000001490117,0|0,0:0|0:0,0:0:0:0:
20,272,49838,2,0,B|72:240,1,50.0000001490117,2|0,0:0|0:0,0:0:0:0:
160,220,50011,6,0,B|212:224|288:196,1,100.000000298023,8|2,0:0|0:0,0:0:0:0:
280,56,50355,1,0,0:0:0:0:
324,76,50442,1,0,0:0:0:0:
368,96,50528,2,0,B|412:116|472:112,1,100.000000298023,2|8,0:0|0:0,0:0:0:0:
144,288,50873,2,0,B|100:268|40:272,1,100.000000298023,0|2,0:0|0:0,0:0:0:0:
256,340,51217,5,2,0:0:0:0:
256,340,51304,2,0,B|312:320,1,50.0000001490117,2|8,0:0|0:0,0:0:0:0:
292,224,51476,2,0,B|348:244,1,50.0000001490117,0|2,0:0|0:0,0:0:0:0:
396,324,51648,2,0,B|436:284,1,50.0000001490117,0|0,0:0|0:0,0:0:0:0:
480,148,51907,1,2,0:0:0:0:
336,108,52079,1,8,0:0:0:0:
216,16,52252,1,2,0:0:0:0:
100,112,52424,2,0,B|60:148|4:156,1,100.000000298023,0|2,0:0|0:0,0:0:0:0:
128,200,52683,5,2,0:0:0:0:
128,200,52769,2,0,B|176:220|228:272,1,100.000000298023,0|2,0:0|0:0,0:0:0:0:
308,356,53028,1,2,0:0:0:0:
308,356,53114,2,0,B|345:324|360:260,1,100.000000298023,0|2,0:0|0:0,0:0:0:0:
280,92,53459,2,0,B|242:123|228:188,1,100.000000298023,8|2,0:0|0:0,0:0:0:0:
184,348,53804,5,2,0:0:0:0:
156,340,53890,1,2,0:0:0:0:
128,328,53976,1,2,0:0:0:0:
104,308,54062,1,2,0:0:0:0:
84,288,54148,1,8,0:0:0:0:
64,100,54321,5,2,0:0:0:0:
84,136,54407,1,2,0:0:0:0:
104,172,54493,2,0,B|160:88,1,100.000000298023,0|8,0:0|0:0,0:0:0:0:
252,208,54838,2,0,B|308:124,1,100.000000298023,8|2,0:0|0:0,0:0:0:0:
344,112,55097,1,0,0:0:0:0:
384,104,55183,1,0,0:0:0:0:
368,240,55355,1,2,0:0:0:0:
396,208,55442,1,2,0:0:0:0:
460,380,55614,1,0,0:0:0:0:
464,340,55700,1,2,0:0:0:0:
468,300,55786,1,2,0:0:0:0:
472,260,55873,1,0,0:0:0:0:
264,368,56045,5,2,0:0:0:0:
200,240,56217,1,8,0:0:0:0:
344,112,56390,1,2,0:0:0:0:
160,36,56562,6,0,B|96:56,1,50.0000001490117,2|0,0:0|0:0,0:0:0:0:
132,132,56735,2,0,B|68:152,1,50.0000001490117,10|0,0:0|0:0,0:0:0:0:
108,228,56907,2,0,B|44:248,1,50.0000001490117,10|0,0:0|0:0,0:0:0:0:
180,320,57079,2,0,B|244:300,1,50.0000001490117,10|0,0:0|0:0,0:0:0:0:
200,240,57252,2,0,B|264:220,1,50.0000001490117,2|0,0:0|0:0,0:0:0:0:
224,160,57424,2,0,B|288:140,1,50.0000001490117,10|0,0:0|0:0,0:0:0:0:
248,80,57597,5,8,0:0:0:0:
108,228,57769,1,2,0:0:0:0:
312,132,57942,2,0,B|352:164|404:180,1,100.000000298023,2|2,0:0|0:0,0:0:0:0:
280,224,58200,5,0,0:0:0:0:
280,224,58286,2,0,B|228:244|176:228,1,100.000000298023,10|2,0:0|0:0,0:0:0:0:
52,96,58545,1,0,0:0:0:0:
52,96,58631,2,0,B|102:99|148:132,1,100.000000298023,2|2,0:0|0:0,0:0:0:0:
336,268,58976,2,0,B|316:308,1,25.0000000745059,12|2,0:0|0:0,0:0:0:0:
360,280,59062,2,0,B|354:324,1,25.0000000745059,2|2,0:0|0:0,0:0:0:0:
392,292,59148,2,0,B|403:347,1,50.0000001490117,2|0,0:0|0:0,0:0:0:0:
512,260,59321,5,12,0:0:0:0:
404,72,59666,1,2,0:0:0:0:
336,116,59838,1,0,0:0:0:0:
256,112,60011,1,0,0:0:0:0:
20,308,60355,1,2,0:0:0:0:
88,264,60527,1,0,0:0:0:0:
168,268,60700,5,0,0:0:0:0:
188,272,60786,1,0,0:0:0:0:
208,276,60873,1,0,0:0:0:0:
228,280,60959,1,0,0:0:0:0:
248,260,61045,5,2,0:0:0:0:
268,264,61131,1,0,0:0:0:0:
288,268,61218,1,0,0:0:0:0:
308,272,61304,1,0,0:0:0:0:
328,252,61390,5,0,0:0:0:0:
348,256,61476,1,0,0:0:0:0:
368,260,61562,1,0,0:0:0:0:
388,264,61649,1,0,0:0:0:0:
412,248,61735,6,0,B|457:189|468:92,1,150.000000447035,2|0,0:0|0:0,0:0:0:0:
384,100,62079,2,0,B|332:96|276:52,1,100.000000298023,2|0,0:0|0:0,0:0:0:0:
44,48,62424,1,2,0:0:0:0:
144,68,62597,1,0,0:0:0:0:
220,132,62769,1,0,0:0:0:0:
468,336,63114,1,2,0:0:0:0:
368,316,63287,1,0,0:0:0:0:
292,252,63459,5,0,0:0:0:0:
268,248,63545,1,0,0:0:0:0:
244,244,63631,1,0,0:0:0:0:
220,240,63717,1,0,0:0:0:0:
208,208,63804,5,2,0:0:0:0:
184,204,63890,1,0,0:0:0:0:
160,200,63976,1,0,0:0:0:0:
136,196,64062,1,0,0:0:0:0:
124,164,64148,5,0,0:0:0:0:
100,160,64234,1,0,0:0:0:0:
76,156,64320,1,0,0:0:0:0:
52,152,64406,1,0,0:0:0:0:
0,84,64493,6,0,B|48:60|112:88,1,100.000000298023,2|0,0:0|0:0,0:0:0:0:
208,120,64752,1,0,0:0:0:0:
208,120,64838,2,0,B|264:136|308:108|308:108|396:200,1,200.000000596047,2|2,0:0|0:0,0:0:0:0:
248,44,65355,1,0,0:0:0:0:
424,232,65528,6,0,B|376:272|320:232|320:232|268:248|256:288,1,200.000000596047,2|2,0:0|0:0,0:0:0:0:
332,320,66045,1,0,0:0:0:0:
204,208,66217,2,0,B|164:256|168:320|168:320|117:325|80:304,1,200.000000596047,2|2,0:0|0:0,0:0:0:0:
4,256,66735,1,2,0:0:0:0:
76,124,66907,5,0,0:0:0:0:
104,116,66993,1,0,0:0:0:0:
128,100,67079,1,0,0:0:0:0:
148,80,67166,1,0,0:0:0:0:
168,44,67252,5,2,0:0:0:0:
204,64,67338,1,0,0:0:0:0:
232,92,67424,1,0,0:0:0:0:
256,124,67511,1,0,0:0:0:0:
300,100,67597,6,0,B|356:112|380:156|380:156|440:184|488:136,1,200.000000596047,0|2,0:0|0:0,0:0:0:0:
420,80,68114,1,0,0:0:0:0:
304,188,68286,5,0,0:0:0:0:
280,208,68373,1,0,0:0:0:0:
256,224,68459,1,0,0:0:0:0:
228,236,68545,1,0,0:0:0:0:
208,272,68631,5,2,0:0:0:0:
180,244,68717,1,0,0:0:0:0:
144,224,68804,1,0,0:0:0:0:
104,220,68890,1,0,0:0:0:0:
64,228,68976,6,0,B|36:124,1,100.000000298023
128,288,69321,2,0,B|153:384,1,100.000000298023,2|0,0:0|0:0,0:0:0:0:
264,372,69666,5,0,0:0:0:0:
332,348,69781,1,0,0:0:0:0:
384,300,69896,1,0,0:0:0:0:
416,236,70011,1,10,0:0:0:0:
412,164,70125,1,0,0:0:0:0:
388,96,70240,1,0,0:0:0:0:
336,48,70355,6,0,B|310:40|264:48,1,50.0000001490117,14|2,0:0|0:0,0:0:0:0:
272,144,70528,2,0,B|246:154|216:190,1,50.0000001490117,2|2,0:0|0:0,0:0:0:0:
312,232,70700,2,0,B|299:256|299:302,1,50.0000001490117,8|0,0:0|0:0,0:0:0:0:
412,164,70873,6,0,B|420:138|412:92,1,50.0000001490117,2|2,0:0|0:0,0:0:0:0:
316,100,71046,2,0,B|305:74|269:44,1,50.0000001490117,2|2,0:0|0:0,0:0:0:0:
228,140,71218,2,0,B|203:127|157:127,1,50.0000001490117,10|0,0:0|0:0,0:0:0:0:
60,136,71390,6,0,B|20:152|0:200,2,66.666666865349,8|0|0,0:0|0:0|0:0,0:0:0:0:
80,212,71735,2,0,B|92:268|152:288,1,100.000000298023,10|0,0:0|0:0,0:0:0:0:
240,276,72079,5,8,0:0:0:0:
268,268,72166,1,0,0:0:0:0:
296,260,72252,1,2,0:0:0:0:
324,252,72338,1,0,0:0:0:0:
360,240,72424,5,0,0:0:0:0:
324,224,72511,1,0,0:0:0:0:
288,204,72597,1,2,0:0:0:0:
252,188,72683,1,0,0:0:0:0:
208,164,72769,5,10,0:0:0:0:
252,144,72855,1,0,0:0:0:0:
300,128,72942,1,2,0:0:0:0:
348,112,73028,1,0,0:0:0:0:
396,100,73114,6,0,B|460:116,1,50.0000001490117,10|0,0:0|0:0,0:0:0:0:
448,224,73286,2,0,B|432:288,1,50.0000001490117,2|0,0:0|0:0,0:0:0:0:
324,276,73459,2,0,B|260:260,1,50.0000001490117,2|0,0:0|0:0,0:0:0:0:
272,152,73631,2,0,B|288:88,1,50.0000001490117,2|0,0:0|0:0,0:0:0:0:
429,125,73804,6,0,B|479:186,1,50.0000001490117,8|0,0:0|0:0,0:0:0:0:
390,282,73976,2,0,B|327:333,1,50.0000001490117,8|0,0:0|0:0,0:0:0:0:
232,246,74149,2,0,B|178:184,1,50.0000001490117,8|0,0:0|0:0,0:0:0:0:
269,88,74321,2,0,B|329:36,1,50.0000001490117,8|0,0:0|0:0,0:0:0:0:
416,28,74493,5,8,0:0:0:0:
180,76,74666,1,2,0:0:0:0:
364,192,74838,1,8,0:0:0:0:
128,240,75011,1,2,0:0:0:0:
336,352,75183,6,0,B|392:368|444:360,1,100.000000298023,2|2,0:0|0:0,0:0:0:0:
128,240,75528,2,0,B|72:224|20:232,1,100.000000298023,8|2,0:0|0:0,0:0:0:0:
364,192,75873,5,2,0:0:0:0:
392,192,75959,1,2,0:0:0:0:
420,184,76045,1,2,0:0:0:0:
448,172,76131,1,2,0:0:0:0:
468,152,76217,2,0,B|493:118|508:40,1,100.000000298023,8|2,0:0|0:0,0:0:0:0:
180,76,76562,2,0,B|154:109|140:188,1,100.000000298023,8|2,0:0|0:0,0:0:0:0:
512,264,76907,5,8,0:0:0:0:
468,152,77079,1,2,0:0:0:0:
380,72,77252,1,2,0:0:0:0:
352,68,77338,1,2,0:0:0:0:
324,72,77424,1,2,0:0:0:0:
296,80,77511,1,2,0:0:0:0:
272,96,77597,2,0,B|248:112|236:132|236:132|180:148,1,100.000000298023,8|2,0:0|0:0,0:0:0:0:
56,192,77942,5,8,0:0:0:0:
84,196,78028,1,2,0:0:0:0:
288,228,78200,1,0,0:0:0:0:
260,236,78286,1,8,0:0:0:0:
232,244,78373,1,0,0:0:0:0:
204,252,78459,1,2,0:0:0:0:
64,320,78631,5,10,0:0:0:0:
84,328,78717,1,2,0:0:0:0:
104,332,78804,1,2,0:0:0:0:
124,332,78890,1,2,0:0:0:0:
144,332,78976,1,14,0:0:0:0:
164,328,79062,1,2,0:0:0:0:
184,324,79148,1,2,0:0:0:0:
204,320,79235,1,2,0:0:0:0:
224,320,79321,1,10,0:0:0:0:
244,324,79407,1,2,0:0:0:0:
264,332,79493,1,2,0:0:0:0:
284,336,79579,1,2,0:0:0:0:
304,336,79666,1,14,0:0:0:0:
324,332,79752,1,2,0:0:0:0:
340,324,79838,1,2,0:0:0:0:
356,308,79924,1,2,0:0:0:0:
364,288,80011,6,0,B|376:234|344:196|344:196|280:168,1,166.666667163372,14|2,0:0|0:0,0:0:0:0:
212,144,80700,5,2,0:0:0:0:
223,217,80815,1,0,0:0:0:0:
292,241,80930,1,2,0:0:0:0:
348,193,81045,1,2,0:0:0:0:
334,122,81160,1,0,0:0:0:0:
265,96,81275,1,2,0:0:0:0:
196,72,81390,6,0,B|148:100|96:100,1,100.000000298023,4|2,0:0|0:0,0:0:0:0:
60,100,81648,1,0,0:0:0:0:
20,92,81735,1,8,0:0:0:0:
20,292,81907,1,2,0:0:0:0:
60,284,81994,1,0,0:0:0:0:
101,284,82080,2,0,B|148:284|196:312,1,100.000000298023,0|2,0:0|0:0,0:0:0:0:
276,168,82424,1,8,0:0:0:0:
360,264,82597,5,2,0:0:0:0:
392,284,82683,1,0,0:0:0:0:
432,296,82769,1,0,0:0:0:0:
424,136,82942,1,2,0:0:0:0:
504,308,83114,1,10,0:0:0:0:
356,104,83286,6,0,B|304:64,1,50.0000001490117,2|0,0:0|0:0,0:0:0:0:
188,44,83459,2,0,B|240:84,1,50.0000001490117,0|0,0:0|0:0,0:0:0:0:
364,176,83631,1,2,0:0:0:0:
268,320,83804,1,8,0:0:0:0:
432,208,83976,1,2,0:0:0:0:
192,288,84148,6,0,B|144:284|120:228|120:228|136:156,1,150.000000447035,2|2,0:0|0:0,0:0:0:0:
216,204,84493,1,8,0:0:0:0:
164,52,84666,1,2,0:0:0:0:
156,80,84752,1,0,0:0:0:0:
148,108,84838,1,0,0:0:0:0:
238,327,85011,1,2,0:0:0:0:
383,140,85183,1,8,0:0:0:0:
512,256,85355,5,2,0:0:0:0:
484,244,85442,1,0,0:0:0:0:
456,236,85528,2,0,B|416:268|364:260|364:260|304:216,1,150.000000447035,2|2,0:0|0:0,0:0:0:0:
312,312,85873,2,0,B|212:232,1,100.000000298023,8|2,0:0|0:0,0:0:0:0:
168,308,86131,1,0,0:0:0:0:
168,308,86217,2,0,B|140:196,1,100.000000298023,0|10,0:0|0:0,0:0:0:0:
40,236,86562,1,8,0:0:0:0:
172,100,86735,2,0,B|232:116,1,50.0000001490117,2|0,0:0|0:0,0:0:0:0:
220,184,86907,5,2,0:0:0:0:
248,212,86993,1,2,0:0:0:0:
284,232,87079,1,2,0:0:0:0:
324,240,87166,1,2,0:0:0:0:
364,240,87252,2,0,B|416:240|456:200,1,100.000000298023,8|2,0:0|0:0,0:0:0:0:
504,104,87511,5,0,0:0:0:0:
476,108,87597,1,0,3:0:0:0:
448,104,87683,1,0,0:0:0:0:
420,92,87769,1,2,0:0:0:0:
256,28,87942,1,8,0:0:0:0:
92,88,88114,1,2,0:0:0:0:
68,108,88200,1,0,0:0:0:0:
48,128,88286,2,0,B|1:216|1:216|20:279,1,150.000000447035,2|2,0:0|0:0,0:0:0:0:
116,320,88631,6,0,B|80:216,1,100.000000298023,8|2,0:0|0:0,0:0:0:0:
128,160,88890,1,0,0:0:0:0:
148,180,88976,1,2,3:0:0:0:
168,200,89062,1,0,0:0:0:0:
188,220,89148,2,0,B|236:248|292:248,1,100.000000298023,2|8,0:0|0:0,0:0:0:0:
492,288,89493,5,2,0:0:0:0:
456,272,89579,1,0,0:0:0:0:
420,256,89666,2,0,B|384:228|368:176|368:176|404:108,1,150.000000447035,0|2,0:0|0:0,0:0:0:0:
464,188,90011,2,0,B|500:144|476:84,1,100.000000298023,8|2,0:0|0:0,0:0:0:0:
404,48,90269,1,0,0:0:0:0:
404,48,90355,2,0,B|352:40|300:72,1,100.000000298023,0|8,0:0|0:0,0:0:0:0:
204,232,90700,5,8,0:0:0:0:
232,136,90873,1,2,0:0:0:0:
200,96,90959,1,0,0:0:0:0:
156,68,91045,1,2,0:0:0:0:
304,208,91217,2,0,B|360:240|408:236,1,100.000000298023,2|8,0:0|0:0,0:0:0:0:
96,260,91562,2,0,B|48:280|20:332,1,100.000000298023,2|0,0:0|0:0,0:0:0:0:
172,324,91907,5,2,0:0:0:0:
232,136,92079,1,8,0:0:0:0:
404,48,92252,2,0,B|432:96,1,50.0000001490117,2|0,0:0|0:0,0:0:0:0:
448,208,92424,6,0,B|420:160,1,50.0000001490117,2|2,0:0|0:0,0:0:0:0:
400,264,92597,2,0,B|348:245,1,50.0000001490117,2|2,0:0|0:0,0:0:0:0:
400,336,92769,2,0,B|348:355,1,50.0000001490117,8|0,0:0|0:0,0:0:0:0:
236,304,92942,6,0,B|283:286,1,50.0000001490117,2|0,0:0|0:0,0:0:0:0:
236,197,93114,2,0,B|284:213,1,50.0000001490117,0|0,0:0|0:0,0:0:0:0:
306,115,93287,2,0,B|332:158,1,50.0000001490117,2|0,0:0|0:0,0:0:0:0:
400,264,93459,6,0,B|512:304,1,100.000000298023,8|2,0:0|0:0,0:0:0:0:
448,208,93717,1,0,0:0:0:0:
448,208,93804,2,0,B|427:91,1,100.000000298023,0|2,0:0|0:0,0:0:0:0:
372,196,94062,1,0,0:0:0:0:
372,196,94148,2,0,B|282:272,1,100.000000298023,8|2,0:0|0:0,0:0:0:0:
236,304,94493,5,0,0:0:0:0:
135,150,94666,1,2,0:0:0:0:
129,334,94838,1,8,0:0:0:0:
243,189,95011,2,0,B|296:76,1,100.000000298023,2|0,0:0|0:0,0:0:0:0:
404,56,95355,1,0,0:0:0:0:
435,49,95441,1,0,0:0:0:0:
463,41,95527,1,8,0:0:0:0:
376,148,95700,1,2,0:0:0:0:
340,260,95873,5,2,0:0:0:0:
364,276,95959,1,0,0:0:0:0:
388,292,96045,1,2,0:0:0:0:
236,304,96217,1,8,0:0:0:0:
92,256,96390,1,2,0:0:0:0:
48,112,96562,6,0,B|88:72|140:80|140:80|180:116,1,150.000000447035,2|2,0:0|0:0,0:0:0:0:
112,168,96907,2,0,B|148:208|204:192|204:192|232:252,1,150.000000447035,8|2,0:0|0:0,0:0:0:0:
252,304,97252,1,0,0:0:0:0:
252,132,97424,2,0,B|304:240,1,100.000000298023,2|8,0:0|0:0,0:0:0:0:
368,356,97769,2,0,B|388:296,1,50.0000001490117,2|0,0:0|0:0,0:0:0:0:
456,304,97942,5,2,0:0:0:0:
460,276,98028,1,2,0:0:0:0:
460,248,98114,1,2,0:0:0:0:
456,220,98200,1,2,0:0:0:0:
448,192,98286,2,0,B|400:168,1,50.0000001490117,8|0,0:0|0:0,0:0:0:0:
400,96,98459,5,2,0:0:0:0:
372,96,98545,1,2,0:0:0:0:
344,104,98631,1,0,3:0:0:0:
316,116,98717,1,0,0:0:0:0:
292,132,98804,2,0,B|248:168|176:144,2,100.000000298023,8|8|2,0:0|0:0|0:0,0:0:0:0:
232,64,99235,5,0,0:0:0:0:
232,64,99321,2,0,B|180:48|140:80|140:80|104:88|64:52,1,150.000000447035,2|2,0:0|0:0,0:0:0:0:
32,16,99666,1,8,0:0:0:0:
28,136,99838,5,2,0:0:0:0:
36,164,99924,1,2,0:0:0:0:
44,192,100011,1,0,3:0:0:0:
52,220,100097,1,2,0:0:0:0:
92,228,100183,1,8,0:0:0:0:
104,256,100269,1,0,0:0:0:0:
116,284,100355,1,8,0:0:0:0:
236,360,100528,5,2,0:0:0:0:
224,332,100614,1,0,0:0:0:0:
212,304,100700,2,0,B|184:232|184:232|188:192|228:172,1,150.000000447035,0|2,0:0|0:0,0:0:0:0:
264,244,101045,1,8,0:0:0:0:
376,284,101217,6,0,B|408:296,1,25.0000000745059,2|0,0:0|0:0,0:0:0:0:
392,256,101304,2,0,B|426:262,1,25.0000000745059,0|0,0:0|0:0,3:0:0:0:
404,224,101390,2,0,B|521:219,1,100.000000298023,0|2,3:0|0:0,0:0:0:0:
368,160,101735,5,8,0:0:0:0:
224,124,101907,1,2,0:0:0:0:
96,32,102079,2,0,B|40:140,1,100.000000298023,0|2,3:0|0:0,0:0:0:0:
32,336,102424,2,0,B|88:228,1,100.000000298023,8|2,0:0|0:0,0:0:0:0:
196,192,102769,5,0,0:0:0:0:
224,204,102855,1,0,0:0:0:0:
252,212,102942,1,2,0:0:0:0:
280,216,103028,1,0,0:0:0:0:
308,216,103114,2,0,B|364:208,1,50.0000001490117,8|0,0:0|0:0,0:0:0:0:
468,160,103286,2,0,B|416:148,1,50.0000001490117,2|0,0:0|0:0,0:0:0:0:
272,112,103459,5,6,0:0:0:0:
