osu file format v12

[General]
AudioFilename: Perpetual Traumal.mp3
AudioLeadIn: 1000
PreviewTime: 1390
Countdown: 0
SampleSet: Soft
StackLeniency: 0.7
Mode: 0
LetterboxInBreaks: 1
WidescreenStoryboard: 1

[Editor]
DistanceSpacing: 1.2
BeatDivisor: 4
GridSize: 4

[Metadata]
Title:Perpetual Traumal
TitleUnicode:Perpetual Traumal
Artist:bbn
ArtistUnicode:bbn
Creator:Flower
Version:Hyper
Source:Oblivious Garden
Tags:corypheesoft Carmina Burana Shirotsumekusa Lan Wings
BeatmapID:322320
BeatmapSetID:61819

[Difficulty]
HPDrainRate:5
CircleSize:4
OverallDifficulty:6
ApproachRate:8
SliderMultiplier:1.44
SliderTickRate:1

[Events]
//Background and Video events
0,0,"evlin05_1.jpg",0,0
Video,500,"Perpetual Traumal.flv"
//Break Periods
//Storyboard Layer 0 (Background)
//Storyboard Layer 1 (Fail)
//Storyboard Layer 2 (Pass)
//Storyboard Layer 3 (Foreground)
//Storyboard Sound Samples
//Background Colour Transformations
3,100,163,162,255

[TimingPoints]
11,344.827586206897,4,2,0,35,1,0
2769,-100,4,2,4,45,0,1
13459,-100,4,2,0,30,0,0
15183,-100,4,2,1,40,0,0
26217,-100,4,2,1,30,0,0
26390,-100,4,2,1,40,0,0
28114,-100,4,2,1,30,0,0
28286,-100,4,2,1,50,0,0
28373,-100,4,2,1,40,0,0
31735,-100,4,2,1,30,0,0
31907,-100,4,2,1,40,0,0
33114,-100,4,2,1,30,0,0
33286,-100,4,2,1,40,0,0
34493,-100,4,2,1,25,0,0
34666,-100,4,2,1,40,0,0
35873,-100,4,2,1,20,0,0
36390,-100,4,2,1,30,0,0
36562,-100,4,2,1,20,0,0
36907,-100,4,2,1,30,0,0
37252,-100,4,2,4,40,0,0
57942,-100,4,2,4,20,0,0
58286,-100,4,2,4,25,0,0
58631,-100,4,2,4,30,0,0
58976,-100,4,2,4,35,0,0
59321,-100,4,2,4,40,0,0
66735,-100,4,2,4,30,0,0
66907,-100,4,2,4,40,0,0
68114,-100,4,2,4,30,0,0
68286,-100,4,2,4,40,0,0
79321,-100,4,2,4,30,0,0
79666,-100,4,2,4,35,0,0
80011,-100,4,2,4,40,0,0
81390,-100,4,2,4,45,0,1
102079,-100,4,2,4,40,0,1
102769,-100,4,2,4,35,0,1
103459,-100,4,2,4,45,0,0

[Colours]
Combo1 : 250,16,22
Combo2 : 122,19,225
Combo3 : 49,186,238
Combo4 : 251,228,151

[HitObjects]
144,184,1562,2,0,L|120:108,1,72,2|0,0:0|0:0,0:0:0:0:
208,136,1907,2,0,L|216:56,1,72,2|0,0:0|0:0,0:0:0:0:
284,144,2252,2,0,B|328:140|348:112|348:112|424:140,1,144,2|0,0:0|0:0,0:0:0:0:
476,87,2769,6,0,P|492:135|438:218,1,144,12|8,0:0|1:2,0:0:0:0:
372,231,3286,1,0,0:0:0:0:
330,299,3459,2,0,L|335:378,1,72,0|10,0:0|0:0,0:0:0:0:
236,287,3804,2,0,L|231:208,1,72,8|2,1:2|0:0,0:0:0:0:
157,345,4148,6,0,L|33:360,1,108,8|0,0:0|0:0,0:0:0:0:
22,329,4493,2,0,P|38:291|38:257,1,72,8|2,1:2|0:0,0:0:0:0:
81,163,4838,2,0,L|156:173,1,72,0|10,0:0|0:0,0:0:0:0:
22,90,5183,2,0,L|79:36,1,72,8|2,1:2|0:0,0:0:0:0:
181,57,5528,6,0,B|223:60|246:40|246:40|323:70,1,144,8|8,0:0|1:2,0:0:0:0:
391,91,6045,1,2,0:0:0:0:
461,54,6217,2,0,P|470:90|461:132,1,72,0|8,0:0|0:0,0:0:0:0:
405,243,6562,2,0,P|396:209|402:174,1,72,8|2,1:2|0:0,0:0:0:0:
481,268,6907,6,0,P|461:302|390:320,1,108,8|0,0:0|0:0,0:0:0:0:
361,336,7252,2,0,L|291:322,1,72,0|2,1:2|0:0,0:0:0:0:
217,290,7597,2,0,P|211:327|227:370,1,72,0|10,0:0|0:0,0:0:0:0:
283,242,7942,2,0,P|288:204|272:161,1,72,8|8,1:2|0:0,0:0:0:0:
213,129,8286,6,0,L|101:125,1,108,8|2,0:0|0:0,0:0:0:0:
78,95,8631,1,8,1:2:0:0:
15,157,8804,1,0,0:0:0:0:
15,157,8890,1,2,0:0:0:0:
15,157,8976,2,0,L|22:232,1,72,0|8,0:0|0:0,0:0:0:0:
107,278,9321,2,0,L|100:203,1,72,0|2,1:2|0:0,0:0:0:0:
34,311,9666,6,0,P|58:340|161:334,1,144,8|8,0:0|1:2,0:0:0:0:
201,274,10183,1,2,0:0:0:0:
280,274,10355,2,0,L|331:271,3,36,8|0|10|0,0:0|0:0|0:0|0:0,0:0:0:0:
298,307,10700,2,0,L|349:304,3,36,8|0|10|0,1:2|0:0|0:0|0:0,0:0:0:0:
322,343,11045,6,0,P|371:334|428:360,1,108,8|0,0:0|0:0,0:0:0:0:
456,333,11390,2,0,L|469:252,1,72,8|2,1:2|0:0,0:0:0:0:
401,190,11735,2,0,L|323:196,1,72,0|10,0:0|0:0,0:0:0:0:
441,110,12079,2,0,L|368:76,1,72,8|2,1:2|0:0,0:0:0:0:
263,103,12424,6,0,B|224:98|198:70|198:70|122:83,1,144,8|8,0:0|1:2,0:0:0:0:
30,138,12942,2,0,P|-4:193|109:220,1,216,8|2,0:0|0:0,0:0:0:0:
103,228,13804,1,4,0:0:0:0:
383,283,15183,6,0,L|402:363,2,72,2|0|2,0:0|0:0|0:0,0:0:0:0:
424,215,15700,1,0,0:0:0:0:
463,145,15873,2,0,L|444:65,2,72,2|0|2,0:0|0:0|0:0,0:0:0:0:
383,138,16390,1,0,0:0:0:0:
304,131,16562,2,0,L|285:51,2,72,2|0|2,0:0|0:0|0:0,0:0:0:0:
271,203,17079,1,0,0:0:0:0:
212,257,17252,6,0,P|200:300|206:328,1,72,2|2,0:0|0:0,0:0:0:0:
194,175,17597,2,0,P|206:132|200:104,1,72,2|0,0:0|0:0,0:0:0:0:
271,203,17942,6,0,L|348:215,2,72,2|0|2,0:0|0:0|0:0,0:0:0:0:
212,257,18459,1,0,0:0:0:0:
151,308,18631,2,0,L|74:296,2,72,2|0|2,0:0|0:0|0:0,0:0:0:0:
136,229,19148,1,0,0:0:0:0:
116,151,19321,2,0,L|39:139,2,72,2|0|2,0:0|0:0|0:0,0:0:0:0:
176,99,19838,1,0,0:0:0:0:
253,115,20011,6,0,P|293:113|321:99,1,72,2|2,0:0|0:0,0:0:0:0:
275,200,20355,2,0,P|308:221|339:225,1,72,2|0,0:0|0:0,0:0:0:0:
412,141,20700,6,0,L|426:67,2,72,2|0|2,0:2|0:0|0:0,0:0:0:0:
461,203,21217,1,0,0:0:0:0:
510,265,21390,2,0,L|496:339,2,72,2|0|2,0:0|0:0|0:0,0:0:0:0:
431,276,21907,1,0,0:0:0:0:
351,287,22079,2,0,L|337:361,2,72,2|0|2,0:0|0:0|0:0,0:0:0:0:
288,236,22597,1,0,0:0:0:0:
212,211,22769,6,0,P|163:210|132:226,1,72,2|0,0:0|0:0,0:0:0:0:
15,295,23114,2,0,P|64:296|95:280,1,72,2|0,0:0|0:0,0:0:0:0:
205,348,23459,1,10,0:0:0:0:
205,348,24321,5,2,0:0:0:0:
276,313,24493,2,0,L|288:230,1,72,0|0,0:0|0:0,0:0:0:0:
350,345,24838,2,0,B|388:375|445:370|477:340|477:340|456:288|485:245|485:245|471:179,1,288,2|2,0:0|0:0,0:0:0:0:
434,41,25873,1,8,0:0:0:0:
264,75,26217,6,0,L|188:65,1,72,6|0,0:0|0:0,0:0:0:0:
118,136,26562,2,0,L|194:146,1,72,2|0,0:0|0:0,0:0:0:0:
264,234,26907,2,0,L|188:224,1,72,2|0,0:0|0:0,0:0:0:0:
118,295,27252,2,0,L|194:305,1,72,2|0,0:0|0:0,0:0:0:0:
298,318,27597,6,0,P|358:291|441:314,1,144,2|0,0:0|0:0,0:0:0:0:
490,360,28114,1,2,0:0:0:0:
477,244,28286,2,0,L|492:93,1,144,8|0,0:0|0:0,0:0:0:0:
434,43,28804,1,8,0:0:0:0:
379,100,28976,6,0,L|371:171,1,72,10|0,0:0|0:0,0:0:0:0:
286,200,29321,2,0,L|293:128,1,72,2|0,0:0|0:0,0:0:0:0:
216,80,29666,2,0,L|208:151,1,72,2|0,0:0|0:0,0:0:0:0:
123,180,30011,2,0,L|130:108,1,72,2|0,0:0|0:0,0:0:0:0:
58,40,30355,6,0,P|16:63|10:162,1,144,2|8,0:0|0:0,0:0:0:0:
49,216,30873,1,0,0:0:0:0:
186,228,31045,2,0,L|329:223,1,144,8|0,0:0|0:0,0:0:0:0:
400,184,31562,1,0,0:0:0:0:
352,88,31735,6,0,P|353:45|346:14,1,72,6|0,0:0|0:0,0:0:0:0:
424,112,32079,2,0,P|467:113|498:106,1,72,2|0,0:0|0:0,0:0:0:0:
400,184,32424,2,0,P|399:227|406:258,1,72,2|0,0:0|0:0,0:0:0:0:
328,160,32769,2,0,P|285:159|254:166,1,72,10|0,0:0|0:0,0:0:0:0:
172,292,33114,6,0,P|164:248|176:216,1,72,6|0,0:0|0:0,0:0:0:0:
40,172,33459,2,0,P|84:164|116:176,1,72,2|0,0:0|0:0,0:0:0:0:
164,36,33804,2,0,P|172:80|160:112,1,72,2|0,0:0|0:0,0:0:0:0:
296,156,34149,2,0,P|252:164|220:152,1,72,2|0,0:0|0:0,0:0:0:0:
362,106,34493,6,0,B|390:158|359:208|359:208|369:254,1,144,4|2,0:0|0:0,0:0:0:0:
427,296,35011,1,0,0:0:0:0:
356,330,35183,2,0,P|312:347|214:335,1,144,2|2,0:0|0:0,0:0:0:0:
82,252,35873,1,4,0:0:0:0:
281,59,36476,6,0,L|324:61,1,36,2|10,0:0|0:0,0:0:0:0:
393,37,36735,1,0,0:0:0:0:
447,93,36907,2,0,P|456:133|448:177,1,72,10|8,0:0|0:0,0:0:0:0:
386,207,37252,6,0,L|272:195,1,108,14|0,0:0|0:0,0:0:0:0:
238,193,37597,2,0,P|219:227|222:270,1,72,8|2,1:2|0:0,0:0:0:0:
267,322,37942,1,0,0:0:0:0:
344,304,38114,1,0,0:0:0:0:
400,359,38286,1,8,1:2:0:0:
469,320,38459,1,2,0:0:0:0:
469,320,38545,1,0,0:0:0:0:
469,320,38631,6,0,L|479:239,1,72,8|2,0:0|0:0,0:0:0:0:
440,178,38976,2,0,L|450:97,1,72,8|2,1:2|0:0,0:0:0:0:
382,62,39321,2,0,P|346:73|306:64,1,72,8|0,0:0|0:0,0:0:0:0:
161,59,39666,2,0,P|197:48|237:57,1,72,8|2,1:2|0:0,0:0:0:0:
297,146,40011,6,0,L|287:255,1,108,8|0,0:0|0:2,0:0:0:0:
284,292,40355,1,8,1:2:0:0:
206,309,40528,1,8,0:0:0:0:
206,309,40614,1,0,0:0:0:0:
206,309,40700,2,0,P|161:298|136:303,1,72,8|10,0:0|0:0,0:0:0:0:
80,359,41045,2,0,P|44:363|10:352,1,72,8|2,1:2|0:0,0:0:0:0:
64,237,41390,6,0,L|74:116,1,108,8|2,0:0|0:0,0:0:0:0:
100,100,41735,2,0,P|148:92|181:99,1,72,8|2,1:2|0:0,0:0:0:0:
228,149,42079,2,0,L|236:227,1,72,8|0,0:0|0:0,0:0:0:0:
299,116,42424,1,8,1:2:0:0:
335,45,42597,1,2,0:0:0:0:
335,45,42683,1,0,0:0:0:0:
335,45,42769,6,0,L|448:59,1,108,8|0,0:0|0:2,0:0:0:0:
481,63,43114,1,8,1:2:0:0:
418,140,43286,1,8,0:0:0:0:
418,140,43373,1,0,0:0:0:0:
418,140,43459,1,8,0:0:0:0:
470,199,43631,2,0,L|515:202,2,36,2|0|8,0:0|0:0|1:2,0:0:0:0:
393,219,43976,1,2,0:0:0:0:
443,279,44148,6,0,P|405:298|337:276,1,108,8|0,0:0|0:2,0:0:0:0:
317,252,44493,1,8,1:2:0:0:
244,284,44666,1,8,0:0:0:0:
244,284,44752,1,0,0:0:0:0:
244,284,44838,2,0,L|239:365,1,72,8|2,0:0|0:0,0:0:0:0:
172,240,45183,2,0,L|177:159,1,72,8|2,1:2|0:0,0:0:0:0:
98,281,45528,6,0,P|61:293|21:283,1,72,8|2,0:0|0:0,0:0:0:0:
95,198,45873,2,0,P|60:180|39:144,1,72,8|2,1:2|0:0,0:0:0:0:
148,131,46217,2,0,P|136:94|145:54,1,72,8|2,0:0|0:0,0:0:0:0:
229,128,46562,2,0,P|246:93|282:72,1,72,8|10,1:2|0:0,0:0:0:0:
321,163,46907,6,0,L|315:277,1,108,8|0,0:0|0:0,0:0:0:0:
313,310,47252,1,8,1:2:0:0:
395,363,47424,1,2,0:0:0:0:
395,363,47511,1,0,0:0:0:0:
395,363,47597,2,0,L|475:364,1,72,8|2,0:0|0:0,0:0:0:0:
512,269,47942,2,0,L|432:268,1,72,8|2,1:2|0:0,0:0:0:0:
409,176,48286,6,0,P|401:126|425:71,1,108,8|2,0:0|0:0,0:0:0:0:
391,50,48631,2,0,L|312:48,1,72,8|2,1:2|0:0,0:0:0:0:
241,67,48976,2,0,P|226:103|235:143,1,72,8|2,0:0|0:0,0:0:0:0:
286,191,49321,1,8,1:2:0:0:
230,247,49493,1,2,0:0:0:0:
230,247,49579,1,0,0:0:0:0:
230,247,49666,6,0,P|181:267|124:252,1,108,8|0,0:0|0:0,0:0:0:0:
97,279,50011,2,0,L|92:356,1,72,8|2,1:2|0:0,0:0:0:0:
37,224,50355,2,0,L|42:147,1,72,8|2,0:0|0:0,0:0:0:0:
120,142,50700,1,8,1:2:0:0:
192,109,50873,1,2,0:0:0:0:
211,32,51045,6,0,L|332:43,1,108,8|0,0:0|0:2,0:0:0:0:
358,46,51390,1,8,1:2:0:0:
446,60,51562,1,8,0:0:0:0:
446,60,51648,1,0,0:0:0:0:
446,60,51735,2,0,P|457:94|455:133,1,72,8|2,0:0|0:0,0:0:0:0:
406,248,52079,2,0,P|394:213|396:174,1,72,8|2,1:2|0:0,0:0:0:0:
316,180,52424,6,0,L|200:190,1,108,8|2,0:0|0:0,0:0:0:0:
168,192,52769,1,8,1:2:0:0:
102,147,52942,1,2,0:0:0:0:
102,147,53028,1,0,0:0:0:0:
102,147,53114,2,0,L|94:62,1,72,8|2,0:0|0:0,0:0:0:0:
46,204,53459,2,0,L|54:289,1,72,8|2,1:2|0:0,0:0:0:0:
126,305,53804,6,0,P|194:298|237:327,1,108,8|2,0:0|0:0,0:0:0:0:
252,346,54148,1,8,1:2:0:0:
320,305,54321,1,2,0:0:0:0:
320,305,54407,1,8,0:0:0:0:
320,305,54493,2,0,L|397:303,1,72,8|2,0:0|0:0,0:0:0:0:
267,233,54838,2,0,L|318:172,1,72,8|2,1:2|0:0,0:0:0:0:
383,141,55183,6,0,P|354:111|286:107,1,108,8|0,0:0|0:0,0:0:0:0:
251,115,55528,1,8,1:2:0:0:
190,64,55700,1,2,0:0:0:0:
190,64,55786,1,0,0:0:0:0:
190,64,55873,2,0,L|110:59,1,72,8|10,0:0|0:0,0:0:0:0:
4,122,56217,2,0,L|84:127,1,72,8|2,1:2|0:0,0:0:0:0:
142,170,56562,6,0,P|152:204|140:248,1,72,10|2,0:0|0:0,0:0:0:0:
75,277,56907,2,0,P|65:243|77:199,1,72,8|10,1:2|0:0,0:0:0:0:
142,170,57252,2,0,L|221:167,1,72,8|2,0:0|0:0,0:0:0:0:
285,223,57597,1,10,1:3:0:0:
285,223,57769,1,10,0:0:0:0:
352,180,57942,6,0,L|354:137,3,36,2|0|0|0,0:0|0:0|0:0|0:0,0:0:0:0:
389,159,58286,2,0,L|391:116,3,36,0|0|0|0,1:0|0:0|0:0|0:0,0:0:0:0:
429,134,58631,2,0,L|431:91,3,36,2|0|0|0,0:0|0:0|0:0|0:0,0:0:0:0:
466,113,58975,2,0,L|468:70,3,36,2|0|0|0,1:2|0:0|0:0|0:0,0:0:0:0:
500,138,59321,6,0,L|489:294,1,144,6|2,0:0|0:0,0:0:0:0:
423,325,59838,1,0,0:0:0:0:
351,290,60011,2,0,P|304:278|220:319,1,144,0|2,0:0|0:0,0:0:0:0:
150,352,60528,1,0,0:0:0:0:
82,310,60700,6,0,L|40:319,3,36,0|0|2|0,0:0|0:0|0:0|0:0,0:0:0:0:
98,275,61045,2,0,L|56:284,3,36,0|0|2|0,0:0|0:0|0:0|0:0,0:0:0:0:
114,245,61390,2,0,L|72:254,3,36,0|0|0|0,0:0|0:0|0:0|0:0,0:0:0:0:
130,210,61735,2,0,L|88:219,3,36,2|0|0|2,0:0|0:0|0:0|0:0,0:0:0:0:
145,180,62079,6,0,P|193:198|291:171,1,144,0|2,0:0|0:0,0:0:0:0:
337,121,62597,1,0,0:0:0:0:
396,172,62769,2,0,L|410:323,1,144,0|2,0:0|0:0,0:0:0:0:
344,361,63286,1,0,0:0:0:0:
276,318,63459,6,0,L|272:280,3,36,0|0|2|0,0:0|0:0|0:0|0:0,0:0:0:0:
236,298,63804,2,0,L|232:260,3,36,0|0|2|0,0:0|0:0|0:0|0:0,0:0:0:0:
199,283,64148,2,0,L|195:245,3,36,0|0|2|0,0:0|0:0|0:0|0:0,0:0:0:0:
159,263,64493,2,0,L|155:225,3,36,2|0|0|2,0:0|0:0|0:0|0:0,0:0:0:0:
125,280,64838,6,0,L|111:136,1,144,0|2,0:0|0:0,0:0:0:0:
169,82,65355,1,0,0:0:0:0:
233,129,65528,2,0,P|281:146|375:109,1,144,0|2,0:0|0:0,0:0:0:0:
424,63,66045,1,0,0:0:0:0:
472,125,66217,2,0,L|465:283,1,144,0|2,0:0|0:0,0:0:0:0:
401,316,66735,1,2,0:0:0:0:
329,282,66907,6,0,L|288:285,3,36,0|0|2|0,0:0|0:0|0:0|0:0,0:0:0:0:
313,319,67252,2,0,L|272:322,3,36,0|0|2|0,0:0|0:0|0:0|0:0,0:0:0:0:
300,355,67597,6,0,P|234:338|158:373,1,144,0|2,0:0|0:0,0:0:0:0:
95,330,68114,1,2,0:0:0:0:
145,269,68286,6,0,L|148:221,3,36,0|0|2|0,0:0|0:0|0:0|0:0,0:0:0:0:
184,248,68631,2,0,L|187:200,3,36,0|0|2|0,0:0|0:0|0:0|0:0,0:0:0:0:
222,229,68976,6,0,L|309:245,1,72,0|0,0:0|0:0,0:0:0:0:
316,153,69321,2,0,L|403:169,1,72,2|0,0:0|0:0,0:0:0:0:
458,227,69666,6,0,L|466:282,2,48,0|0|2,0:0|0:0|0:0,0:0:0:0:
392,255,70011,2,0,L|400:310,2,48,0|0|2,0:0|0:0|0:0,0:0:0:0:
323,275,70355,6,0,P|272:275|211:345,1,144,12|8,0:0|1:2,0:0:0:0:
130,369,70873,1,2,0:0:0:0:
57,323,71045,2,0,L|61:244,1,72,8|0,0:0|0:0,0:0:0:0:
126,189,71390,6,0,L|129:129,2,48,8|0|2,1:2|0:0|0:0,0:0:0:0:
186,229,71735,6,0,P|217:238|266:223,1,72,8|0,0:0|0:0,0:0:0:0:
377,177,72079,2,0,P|346:168|297:183,1,72,8|2,1:2|0:0,0:0:0:0:
338,249,72424,2,0,L|333:330,1,72,8|2,0:0|0:0,0:0:0:0:
450,217,72769,2,0,L|455:136,1,72,8|2,1:2|0:0,0:0:0:0:
409,47,73114,6,0,L|369:40,3,36,10|0|0|2,0:0|0:0|0:0|0:0,0:0:0:0:
380,80,73459,2,0,L|340:73,3,36,8|0|2|0,1:2|0:0|0:0|0:0,0:0:0:0:
355,112,73804,2,0,L|315:105,3,36,8|0|2|0,0:0|0:0|1:2|0:0,0:0:0:0:
326,145,74149,2,0,L|286:138,3,36,8|0|2|0,1:2|0:0|0:0|0:0,0:0:0:0:
336,178,74493,6,0,P|348:218|339:255,1,72,8|0,0:0|0:0,0:0:0:0:
278,352,74838,2,0,P|266:312|275:275,1,72,8|0,1:2|0:0,0:0:0:0:
217,224,75183,2,0,L|142:228,1,72,8|2,0:0|0:0,0:0:0:0:
38,300,75528,2,0,L|113:296,1,72,8|0,1:2|0:0,0:0:0:0:
76,160,75873,6,0,L|191:153,1,108,8|0,0:0|0:0,0:0:0:0:
223,149,76217,2,0,P|233:98|225:66,1,72,8|2,1:2|0:0,0:0:0:0:
336,48,76562,2,0,P|402:36|453:59,1,108,8|0,0:0|0:0,0:0:0:0:
470,74,76907,2,0,L|478:155,1,72,8|2,1:2|0:0,0:0:0:0:
393,206,77252,6,0,L|341:203,3,36,8|0|0|2,0:0|0:0|0:0|0:0,0:0:0:0:
372,240,77597,2,0,L|320:237,3,36,8|0|2|0,1:2|0:0|0:0|0:0,0:0:0:0:
352,274,77942,2,0,L|300:271,3,36,8|2|0|2,0:0|0:0|0:0|0:0,0:0:0:0:
331,308,78287,2,0,L|279:305,3,36,8|0|2|0,1:2|0:0|1:2|0:0,0:0:0:0:
313,340,78631,6,0,L|399:344,1,72,8|10,0:0|0:0,0:0:0:0:
201,291,78976,2,0,L|196:377,1,72,8|10,1:2|0:0,0:0:0:0:
189,174,79321,2,0,L|102:169,1,72,8|10,0:0|1:2,0:0:0:0:
301,223,79666,2,0,L|305:136,1,72,8|10,1:2|0:0,0:0:0:0:
236,40,80011,1,10,0:0:0:0:
236,40,80585,5,2,0:0:0:0:
236,40,80700,2,0,L|294:48,5,48,0|2|0|2|0|2,0:0|0:0|0:0|0:0|0:0|0:0,0:0:0:0:
354,58,81390,6,0,P|376:103|346:198,1,144,12|8,0:0|1:2,0:0:0:0:
280,142,81907,1,0,0:0:0:0:
280,142,81993,1,2,0:0:0:0:
280,142,82079,2,0,L|203:147,1,72,0|10,0:0|0:0,0:0:0:0:
137,196,82424,2,0,L|51:183,1,72,8|2,1:2|0:0,0:0:0:0:
215,233,82769,6,0,P|228:274|210:340,1,108,8|0,0:0|0:0,0:0:0:0:
247,361,83114,2,0,L|323:354,1,72,8|2,1:2|0:0,0:0:0:0:
484,323,83459,2,0,P|471:279|474:248,1,72,8|10,0:2|0:0,0:0:0:0:
389,305,83804,2,0,P|402:349|399:380,1,72,8|2,1:2|0:0,0:0:0:0:
431,175,84148,6,0,L|313:167,1,108,8|0,0:0|0:0,0:0:0:0:
280,161,84493,1,8,1:2:0:0:
215,103,84666,1,0,0:0:0:0:
215,103,84752,1,2,0:0:0:0:
215,103,84838,2,0,P|205:65|211:31,1,72,0|10,0:0|0:0,0:0:0:0:
200,182,85183,2,0,P|210:220|204:254,1,72,8|2,1:2|0:0,0:0:0:0:
136,129,85528,6,0,P|102:138|28:103,1,108,8|0,0:0|0:0,0:0:0:0:
5,143,85873,2,0,L|9:226,1,72,8|2,1:2|0:0,0:0:0:0:
62,290,86217,2,0,P|76:333|72:358,1,72,8|10,0:0|0:0,0:0:0:0:
129,237,86562,2,0,P|169:257|184:278,1,72,10|0,1:2|0:0,0:0:0:0:
283,332,86907,6,0,B|351:323|351:323|378:353|426:352,1,144,8|8,0:0|1:2,0:0:0:0:
505,287,87424,1,2,0:0:0:0:
505,287,87511,1,0,0:0:0:0:
505,287,87597,2,0,L|510:204,1,72,0|10,0:0|0:0,0:0:0:0:
414,195,87942,2,0,L|419:112,1,72,8|0,1:2|0:0,0:0:0:0:
320,53,88286,6,0,P|268:77|214:62,1,108,8|2,0:0|0:0,0:0:0:0:
181,47,88631,1,8,1:2:0:0:
97,93,88804,1,2,0:0:0:0:
97,93,88890,1,0,0:0:0:0:
97,93,88976,2,0,L|100:178,1,72,8|0,0:0|0:0,0:0:0:0:
180,254,89321,2,0,L|177:169,1,72,8|8,1:2|0:0,0:0:0:0:
26,193,89666,6,0,L|29:303,1,108,8|2,0:0|0:0,0:0:0:0:
32,344,90011,1,0,1:2:0:0:
126,326,90183,1,2,0:0:0:0:
126,326,90269,1,0,0:0:0:0:
126,326,90355,2,0,P|166:344|205:339,1,72,8|2,0:0|0:0,0:0:0:0:
330,293,90700,2,0,P|290:275|251:280,1,72,10|0,1:2|0:0,0:0:0:0:
411,348,91045,6,0,L|401:199,1,144,10|0,0:0|1:2,0:0:0:0:
312,152,91562,2,0,P|237:167|164:152,1,144,2|0,0:0|0:0,0:0:0:0:
70,208,92079,2,0,L|68:284,1,72,10|0,1:2|0:0,0:0:0:0:
11,119,92424,6,0,P|61:105|92:48,1,108,12|0,0:0|0:0,0:0:0:0:
133,52,92769,2,0,L|214:51,1,72,8|2,1:2|0:0,0:0:0:0:
312,152,93114,2,0,P|347:171|385:170,1,72,8|0,0:2|0:0,0:0:0:0:
316,68,93459,2,0,P|355:57|381:29,1,72,0|10,1:2|0:0,0:0:0:0:
231,205,93804,6,0,P|186:189|122:204,1,108,8|2,0:0|0:0,0:0:0:0:
93,225,94148,2,0,L|84:301,1,72,8|2,1:2|0:0,0:0:0:0:
159,339,94493,1,8,0:0:0:0:
233,294,94666,1,2,0:0:0:0:
290,358,94838,1,8,1:2:0:0:
364,313,95011,1,2,0:0:0:0:
433,364,95183,6,0,P|448:308|429:252,1,108,10|0,0:0|0:0,0:0:0:0:
400,233,95528,2,0,L|406:148,1,72,8|2,1:2|0:0,0:0:0:0:
438,81,95873,2,0,P|475:76|509:85,1,72,0|10,0:0|0:0,0:0:0:0:
333,125,96217,2,0,P|296:130|262:121,1,72,8|0,1:2|0:0,0:0:0:0:
168,59,96562,6,0,L|50:68,1,108,10|2,0:0|0:0,0:0:0:0:
16,70,96907,1,8,1:2:0:0:
58,192,97079,1,2,0:0:0:0:
58,192,97166,1,0,0:0:0:0:
58,192,97252,2,0,P|62:238|49:269,1,72,8|0,0:0|0:0,0:0:0:0:
174,211,97597,2,0,P|169:164|182:133,1,72,8|2,1:2|0:0,0:0:0:0:
284,178,97942,6,0,L|404:188,1,108,8|2,0:0|0:0,0:0:0:0:
431,171,98286,2,0,P|445:138|444:97,1,72,8|2,1:2|0:0,0:0:0:0:
374,52,98631,2,0,L|296:61,1,72,8|10,0:0|0:0,0:0:0:0:
231,110,98976,2,0,L|156:96,1,72,10|8,1:2|0:0,0:0:0:0:
31,63,99321,6,0,P|57:118|47:168,1,108,10|0,0:0|0:0,0:0:0:0:
26,199,99666,1,8,1:2:0:0:
172,255,99838,1,2,0:0:0:0:
172,255,99924,1,2,0:0:0:0:
172,255,100011,2,0,L|163:165,1,72,0|10,0:2|0:0,0:0:0:0:
91,290,100355,2,0,L|86:363,1,72,8|2,1:2|0:0,0:0:0:0:
238,315,100700,6,0,P|289:303|344:323,1,108,8|2,0:0|0:0,0:0:0:0:
370,352,101045,1,8,1:2:0:0:
454,332,101217,1,2,0:0:0:0:
479,249,101390,2,0,L|486:165,1,72,8|10,0:0|0:0,0:0:0:0:
420,119,101735,1,8,1:2:0:0:
335,134,101907,1,10,0:0:0:0:
256,192,102079,12,4,103459,0:0:0:0:
