osu file format v12

[General]
AudioFilename: Perpetual Traumal.mp3
AudioLeadIn: 1000
PreviewTime: 1390
Countdown: 0
SampleSet: Soft
StackLeniency: 0.7
Mode: 0
LetterboxInBreaks: 1
WidescreenStoryboard: 1

[Editor]
DistanceSpacing: 1
BeatDivisor: 4
GridSize: 4

[Metadata]
Title:Perpetual Traumal
TitleUnicode:Perpetual Traumal
Artist:bbn
ArtistUnicode:bbn
Creator:Flower
Version:Beginner
Source:Oblivious Garden
Tags:corypheesoft Carmina Burana Shirotsumekusa Lan Wings
BeatmapID:350507
BeatmapSetID:61819

[Difficulty]
HPDrainRate:1
CircleSize:2
OverallDifficulty:2
ApproachRate:3
SliderMultiplier:0.8
SliderTickRate:1

[Events]
//Background and Video events
0,0,"evlin05_1.jpg",0,0
Video,500,"Perpetual Traumal.flv"
//Break Periods
2,15383,19260
//Storyboard Layer 0 (Background)
//Storyboard Layer 1 (Fail)
//Storyboard Layer 2 (Pass)
//Storyboard Layer 3 (Foreground)
//Storyboard Sound Samples
//Background Colour Transformations
3,100,163,162,255

[TimingPoints]
11,344.827586206897,4,2,0,35,1,0
2769,-100,4,2,4,45,0,1
13459,-100,4,2,0,30,0,0
15183,-100,4,2,1,40,0,0
26217,-100,4,2,1,30,0,0
26390,-100,4,2,1,40,0,0
28286,-100,4,2,1,50,0,0
28373,-100,4,2,1,40,0,0
31735,-100,4,2,1,30,0,0
34493,-100,4,2,1,25,0,0
35873,-100,4,2,1,20,0,0
37252,-100,4,2,4,40,0,0
57942,-100,4,2,4,20,0,0
58286,-100,4,2,4,25,0,0
58631,-100,4,2,4,30,0,0
58976,-100,4,2,4,35,0,0
59321,-100,4,2,4,40,0,0
66735,-100,4,2,4,30,0,0
66907,-100,4,2,4,40,0,0
68114,-100,4,2,4,30,0,0
68286,-100,4,2,4,40,0,0
79321,-100,4,2,4,30,0,0
79666,-100,4,2,4,35,0,0
80011,-100,4,2,4,40,0,0
81390,-100,4,2,4,45,0,1
102079,-100,4,2,4,40,0,1
102769,-100,4,2,4,35,0,1
103459,-100,4,2,4,45,0,0

[Colours]
Combo1 : 250,16,22
Combo2 : 122,19,225
Combo3 : 49,186,238
Combo4 : 251,228,151

[HitObjects]
40,292,1562,2,0,P|96:320|196:288,1,160,2|2,0:0|0:0,0:0:0:0:
248,192,2769,6,0,L|236:96,2,80,12|8|0,0:0|1:2|0:0,0:0:0:0:
388,272,4148,2,0,L|376:368,2,80,10|8|0,0:0|1:2|0:0,0:0:0:0:
492,152,5528,5,10,0:0:0:0:
364,56,6217,1,0,0:0:0:0:
216,116,6907,2,0,P|176:128|72:68,1,160,10|0,0:0|0:0,0:0:0:0:
20,228,8286,6,0,L|24:312,2,80,12|8|0,0:0|1:2|0:0,0:0:0:0:
176,268,9666,2,0,L|180:352,2,80,10|8|8,0:0|1:2|0:0,0:0:0:0:
312,184,11045,2,0,P|352:164|456:200,2,160,10|0|10,0:0|0:0|0:0,0:0:0:0:
256,192,12942,12,0,15183,0:0:0:0:
76,272,20700,6,0,P|120:304|228:296,1,160,2|2,0:2|0:0,0:0:0:0:
324,176,22079,2,0,P|401:164|469:203,1,160,2|2,0:0|0:0,0:0:0:0:
372,332,23459,5,10,0:0:0:0:
104,160,24838,1,2,0:0:0:0:
232,64,25528,2,0,L|316:72,1,80,2|8,0:0|0:0,0:0:0:0:
392,80,26217,5,6,0:0:0:0:
472,220,26907,1,2,0:0:0:0:
360,332,27597,2,0,B|304:360|240:328|240:328|192:332,2,160,2|8|10,0:0|0:0|0:0,0:0:0:0:
312,180,29666,5,2,0:0:0:0:
164,116,30355,2,0,B|96:100|52:144|52:144|44:184,2,160,2|8|6,0:0|0:0|0:0,0:0:0:0:
476,48,33114,5,6,0:0:0:0:
356,344,34493,1,4,0:0:0:0:
52,240,35873,1,4,0:0:0:0:
312,52,37252,6,0,P|340:96|332:208,1,160,14|2,0:0|0:0,0:0:0:0:
192,268,38631,2,0,L|104:264,2,80,10|8|10,0:0|1:2|0:0,0:0:0:0:
108,132,40011,6,0,L|20:128,2,80,10|8|10,0:0|1:2|0:0,0:0:0:0:
268,108,41390,2,0,P|296:72|300:36,2,80,10|8|10,0:0|1:2|0:0,0:0:0:0:
240,264,42769,5,12,0:0:0:0:
388,328,43459,2,0,P|440:324|508:244,1,160,10|10,0:0|0:0,0:0:0:0:
448,96,44838,1,10,0:0:0:0:
296,44,45528,5,10,0:0:0:0:
152,108,46217,1,10,0:0:0:0:
88,256,46907,2,0,P|48:232|28:192,2,80,10|8|8,0:0|1:2|0:0,0:0:0:0:
248,236,48286,6,0,B|284:216|284:216|336:252|400:224,1,160,12|10,0:0|0:0,0:0:0:0:
500,104,49666,1,10,0:0:0:0:
352,48,50355,2,0,L|188:60,1,160,10|10,0:0|0:0,0:0:0:0:
68,160,51735,5,10,0:0:0:0:
228,172,52424,2,0,P|212:240|136:296,2,160,10|10|10,0:0|0:0|0:0,0:0:0:0:
104,72,54493,1,10,0:0:0:0:
20,208,55183,2,0,B|52:252|16:324|16:324|40:360,2,160,0|0|2,0:0|0:0|0:0,0:0:0:0:
256,192,56907,12,2,59321,0:0:0:0:
376,296,60700,6,0,P|424:284|480:184,2,160,0|0|2,0:0|0:0|0:0,0:0:0:0:
136,88,63459,2,0,P|88:100|32:200,2,160,0|0|2,0:0|0:0|0:0,0:0:0:0:
292,120,65528,5,0,0:0:0:0:
176,232,66217,1,2,0:0:0:0:
296,336,66907,6,0,B|328:320|328:320|344:344|344:344|400:320|452:344,1,160,2|0,0:0|0:0,0:0:0:0:
496,188,68286,2,0,B|464:204|464:204|448:180|448:180|392:204|340:180,1,160,2|2,0:0|0:0,0:0:0:0:
308,120,69321,5,2,0:0:0:0:
236,84,69666,2,0,P|176:64|84:92,1,160,0|12,0:0|0:0,0:0:0:0:
24,236,71045,1,8,0:0:0:0:
144,344,71735,6,0,L|224:336,2,80,10|8|8,0:0|1:2|0:0,0:0:0:0:
188,192,73114,2,0,L|268:184,2,80,10|8|8,0:0|1:2|0:0,0:0:0:0:
64,92,74493,6,0,P|32:144|36:248,2,160,10|8|12,0:0|0:0|0:0,0:0:0:0:
220,48,76562,1,8,0:0:0:0:
380,56,77252,6,0,B|400:100|400:100|372:152|404:212,1,160,10|8,0:0|0:0,0:0:0:0:
316,344,78631,2,0,B|270:340|270:340|241:303|189:306|189:306|171:321,1,160,10|8,0:0|0:0,0:0:0:0:
100,356,79666,1,8,1:2:0:0:
24,328,80011,1,10,0:0:0:0:
180,48,81390,6,0,P|236:72|328:48,1,160,12|0,0:0|0:0,0:0:0:0:
480,104,82769,1,10,0:0:0:0:
432,256,83459,1,8,0:2:0:0:
316,144,84148,6,0,B|268:140|268:140|236:196|164:192,1,160,10|0,0:0|0:0,0:0:0:0:
48,292,85528,2,0,P|4:226|20:136,1,160,10|8,0:0|0:0,0:0:0:0:
136,44,86907,5,10,0:0:0:0:
296,44,87597,1,0,0:0:0:0:
416,152,88286,2,0,B|432:212|388:260|388:260|396:312,2,160,10|8|10,0:0|0:0|0:0,0:0:0:0:
256,152,90355,5,8,0:0:0:0:
112,84,91045,2,0,P|92:132|116:208,2,120,10|2|10,0:0|0:0|1:2,0:0:0:0:
184,48,92424,6,0,B|236:40|236:40|288:60|288:60|348:52,1,160,12|8,0:0|0:2,0:0:0:0:
496,84,93804,1,10,0:0:0:0:
472,240,94493,1,8,0:0:0:0:
320,188,95183,6,0,P|308:252|360:336,2,160,10|0|10,0:0|0:0|0:0,0:0:0:0:
204,80,97252,1,8,0:0:0:0:
52,128,97942,6,0,P|24:200|48:288,1,160,10|8,0:0|0:0,0:0:0:0:
184,352,99321,2,0,P|212:280|188:192,1,160,10|0,0:0|0:2,0:0:0:0:
256,56,100700,1,10,0:0:0:0:
256,192,101390,12,4,103459,0:0:0:0:
