osu file format v14

[General]
AudioFilename: audio.mp3
AudioLeadIn: 0
PreviewTime: 35388
Countdown: 0
SampleSet: Soft
StackLeniency: 0.7
Mode: 0
LetterboxInBreaks: 0
WidescreenStoryboard: 0

[Editor]
DistanceSpacing: 1
BeatDivisor: 8
GridSize: 32
TimelineZoom: 1.8

[Metadata]
Title:Perpetual Trauma
TitleUnicode:Perpetual Trauma
Artist:bbn
ArtistUnicode:bbn
Creator:LMT
Version:Virtuoso
Source:Oblivious Garden ~Carmina Burana
Tags:遺忘花園 visual novel corypheesoft instrumental piano perpetual traumal opening 開場音樂
BeatmapID:2207749
BeatmapSetID:1056233

[Difficulty]
HPDrainRate:5
CircleSize:5
OverallDifficulty:9
ApproachRate:9
SliderMultiplier:1.4
SliderTickRate:1

[Events]
//Background and Video events
0,0,"opening_bg_cropped.jpg",0,0
//Break Periods
//Storyboard Layer 0 (Background)
//Storyboard Layer 1 (Fail)
//Storyboard Layer 2 (Pass)
//Storyboard Layer 3 (Foreground)
//Storyboard Layer 4 (Overlay)
//Storyboard Sound Samples

[TimingPoints]
290,344.827586206897,4,2,0,50,1,0
462,-100,4,2,0,30,0,0
1669,-100,4,2,0,45,0,0
14083,-100,4,2,0,35,0,0
35807,-66.6666666666667,4,2,0,50,0,0
36152,-66.6666666666667,4,2,0,50,0,0
58221,-100,4,2,0,40,0,0
69255,-100,4,2,0,50,0,0
80290,-66.6666666666667,4,2,0,50,0,0
102402,-66.6666666666667,4,2,0,35,0,0

[Colours]
Combo1 : 106,106,181
Combo2 : 0,155,230
Combo3 : 174,174,255
Combo4 : 162,208,255

[HitObjects]
28,262,462,5,2,0:2:0:0:
84,221,634,1,2,0:2:0:0:
166,208,807,1,2,0:2:0:0:
264,242,979,1,2,0:2:0:0:
314,335,1152,1,2,0:2:0:0:
314,335,1496,1,4,0:3:0:0:
399,230,1669,5,6,0:2:0:0:
413,251,1755,1,2,0:2:0:0:
420,277,1841,1,2,0:2:0:0:
342,175,2014,2,0,P|331:199|294:195,1,35,0|0,0:2|0:0,0:0:0:0:
418,154,2186,2,0,P|442:169|461:166,1,35,0|0,0:2|0:0,0:0:0:0:
365,106,2358,5,2,0:2:0:0:
285,70,2531,1,2,0:2:0:0:
185,81,2703,1,2,0:2:0:0:
119,166,2876,1,2,0:2:0:0:
9,116,3048,5,2,0:2:0:0:
30,185,3307,1,2,0:2:0:0:
30,185,3350,1,2,0:2:0:0:
30,185,3393,1,2,0:2:0:0:
53,285,3565,5,0,0:2:0:0:
85,274,3652,1,0,0:2:0:0:
118,276,3738,1,2,0:2:0:0:
252,301,3910,2,0,L|248:384,1,70,2|0,0:2|0:0,0:0:0:0:
312,248,4255,1,2,0:2:0:0:
234,100,4427,5,2,0:2:0:0:
292,68,4686,1,2,0:2:0:0:
296,48,4772,1,2,0:2:0:0:
420,73,4945,5,0,0:0:0:0:
446,99,5031,1,0,0:0:0:0:
489,104,5117,1,0,0:0:0:0:
366,126,5290,2,0,P|372:138|378:163,1,35,2|0,0:2|0:0,0:0:0:0:
457,174,5462,2,0,P|442:189|435:213,1,35,2|0,0:2|0:0,0:0:0:0:
452,270,5634,1,2,0:2:0:0:
294,174,5807,5,2,0:2:0:0:
232,204,6065,1,2,0:2:0:0:
224,227,6152,1,2,0:2:0:0:
116,287,6324,5,0,0:0:0:0:
98,250,6410,1,0,0:0:0:0:
66,226,6496,1,2,0:2:0:0:
56,121,6669,2,0,P|46:135|36:160,1,35,2|0,0:2|0:0,0:0:0:0:
164,127,6841,2,0,P|135:116|123:106,1,35,2|0,0:2|0:0,0:0:0:0:
184,3,7014,2,0,P|196:15|214:40,1,35,2|0,0:2|0:0,0:0:0:0:
232,90,7186,5,4,0:2:0:0:
288,60,7445,1,2,0:2:0:0:
292,36,7531,1,2,0:2:0:0:
330,145,7703,5,0,0:0:0:0:
357,117,7790,1,0,0:0:0:0:
394,108,7876,1,0,0:0:0:0:
407,119,7962,1,0,0:0:0:0:
414,133,8048,2,0,P|421:96|425:85,1,35,2|0,0:2|0:0,0:0:0:0:
338,222,8221,2,0,P|371:214|387:210,1,35,2|0,0:2|0:0,0:0:0:0:
211,212,8393,2,0,P|236:217|249:226,1,35,2|0,0:2|0:0,0:0:0:0:
324,297,8565,5,2,0:2:0:0:
206,312,8738,1,2,0:2:0:0:
238,326,8824,1,2,0:2:0:0:
257,355,8910,1,2,0:2:0:0:
122,256,9083,6,0,P|114:276|109:296,1,35
71,202,9255,1,2,0:2:0:0:
97,182,9341,1,0,0:0:0:0:
110,150,9427,1,0,0:0:0:0:
109,112,9514,1,0,0:0:0:0:
121,148,9600,5,2,0:2:0:0:
160,165,9686,1,0,0:0:0:0:
203,154,9772,1,0,0:0:0:0:
218,134,9858,1,0,0:0:0:0:
216,122,9945,5,2,0:2:0:0:
266,69,10203,1,2,0:2:0:0:
268,47,10290,1,2,0:2:0:0:
364,144,10462,5,2,0:2:0:0:
377,121,10548,1,2,0:2:0:0:
440,222,10721,1,2,0:2:0:0:
434,196,10807,2,0,P|422:218|418:237,1,35,2|0,0:2|0:0,0:0:0:0:
483,340,10979,2,0,P|470:323|450:307,1,35,2|0,0:2|0:0,0:0:0:0:
355,292,11152,2,0,P|323:294|307:299,1,35,2|0,0:2|0:0,0:0:0:0:
235,322,11324,5,2,0:2:0:0:
204,337,11410,1,0,0:0:0:0:
168,338,11496,1,0,0:0:0:0:
137,318,11583,1,0,0:0:0:0:
141,329,11669,6,0,P|147:354|151:371,1,35,2|0,0:2|0:0,0:0:0:0:
148,253,11841,2,0,P|112:223|19:212,1,140,2|0,0:2|0:0,0:0:0:0:
58,133,12358,1,2,0:2:0:0:
28,43,12531,1,0,0:0:0:0:
150,9,12703,1,4,0:2:0:0:
276,99,14083,5,4,0:1:0:0:
346,150,14255,1,0,0:0:0:0:
432,119,14427,1,0,0:0:0:0:
276,222,14600,5,2,0:2:0:0:
202,207,14772,1,0,0:0:0:0:
284,239,14945,1,0,0:0:0:0:
331,296,15117,1,0,0:0:0:0:
266,240,15290,1,0,0:0:0:0:
164,343,15462,5,2,0:2:0:0:
89,276,15634,1,0,0:0:0:0:
83,182,15807,1,0,0:0:0:0:
9,60,15979,5,2,0:2:0:0:
78,73,16152,1,0,0:0:0:0:
160,36,16324,1,0,0:0:0:0:
90,73,16496,1,0,0:0:0:0:
80,59,16669,1,0,0:0:0:0:
265,63,16841,5,2,0:2:0:0:
321,136,17014,1,0,0:0:0:0:
419,117,17186,1,0,0:0:0:0:
334,261,17358,5,2,0:2:0:0:
235,199,17531,1,0,0:0:0:0:
137,241,17703,1,0,0:0:0:0:
202,255,17876,1,0,0:0:0:0:
242,196,18048,1,0,0:0:0:0:
138,83,18221,5,2,0:2:0:0:
47,54,18393,1,0,0:0:0:0:
247,66,18565,1,0,0:0:0:0:
151,95,18738,1,0,0:0:0:0:
236,79,18910,1,2,0:2:0:0:
302,111,19083,1,2,0:2:0:0:
352,111,19255,1,2,0:2:0:0:
378,89,19427,1,2,0:2:0:0:
385,64,19600,5,4,0:1:0:0:
436,149,19772,1,0,0:0:0:0:
377,225,19945,1,0,0:0:0:0:
249,240,20117,5,2,0:2:0:0:
326,298,20290,1,0,0:0:0:0:
151,261,20462,1,0,0:0:0:0:
254,230,20634,1,0,0:0:0:0:
267,133,20807,1,0,0:0:0:0:
158,34,20979,5,2,0:2:0:0:
77,75,21152,1,0,0:0:0:0:
0,23,21324,1,0,0:0:0:0:
226,69,21496,5,2,0:2:0:0:
297,20,21669,1,0,0:0:0:0:
376,32,21841,1,0,0:0:0:0:
436,59,22014,1,0,0:0:0:0:
478,52,22186,1,0,0:0:0:0:
498,31,22358,5,2,0:2:0:0:
448,127,22531,1,2,0:2:0:0:
453,216,22703,1,2,0:2:0:0:
496,293,22876,1,2,0:2:0:0:
494,299,23221,1,0,0:0:0:0:
425,298,23393,1,0,0:0:0:0:
365,332,23565,1,0,0:0:0:0:
247,359,23738,5,4,0:1:0:0:
183,329,24427,1,2,0:2:0:0:
151,273,24772,1,2,0:2:0:0:
235,63,25117,5,4,0:1:0:0:
166,96,25290,1,0,0:0:0:0:
75,53,25462,1,0,0:0:0:0:
0,124,25634,1,0,0:0:0:0:
131,205,25807,5,2,0:2:0:0:
219,187,25979,1,0,0:0:0:0:
92,142,26152,1,0,0:0:0:0:
137,217,26324,1,0,0:0:0:0:
284,366,26496,5,2,0:2:0:0:
354,366,27014,1,2,0:2:0:0:
480,267,27186,1,2,0:2:0:0:
474,276,27703,1,2,0:2:0:0:
412,220,27876,5,2,0:2:0:0:
412,220,27919,1,2,0:2:0:0:
341,172,28048,1,0,0:0:0:0:
251,175,28221,1,0,0:0:0:0:
185,231,28393,1,0,0:0:0:0:
201,93,28565,5,2,0:2:0:0:
121,125,28738,1,0,0:0:0:0:
297,85,28910,1,0,0:0:0:0:
203,79,29083,1,0,0:0:0:0:
19,177,29255,5,2,0:2:0:0:
25,248,29772,1,2,0:2:0:0:
131,353,29945,1,2,0:2:0:0:
125,364,30462,1,2,0:2:0:0:
224,228,30634,5,4,0:1:0:0:
356,278,30807,1,0,0:0:0:0:
280,271,30979,1,0,0:0:0:0:
461,202,31152,1,0,0:0:0:0:
425,263,31324,1,0,0:0:0:0:
450,130,31496,1,0,0:0:0:0:
425,337,31669,5,2,0:2:0:0:
359,200,31841,1,2,0:2:0:0:
447,28,32014,5,4,0:1:0:0:
299,57,32186,1,0,0:0:0:0:
380,63,32358,1,0,0:0:0:0:
314,68,32531,1,0,0:0:0:0:
438,21,32703,1,0,0:0:0:0:
388,78,32876,1,0,0:0:0:0:
255,5,33048,5,2,0:2:0:0:
184,60,33221,1,2,0:2:0:0:
173,60,33307,1,2,0:2:0:0:
162,59,33393,1,4,0:1:0:0:
149,58,34772,1,2,0:2:0:0:
84,65,35376,5,2,0:2:0:0:
64,31,35462,2,0,P|48:23|20:13,1,35,2|0,0:2|0:0,0:0:0:0:
127,166,35634,2,0,P|115:138|102:124,1,35,2|0,0:2|0:0,0:0:0:0:
292,173,35807,2,0,P|272:177|239:195,1,52.5000020027161,4|0,0:3|0:0,0:0:0:0:
177,246,35979,2,0,P|164:257|134:295,1,52.5000020027161,4|0,0:3|0:0,0:0:0:0:
100,354,36152,6,0,P|70:327|-2:330,1,105.000004005432,4|0,1:0|0:0,0:0:0:0:
218,330,36410,1,2,0:0:0:0:
166,368,36496,2,0,L|280:360,1,105.000004005432,0|0,1:0|0:0,0:0:0:0:
337,353,36755,1,0,0:0:0:0:
338,333,36841,1,4,0:3:0:0:
486,236,37014,2,0,P|454:243|388:198,1,105.000004005432,2|0,0:2|1:0,0:0:0:0:
287,112,37358,1,0,0:0:0:0:
323,101,37445,1,0,0:0:0:0:
359,91,37531,6,0,L|414:75,1,52.5000020027161,4|0,0:3|0:0,0:0:0:0:
203,67,37703,2,0,L|84:57,1,105.000004005432,0|0,1:0|0:3,0:0:0:0:
14,107,38048,1,0,1:2:0:0:
5,74,38134,1,0,0:3:0:0:
0,39,38221,1,4,0:3:0:0:
121,188,38393,2,0,P|119:215|89:223,1,52.5000020027161,2|0,0:2|0:0,0:0:0:0:
54,273,38565,2,0,L|-4:270,1,52.5000020027161,2|0,1:2|0:0,0:0:0:0:
226,299,38738,2,0,P|204:317|211:353,1,52.5000020027161,2|0,0:2|0:0,0:0:0:0:
264,371,38910,6,0,L|370:358,1,105.000004005432,4|0,0:3|0:0,0:0:0:0:
432,348,39169,1,0,0:0:0:0:
366,347,39255,2,0,B|363:302|363:302|352:288|352:288|347:225,1,105.000004005432,0|0,1:0|0:0,0:0:0:0:
401,206,39514,2,0,L|397:144,1,52.5000020027161,0|4,1:0|0:3,0:0:0:0:
176,98,39772,5,2,0:2:0:0:
141,115,39858,1,0,0:0:0:0:
98,107,39945,1,2,1:2:0:0:
238,138,40117,2,0,L|231:200,1,52.5000020027161,2|0,0:2|0:0,0:0:0:0:
253,8,40290,6,0,P|263:57|316:71,1,105.000004005432,4|0,0:3|0:0,0:0:0:0:
374,57,40548,2,0,L|378:-5,1,52.5000020027161,2|0,1:2|0:0,0:0:0:0:
336,157,40807,1,2,1:2:0:0:
310,182,40893,2,0,L|308:238,1,52.5000020027161,2|4,0:2|0:3,0:0:0:0:
242,313,41152,1,2,1:2:0:0:
151,285,41324,1,4,0:3:0:0:
355,289,41496,5,2,0:2:0:0:
361,324,41583,1,2,0:2:0:0:
365,355,41669,1,4,0:3:0:0:
512,205,41841,1,0,0:2:0:0:
467,155,41927,2,0,L|479:270,1,105.000004005432,0|2,1:0|0:2,0:0:0:0:
391,204,42186,1,0,1:0:0:0:
394,177,42272,1,0,0:0:0:0:
398,148,42358,1,4,0:3:0:0:
274,43,42531,6,0,P|283:64|313:74,1,52.5000020027161,2|0,0:2|0:0,0:0:0:0:
366,40,42703,2,0,L|440:37,1,52.5000020027161,0|0,1:0|0:0,0:0:0:0:
241,156,42876,2,0,P|232:122|199:117,1,52.5000020027161
150,110,43048,6,0,L|29:107,1,105.000004005432,4|0,0:3|0:0,0:0:0:0:
201,236,43307,2,0,L|263:235,1,52.5000020027161,2|0,1:2|0:3,0:0:0:0:
339,277,43565,1,0,1:0:0:0:
342,316,43652,1,0,0:0:0:0:
345,350,43738,1,4,0:3:0:0:
203,362,43910,6,0,P|175:333|147:325,1,52.5000020027161,2|0,0:2|0:0,0:0:0:0:
98,320,44083,1,0,1:0:0:0:
98,320,44255,1,2,0:2:0:0:
0,185,44427,5,4,0:3:0:0:
11,221,44514,1,2,0:2:0:0:
40,244,44600,1,2,0:2:0:0:
78,246,44686,1,2,0:2:0:0:
110,226,44772,1,0,1:0:0:0:
195,165,44945,1,2,0:2:0:0:
200,195,45031,1,0,0:0:0:0:
204,226,45117,1,4,0:3:0:0:
277,129,45290,6,0,P|288:102|330:96,1,52.5000020027161,2|0,0:2|0:0,0:0:0:0:
374,91,45462,2,0,L|375:166,1,52.5000020027161,2|0,1:2|0:0,0:0:0:0:
418,289,45634,2,0,P|441:313|469:309,1,52.5000020027161,2|0,0:2|0:0,0:0:0:0:
471,244,45807,2,0,L|349:246,1,105.000004005432,4|0,0:3|0:0,0:0:0:0:
258,310,46065,5,2,1:2:0:0:
187,324,46152,1,2,0:2:0:0:
124,160,46324,5,2,1:2:0:0:
68,128,46410,1,2,0:2:0:0:
6,138,46496,1,2,1:2:0:0:
192,39,46669,5,4,0:3:0:0:
276,80,46841,1,0,1:0:0:0:
368,74,47014,1,4,0:3:0:0:
430,4,47186,6,0,B|457:49|457:49|443:122,1,105.000004005432,4|0,1:0|0:0,0:0:0:0:
477,165,47445,1,2,0:2:0:0:
448,108,47531,2,0,L|430:229,1,105.000004005432,0|0,1:0|0:0,0:0:0:0:
478,265,47790,1,0,0:0:0:0:
488,288,47876,1,4,0:3:0:0:
392,358,48048,1,0,0:0:0:0:
296,282,48221,1,0,1:0:0:0:
147,274,48393,5,2,0:2:0:0:
121,301,48479,1,2,0:2:0:0:
108,336,48565,1,4,0:3:0:0:
74,187,48738,1,2,0:2:0:0:
37,169,48824,1,2,1:2:0:0:
173,135,48996,1,2,0:2:0:0:
152,103,49083,1,2,1:2:0:0:
148,65,49169,1,2,0:2:0:0:
161,27,49255,1,4,0:3:0:0:
306,36,49427,6,0,P|321:57|324:97,1,52.5000020027161,2|0,0:2|0:0,0:0:0:0:
391,88,49600,2,0,L|443:85,1,52.5000020027161,0|0,1:0|0:0,0:0:0:0:
319,248,49772,2,0,L|256:249,1,52.5000020027161,2|0,0:2|0:0,0:0:0:0:
208,290,49945,6,0,P|219:324|294:336,1,105.000004005432,4|0,0:3|0:0,0:0:0:0:
56,347,50203,2,0,L|-12:344,1,52.5000020027161,0|0,1:0|0:0,0:0:0:0:
129,304,50462,1,2,1:2:0:0:
137,333,50548,1,2,0:2:0:0:
145,362,50634,1,4,0:3:0:0:
118,190,50807,6,0,L|125:118,1,52.5000020027161,2|0,0:2|0:0,0:0:0:0:
72,90,50979,2,0,P|45:77|19:106,1,52.5000020027161,2|0,1:2|0:0,0:0:0:0:
296,102,51152,2,0,L|304:40,1,52.5000020027161,2|0,0:2|0:0,0:0:0:0:
361,11,51324,2,0,P|392:52|457:39,1,105.000004005432,4|0,0:3|0:0,0:0:0:0:
487,155,51583,5,2,1:2:0:0:
437,199,51669,1,2,0:2:0:0:
234,257,51841,5,2,1:2:0:0:
282,304,51927,1,2,0:2:0:0:
307,365,52014,1,2,1:2:0:0:
231,138,52186,5,4,0:3:0:0:
205,149,52272,1,2,0:2:0:0:
178,153,52358,1,0,1:0:0:0:
91,141,52531,1,4,0:3:0:0:
0,80,52703,6,0,L|4:195,1,105.000004005432,4|0,0:3|0:0,0:0:0:0:
89,234,52962,2,0,L|92:308,1,52.5000020027161,0|0,1:0|0:0,0:0:0:0:
223,328,53221,1,2,1:2:0:0:
227,357,53307,1,2,0:2:0:0:
230,383,53393,1,4,0:3:0:0:
380,340,53565,6,0,P|383:307|412:300,1,52.5000020027161,4|0,0:3|0:0,0:0:0:0:
308,246,53738,2,0,L|311:304,1,52.5000020027161,0|0,1:0|0:0,0:0:0:0:
441,90,53910,2,0,P|448:121|476:128,1,52.5000020027161,4|0,0:3|0:0,0:0:0:0:
375,128,54083,6,0,L|261:126,1,105.000004005432,4|0,1:0|0:0,0:0:0:0:
197,35,54341,2,0,L|137:33,1,52.5000020027161,2|0,1:2|0:0,0:0:0:0:
44,131,54600,1,2,1:2:0:0:
43,171,54686,1,2,0:2:0:0:
42,206,54772,1,4,0:3:0:0:
147,271,54945,6,0,P|126:303|93:298,1,52.5000020027161,4|0,0:3|0:0,0:0:0:0:
211,318,55117,2,0,L|204:379,1,52.5000020027161,0|0,1:0|0:0,0:0:0:0:
461,181,55290,2,0,L|451:241,1,52.5000020027161,4|0,0:3|0:0,0:0:0:0:
384,251,55462,6,0,P|351:208|245:211,1,157.500006008148,4|0,1:0|0:0,0:0:0:0:
191,181,55807,2,0,L|184:72,1,105.000004005432,0|0,1:0|0:0,0:0:0:0:
124,47,56065,1,0,0:0:0:0:
120,25,56152,1,4,0:3:0:0:
34,5,56324,1,0,0:3:0:0:
143,315,56496,6,0,P|144:276|117:260,1,52.5000020027161,0|0,1:0|0:0,0:0:0:0:
0,122,56669,2,0,P|13:95|36:88,1,52.5000020027161,0|0,1:0|0:0,0:0:0:0:
93,130,56841,2,0,L|65:231,1,105.000004005432,4|2,1:0|0:2,0:0:0:0:
56,259,57100,1,2,0:2:0:0:
46,291,57186,5,0,1:0:0:0:
240,259,57358,1,2,0:2:0:0:
230,292,57445,1,2,0:2:0:0:
221,319,57531,1,0,1:0:0:0:
396,223,57703,1,2,0:2:0:0:
389,257,57790,1,2,0:2:0:0:
382,288,57876,1,0,1:0:0:0:
512,199,58134,5,4,0:3:0:0:
506,229,58221,1,4,1:0:0:0:
418,118,58565,5,2,0:2:0:0:
329,130,58738,1,2,0:2:0:0:
284,50,58910,1,2,0:2:0:0:
418,118,59255,5,2,0:2:0:0:
329,130,59427,1,2,0:2:0:0:
231,181,59600,5,2,0:2:0:0:
206,165,59686,1,0,0:0:0:0:
175,167,59772,1,0,0:0:0:0:
153,182,59858,1,0,0:0:0:0:
147,172,59945,5,2,0:2:0:0:
117,185,60031,1,0,0:0:0:0:
80,180,60117,1,0,0:0:0:0:
58,159,60203,1,0,0:0:0:0:
62,148,60290,5,2,0:2:0:0:
75,264,60462,1,0,0:0:0:0:
48,252,60548,1,0,0:0:0:0:
12,247,60634,1,2,0:2:0:0:
168,289,60807,1,0,0:0:0:0:
145,317,60893,1,0,0:0:0:0:
130,351,60979,1,2,0:2:0:0:
268,201,61324,5,2,0:2:0:0:
371,129,61496,1,2,0:2:0:0:
492,157,61669,1,2,0:2:0:0:
268,201,62014,5,2,0:2:0:0:
371,129,62186,1,2,0:2:0:0:
333,12,62358,5,2,0:2:0:0:
296,11,62445,1,0,0:0:0:0:
267,33,62531,1,0,0:0:0:0:
265,67,62617,1,0,0:0:0:0:
277,72,62703,5,2,0:2:0:0:
273,111,62790,1,0,0:0:0:0:
238,133,62876,1,0,0:0:0:0:
203,120,62962,1,0,0:0:0:0:
204,109,63048,5,2,0:2:0:0:
167,125,63134,1,0,0:0:0:0:
127,111,63221,1,0,0:0:0:0:
120,73,63307,1,0,0:0:0:0:
128,66,63393,5,2,0:2:0:0:
132,105,63479,1,0,0:0:0:0:
95,130,63565,1,0,0:0:0:0:
50,125,63652,1,0,0:0:0:0:
43,116,63738,5,2,0:2:0:0:
71,302,64083,5,2,0:2:0:0:
228,276,64255,1,2,0:2:0:0:
365,364,64427,1,2,0:2:0:0:
71,302,64772,5,2,0:2:0:0:
228,276,64945,1,2,0:2:0:0:
293,121,65117,1,2,0:2:0:0:
293,121,65634,1,2,0:2:0:0:
379,90,65807,5,2,0:2:0:0:
387,127,65893,1,0,0:0:0:0:
418,147,65979,1,0,0:0:0:0:
454,139,66065,1,0,0:0:0:0:
456,132,66152,5,2,0:2:0:0:
421,140,66238,1,0,0:0:0:0:
403,186,66324,1,0,0:0:0:0:
428,214,66410,1,0,0:0:0:0:
438,211,66496,5,2,0:2:0:0:
438,211,67014,1,0,0:0:0:0:
356,297,67186,5,2,0:2:0:0:
324,316,67272,1,0,0:0:0:0:
297,310,67358,1,0,0:0:0:0:
281,288,67445,1,0,0:0:0:0:
285,277,67531,5,2,0:2:0:0:
290,305,67617,1,0,0:0:0:0:
258,324,67703,1,0,0:0:0:0:
225,315,67790,1,0,0:0:0:0:
219,305,67876,5,2,0:2:0:0:
132,331,68048,1,0,0:0:0:0:
52,294,68221,1,2,0:2:0:0:
32,211,68393,1,0,0:0:0:0:
65,128,68565,5,2,0:2:0:0:
128,146,68680,1,2,0:2:0:0:
187,127,68795,1,2,0:2:0:0:
220,71,68910,5,2,0:3:0:0:
283,100,69025,5,2,0:3:0:0:
335,23,69140,5,2,0:3:0:0:
424,63,69255,6,0,L|415:150,1,70,4|0,1:0|0:0,0:0:0:0:
492,186,69600,1,2,1:2:0:0:
473,274,69772,1,2,0:2:0:0:
455,365,69945,1,2,0:2:0:0:
385,372,70290,5,2,1:3:0:0:
343,321,70404,5,2,0:3:0:0:
268,348,70519,5,2,0:3:0:0:
200,273,70634,6,0,L|112:262,1,70,4|0,0:3|0:0,0:0:0:0:
69,217,70893,1,2,0:2:0:0:
76,222,70979,5,0,1:0:0:0:
93,193,71065,1,0,0:0:0:0:
92,161,71152,1,0,0:0:0:0:
75,135,71238,1,0,0:0:0:0:
83,125,71324,5,2,0:2:0:0:
56,95,71410,1,0,0:0:0:0:
103,116,71496,1,0,0:0:0:0:
154,103,71583,1,0,0:0:0:0:
161,115,71669,5,0,1:0:0:0:
208,96,71755,1,0,0:0:0:0:
171,126,71841,1,0,0:0:0:0:
186,170,71927,1,0,0:0:0:0:
226,183,72014,5,6,0:3:0:0:
284,161,72100,1,2,0:2:0:0:
344,183,72186,1,2,0:2:0:0:
362,245,72272,1,2,0:2:0:0:
353,181,72358,5,0,1:0:0:0:
387,122,72445,1,2,0:2:0:0:
449,101,72531,1,2,0:2:0:0:
380,114,72617,1,2,0:2:0:0:
323,78,72703,5,2,0:2:0:0:
305,43,72790,1,2,0:2:0:0:
332,13,72876,1,2,0:2:0:0:
295,37,72962,1,2,0:2:0:0:
254,19,73048,5,0,1:0:0:0:
210,33,73134,1,2,0:2:0:0:
184,74,73221,1,2,0:2:0:0:
200,41,73307,1,2,0:2:0:0:
169,14,73393,5,4,0:3:0:0:
83,33,73565,1,2,0:2:0:0:
43,113,73738,1,0,1:0:0:0:
81,197,73910,1,2,0:2:0:0:
173,215,74083,1,2,0:2:0:0:
173,215,74427,1,2,1:2:0:0:
187,299,74600,1,2,0:2:0:0:
374,241,74772,5,4,1:0:0:0:
380,213,74858,1,2,0:2:0:0:
387,184,74945,1,2,0:2:0:0:
471,151,75117,1,2,1:2:0:0:
494,65,75290,1,2,0:2:0:0:
392,187,75462,5,6,0:3:0:0:
385,216,75549,1,2,0:2:0:0:
379,244,75635,1,2,0:2:0:0:
288,272,75807,1,2,1:2:0:0:
261,362,75979,1,2,0:2:0:0:
150,163,76152,5,4,0:3:0:0:
112,179,76238,1,0,0:0:0:0:
79,171,76324,1,0,0:0:0:0:
52,139,76410,1,0,0:0:0:0:
57,129,76496,5,0,1:0:0:0:
79,164,76583,1,0,0:0:0:0:
66,203,76669,1,0,0:0:0:0:
32,225,76755,1,0,0:0:0:0:
23,218,76841,5,4,0:3:0:0:
72,232,76927,1,2,0:2:0:0:
95,275,77014,1,2,0:2:0:0:
78,319,77100,1,2,0:2:0:0:
103,271,77186,5,0,1:0:0:0:
146,262,77272,1,2,0:2:0:0:
188,274,77358,1,2,0:2:0:0:
199,318,77445,1,2,0:2:0:0:
198,270,77531,5,4,1:0:0:0:
210,266,77617,1,0,0:0:0:0:
220,262,77703,1,4,0:3:0:0:
231,258,77790,1,0,0:0:0:0:
255,199,77876,5,0,1:0:0:0:
254,212,77962,1,0,0:0:0:0:
253,224,78048,1,4,0:3:0:0:
251,236,78134,1,0,0:0:0:0:
303,273,78221,5,4,0:3:0:0:
292,268,78307,1,0,0:0:0:0:
279,263,78393,1,4,0:3:0:0:
268,257,78479,1,0,0:0:0:0:
317,206,78565,5,2,1:2:0:0:
307,212,78652,1,0,0:0:0:0:
298,219,78738,1,4,0:3:0:0:
287,226,78824,1,0,0:0:0:0:
375,246,78910,5,4,1:0:0:0:
448,226,79485,5,2,0:2:0:0:
481,164,79600,1,2,0:2:0:0:
457,95,79715,1,2,0:2:0:0:
393,58,79830,5,2,0:3:0:0:
329,97,79945,5,2,0:3:0:0:
257,42,80060,5,2,0:3:0:0:
206,128,80175,5,2,0:3:0:0:
92,85,80290,6,0,L|73:194,1,105.000004005432,4|0,1:0|0:0,0:0:0:0:
5,184,80548,1,2,0:2:0:0:
69,205,80634,2,0,P|121:205|161:273,1,131.25000500679,0|0,1:0|0:0,0:0:0:0:
222,302,80893,2,0,L|209:364,1,52.5000020027161,0|4,1:0|0:3,0:0:0:0:
426,273,81152,6,0,P|432:308|464:323,1,52.5000020027161,2|0,0:2|0:0,0:0:0:0:
363,238,81324,2,0,L|379:165,1,52.5000020027161,0|0,1:0|0:0,0:0:0:0:
215,178,81496,2,0,P|240:173|243:134,1,52.5000020027161,2|0,0:2|0:0,0:0:0:0:
194,111,81669,6,0,L|167:-11,1,105.000004005432,4|0,0:3|0:0,0:0:0:0:
102,29,81927,1,2,0:2:0:0:
102,29,81971,1,2,0:2:0:0:
102,29,82014,2,0,P|99:90|48:89,1,105.000004005432,2|0,1:2|0:0,0:0:0:0:
6,73,82272,1,2,0:2:0:0:
2,42,82358,1,4,0:3:0:0:
57,213,82531,6,0,L|40:317,1,105.000004005432,0|0,1:0|0:0,0:0:0:0:
338,314,82876,2,0,P|294:319|283:339,1,52.5000020027161,0|0,1:0|0:0,0:0:0:0:
340,240,83048,6,0,P|376:256|440:220,1,105.000004005432,4|0,1:0|0:0,0:0:0:0:
461,170,83307,1,2,0:2:0:0:
440,229,83393,2,0,L|429:352,1,105.000004005432,0|0,1:0|0:0,0:0:0:0:
498,330,83652,2,0,L|487:390,1,52.5000020027161,0|4,1:0|0:3,1:0:0:0:
382,148,83910,6,0,P|390:118|427:112,1,52.5000020027161,2|0,0:2|0:0,0:0:0:0:
474,103,84083,2,0,L|480:28,1,52.5000020027161,0|0,1:0|0:0,0:0:0:0:
276,179,84255,2,0,P|259:153|231:150,1,52.5000020027161,2|0,0:2|0:0,0:0:0:0:
172,146,84427,6,0,L|60:145,1,105.000004005432,4|0,0:3|0:0,0:0:0:0:
16,100,84686,1,2,0:2:0:0:
68,154,84772,2,0,P|72:197|9:212,1,105.000004005432,0|0,1:0|0:0,0:0:0:0:
0,287,85031,1,2,0:2:0:0:
16,299,85117,1,4,0:3:0:0:
179,309,85290,6,0,P|179:350|154:355,1,52.5000020027161,2|0,0:2|0:0,0:0:0:0:
110,359,85462,2,0,L|48:355,1,52.5000020027161,0|0,1:0|0:0,0:0:0:0:
299,235,85634,2,0,L|293:296,1,52.5000020027161,2|0,0:2|0:0,0:0:0:0:
345,342,85807,6,0,P|364:306|440:306,1,105.000004005432,4|0,1:0|0:0,0:0:0:0:
480,332,86065,1,2,0:2:0:0:
422,291,86152,2,0,B|405:241|405:241|423:182,1,105.000004005432,0|2,1:0|0:2,0:0:0:0:
420,190,86410,1,2,0:2:0:0:
467,144,86496,6,0,P|432:95|371:79,1,105.000004005432,4|2,0:3|0:2,0:0:0:0:
329,90,86755,1,2,0:2:0:0:
313,112,86841,2,0,L|308:174,1,52.5000020027161,0|0,1:0|0:0,0:0:0:0:
170,241,87014,2,0,P|143:264|112:256,1,52.5000020027161,0|0,1:0|0:0,0:0:0:0:
75,217,87186,6,0,L|85:98,1,105.000004005432,4|0,0:3|0:0,0:0:0:0:
55,53,87445,1,2,0:2:0:0:
91,111,87531,2,0,P|119:131|178:93,1,105.000004005432,0|0,1:0|0:0,0:0:0:0:
182,38,87790,1,2,0:2:0:0:
170,25,87876,6,0,L|167:91,1,52.5000020027161,4|0,0:3|0:0,0:0:0:0:
227,219,88048,2,0,P|232:189|258:184,1,52.5000020027161,0|0,1:0|0:0,0:0:0:0:
302,228,88221,6,0,L|299:303,1,52.5000020027161,4|0,0:3|0:3,0:3:0:0:
137,289,88393,2,0,P|115:289|105:256,1,52.5000020027161,0|0,1:0|0:0,0:0:0:0:
112,197,88565,6,0,L|-10:193,1,105.000004005432,4|0,1:0|0:0,0:0:0:0:
2,126,88824,1,2,0:2:0:0:
14,192,88910,2,0,L|4:304,1,105.000004005432,0|0,1:0|0:0,0:0:0:0:
66,321,89169,2,0,L|61:380,1,52.5000020027161,0|4,1:0|0:3,0:0:0:0:
305,381,89427,6,0,P|310:354|350:351,1,52.5000020027161,4|0,0:3|0:0,0:0:0:0:
248,324,89600,2,0,L|181:323,1,52.5000020027161,0|0,1:0|0:0,0:0:0:0:
413,143,89772,2,0,L|413:206,1,52.5000020027161,4|0,0:3|0:0,0:0:0:0:
352,230,89945,6,0,P|311:188|256:199,1,105.000004005432,4|0,0:3|0:0,0:0:0:0:
208,217,90203,1,2,0:2:0:0:
198,242,90290,1,2,1:2:0:0:
137,153,90462,2,0,L|136:35,1,105.000004005432,0|4,1:0|0:3,0:0:0:0:
39,16,90807,1,0,1:0:0:0:
34,42,90893,1,0,1:0:0:0:
28,66,90979,1,4,0:3:0:0:
5,156,91152,1,0,1:0:0:0:
222,25,91324,6,0,P|242:73|301:74,1,105.000004005432,4|0,1:0|0:0,0:0:0:0:
281,149,91583,1,2,0:2:0:0:
297,75,91669,2,0,L|419:75,1,105.000004005432,0|0,1:0|0:0,0:0:0:0:
470,122,91927,2,0,P|472:89|502:85,1,52.5000020027161,0|4,1:0|0:3,0:0:0:0:
379,336,92186,6,0,L|388:263,1,52.5000020027161,2|0,0:2|0:0,0:0:0:0:
394,214,92358,2,0,P|380:191|347:191,1,52.5000020027161,0|0,1:0|0:0,0:0:0:0:
188,329,92531,2,0,L|195:276,1,52.5000020027161,2|0,0:2|0:0,0:0:0:0:
159,220,92703,6,0,P|126:193|60:194,1,105.000004005432,4|0,0:3|0:0,0:0:0:0:
22,242,92962,1,2,0:2:0:0:
22,242,93005,1,2,0:2:0:0:
22,242,93048,2,0,L|13:349,1,105.000004005432,0|0,1:0|0:0,0:0:0:0:
78,350,93307,1,2,0:2:0:0:
75,377,93393,1,4,0:3:0:0:
5,145,93565,6,0,L|18:27,1,105.000004005432,0|0,1:0|0:0,0:0:0:0:
279,279,93910,2,0,P|284:249|322:249,1,52.5000020027161,0|0,1:0|0:0,0:0:0:0:
374,238,94083,6,0,L|487:252,1,105.000004005432,4|0,1:0|0:0,0:0:0:0:
505,190,94341,1,2,0:2:0:0:
480,261,94427,2,0,P|471:297|409:319,1,105.000004005432,0|2,1:0|0:2,0:0:0:0:
432,131,94772,1,4,0:3:0:0:
299,44,94945,6,0,P|291:75|263:76,1,52.5000020027161,2|0,0:2|0:0,0:0:0:0:
206,65,95117,2,0,L|146:57,1,52.5000020027161,0|0,1:0|0:0,0:0:0:0:
16,293,95290,2,0,P|33:266|66:261,1,52.5000020027161,2|0,0:2|0:0,0:0:0:0:
158,292,95462,6,0,L|259:327,1,105.000004005432,4|0,1:0|0:0,0:0:0:0:
91,320,95721,1,2,0:2:0:0:
157,298,95807,2,0,L|163:180,1,105.000004005432,0|0,1:0|0:0,0:0:0:0:
165,162,96065,1,2,0:2:0:0:
167,124,96152,1,4,0:3:0:0:
299,206,96324,1,2,0:2:0:0:
300,177,96410,1,2,0:2:0:0:
301,151,96496,1,0,1:0:0:0:
429,202,96669,2,0,L|431:149,1,52.5000020027161,4|0,0:3|0:0,0:0:0:0:
426,271,96841,6,0,P|381:300|323:283,1,105.000004005432,4|0,1:0|0:0,0:0:0:0:
266,267,97100,1,2,0:2:0:0:
330,280,97186,2,0,L|333:345,1,52.5000020027161,0|0,1:0|0:0,0:0:0:0:
222,372,97358,2,0,P|209:350|169:350,1,52.5000020027161,2|0,0:2|0:0,0:0:0:0:
55,289,97531,5,4,0:3:0:0:
87,277,97617,1,2,0:2:0:0:
111,248,97703,2,0,P|113:220|84:199,1,52.5000020027161,2|0,0:2|0:0,0:0:0:0:
52,153,97876,2,0,L|-6:150,1,52.5000020027161,0|0,1:0|0:0,0:0:0:0:
296,33,98048,2,0,L|290:99,1,52.5000020027161,2|0,0:2|0:0,0:0:0:0:
286,151,98221,6,0,P|301:191|375:197,1,105.000004005432,4|0,0:3|0:0,0:0:0:0:
417,181,98479,1,2,0:2:0:0:
356,200,98565,2,0,L|347:271,1,52.5000020027161,0|0,1:0|0:0,0:0:0:0:
227,226,98738,1,2,0:2:0:0:
222,258,98824,1,2,0:2:0:0:
217,289,98910,6,0,L|206:351,1,52.5000020027161,4|0,0:3|0:0,0:0:0:0:
184,63,99083,2,0,P|182:37|167:16,1,52.5000020027161,0|0,1:0|0:0,0:0:0:0:
66,99,99255,6,0,L|118:101,1,52.5000020027161,4|0,0:3|0:0,0:0:0:0:
334,105,99427,2,0,P|366:99|369:73,1,52.5000020027161,0|0,1:0|0:0,0:0:0:0:
366,15,99600,6,0,L|248:10,1,105.000004005432,4|0,1:0|0:0,0:0:0:0:
434,21,99858,1,2,0:2:0:0:
370,22,99945,2,0,L|369:89,1,52.5000020027161,0|0,1:0|0:0,0:0:0:0:
440,224,100117,2,0,P|465:215|474:180,1,52.5000020027161,2|0,0:2|0:0,0:0:0:0:
265,187,100290,5,4,0:3:0:0:
270,224,100376,1,2,0:2:0:0:
272,260,100462,2,0,P|251:284|217:270,1,52.5000020027161,4|0,0:3|0:0,0:0:0:0:
166,274,100634,2,0,L|91:272,1,52.5000020027161,0|0,1:0|0:0,0:0:0:0:
30,74,100807,2,0,P|57:68|65:97,1,52.5000020027161,4|0,0:3|0:0,0:0:0:0:
90,150,100979,5,0,1:0:0:0:
121,166,101065,1,2,0:2:0:0:
155,167,101152,1,4,0:3:0:0:
184,155,101238,1,2,0:2:0:0:
199,121,101324,1,4,0:3:0:0:
184,86,101410,1,2,0:2:0:0:
209,124,101496,5,0,1:0:0:0:
253,137,101583,1,2,0:2:0:0:
293,120,101669,1,4,0:3:0:0:
330,97,101755,1,2,0:2:0:0:
375,104,101841,1,4,0:3:0:0:
398,141,101927,1,2,0:2:0:0:
380,96,102014,5,0,1:0:0:0:
397,73,102100,1,2,0:2:0:0:
431,65,102186,1,2,0:2:0:0:
453,80,102272,1,2,0:2:0:0:
456,72,102358,5,4,1:0:0:0:
489,145,102531,1,0,0:0:0:0:
498,132,102617,1,2,0:2:0:0:
462,216,102790,1,0,0:2:0:0:
455,206,102876,1,0,0:0:0:0:
442,197,102962,1,2,0:2:0:0:
493,290,103134,1,0,0:0:0:0:
501,279,103221,1,2,0:2:0:0:
446,350,103393,1,2,0:2:0:0:
360,320,103565,1,0,0:0:0:0:
380,310,103652,1,2,0:2:0:0:
258,311,103824,1,0,0:0:0:0:
279,321,103910,1,2,0:2:0:0:
31,356,104255,1,0,0:0:0:0:
9,345,104341,1,2,0:2:0:0:
60,278,104514,1,0,0:0:0:0:
50,254,104600,1,2,0:2:0:0:
132,229,104772,1,2,0:2:0:0:
216,243,104945,1,0,0:0:0:0:
258,123,105117,5,4,0:2:0:0:
333,165,105290,1,0,0:0:0:0:
328,181,105376,1,2,0:2:0:0:
399,121,105548,1,0,0:0:0:0:
412,140,105634,1,0,0:0:0:0:
424,154,105721,1,2,0:2:0:0:
430,51,105893,1,0,0:0:0:0:
451,38,105979,1,2,0:2:0:0:
346,26,106152,1,2,0:2:0:0:
268,56,106324,1,0,0:0:0:0:
248,37,106410,1,2,0:2:0:0:
142,59,106583,1,0,0:0:0:0:
152,33,106669,1,2,0:2:0:0:
40,204,107014,1,0,0:0:0:0:
29,225,107100,1,2,0:2:0:0:
110,262,107272,1,0,0:0:0:0:
99,289,107358,1,2,0:2:0:0:
187,320,107531,1,2,0:2:0:0:
267,344,107703,1,2,0:2:0:0:
258,371,107790,1,2,0:2:0:0:
