osu file format v14

[General]
AudioFilename: audio.mp3
AudioLeadIn: 0
PreviewTime: 35388
Countdown: 0
SampleSet: Soft
StackLeniency: 0.7
Mode: 0
LetterboxInBreaks: 0
WidescreenStoryboard: 1

[Editor]
DistanceSpacing: 1
BeatDivisor: 4
GridSize: 32
TimelineZoom: 1.8

[Metadata]
Title:Perpetual Trauma
TitleUnicode:Perpetual Trauma
Artist:bbn
ArtistUnicode:bbn
Creator:LMT
Version:Hard
Source:Oblivious Garden ~Carmina Burana
Tags:遺忘花園 visual novel corypheesoft instrumental piano perpetual traumal opening 開場音樂
BeatmapID:2209694
BeatmapSetID:1056233

[Difficulty]
HPDrainRate:5
CircleSize:5
OverallDifficulty:6
ApproachRate:7
SliderMultiplier:1.3
SliderTickRate:1

[Events]
//Background and Video events
0,0,"opening_bg_cropped.jpg",0,0
//Break Periods
//Storyboard Layer 0 (Background)
//Storyboard Layer 1 (Fail)
//Storyboard Layer 2 (Pass)
//Storyboard Layer 3 (Foreground)
//Storyboard Layer 4 (Overlay)
//Storyboard Sound Samples

[TimingPoints]
290,344.827586206897,4,2,0,50,1,0
462,-100,4,2,0,30,0,0
1669,-100,4,2,0,45,0,0
14083,-100,4,2,0,35,0,0
35807,-100,4,2,0,50,0,0
36152,-100,4,2,0,50,0,0
58221,-100,4,2,0,40,0,0
69255,-100,4,2,0,50,0,0
80290,-100,4,2,0,50,0,0
102402,-100,4,2,0,35,0,0

[Colours]
Combo1 : 106,106,181
Combo2 : 0,155,230
Combo3 : 174,174,255
Combo4 : 162,208,255

[HitObjects]
153,43,462,6,0,L|155:122,1,65,2|2,0:2|0:2,0:0:0:0:
108,153,807,2,0,L|111:234,1,65,2|2,0:2|0:2,0:0:0:0:
70,269,1152,1,2,0:2:0:0:
177,355,1496,1,4,0:3:0:0:
223,308,1669,6,0,L|365:297,1,130,6|0,0:2|0:2,0:0:0:0:
450,212,2358,1,2,0:2:0:0:
405,168,2531,1,2,0:2:0:0:
382,107,2703,2,0,L|376:40,1,65,2|2,0:2|0:2,0:0:0:0:
311,23,3048,2,0,L|322:176,1,130,2|2,0:2|0:2,0:0:0:0:
213,227,3738,1,2,0:2:0:0:
174,177,3910,2,0,L|93:171,1,65,2|0,0:2|0:0,0:0:0:0:
59,129,4255,1,2,0:2:0:0:
19,180,4427,6,0,L|23:294,1,97.5,2|2,0:2|0:2,0:0:0:0:
44,301,4772,1,2,0:2:0:0:
169,334,5117,1,0,0:0:0:0:
233,340,5290,1,2,0:2:0:0:
297,348,5462,1,2,0:2:0:0:
361,354,5634,1,2,0:2:0:0:
387,294,5807,6,0,L|494:305,1,97.5,2|2,0:2|0:2,0:0:0:0:
507,280,6152,1,2,0:2:0:0:
383,180,6496,1,2,0:2:0:0:
381,114,6669,1,2,0:2:0:0:
316,119,6841,1,2,0:2:0:0:
318,184,7014,1,0,0:0:0:0:
382,107,7186,6,0,L|486:97,1,97.5,4|2,0:2|0:2,0:0:0:0:
482,65,7531,2,0,B|458:106|458:106|479:199,1,130,2|0,0:2|0:0,0:0:0:0:
420,220,8048,1,2,0:2:0:0:
358,241,8221,1,2,0:2:0:0:
293,244,8393,1,2,0:2:0:0:
236,212,8565,6,0,B|209:229|209:229|196:316,1,97.5,2|2,0:2|0:2,0:0:0:0:
170,309,8910,1,2,0:2:0:0:
66,229,9255,1,2,0:2:0:0:
23,180,9427,2,0,L|16:85,1,65,2|0,0:2|0:2,0:0:0:0:
12,50,9772,1,2,0:2:0:0:
67,16,9945,6,0,P|112:12|153:72,1,97.5,2|2,0:2|0:2,0:0:0:0:
141,77,10290,2,0,L|278:68,1,130,2|0,0:2|0:0,0:0:0:0:
327,35,10807,1,2,0:2:0:0:
364,87,10979,1,2,0:2:0:0:
425,65,11152,1,2,0:2:0:0:
466,115,11324,5,2,0:2:0:0:
366,198,11669,1,2,0:2:0:0:
403,251,11841,1,2,0:2:0:0:
235,349,12358,1,2,0:2:0:0:
226,284,12531,1,0,0:0:0:0:
216,219,12703,1,4,0:2:0:0:
42,106,14083,6,0,L|117:100,1,65,4|0,0:1|0:0,0:0:0:0:
171,93,14427,1,0,0:0:0:0:
235,87,14600,1,2,0:2:0:0:
308,194,14945,1,0,0:0:0:0:
372,185,15117,2,0,B|407:187|407:187|437:214,1,65,0|0,0:0|0:0,0:0:0:0:
433,300,15462,6,0,B|406:316|406:316|350:312,1,65,2|0,0:2|0:0,0:0:0:0:
307,305,15807,1,0,0:0:0:0:
242,295,15979,1,2,0:2:0:0:
126,354,16324,1,0,0:0:0:0:
61,348,16496,2,0,B|47:318|47:318|7:307,1,65,0|0,0:0|0:0,0:0:0:0:
2,245,16841,5,2,0:2:0:0:
65,228,17014,1,0,0:0:0:0:
106,178,17186,1,0,0:0:0:0:
105,113,17358,1,2,0:2:0:0:
234,105,17703,2,0,B|241:72|241:72|277:45,2,65,0|0|0,0:0|0:0|0:0,0:0:0:0:
285,145,18221,6,0,L|365:140,1,65,2|0,0:2|0:0,0:0:0:0:
414,132,18565,2,0,B|406:99|406:99|374:77,1,65,0|0,0:0|0:0,0:0:0:0:
460,214,18910,2,0,B|430:230|430:230|420:282,1,65,2|2,0:2|0:2,0:0:0:0:
358,263,19255,2,0,L|285:266,1,65,2|2,0:2|0:2,0:0:0:0:
212,309,19600,5,4,0:1:0:0:
174,255,19772,1,0,0:0:0:0:
112,234,19945,1,0,0:0:0:0:
49,249,20117,1,0,0:2:0:0:
15,192,20290,2,0,L|12:116,1,65,2|0,0:2|0:0,0:0:0:0:
73,105,20634,2,0,L|69:16,1,65,2|0,0:2|0:0,0:0:0:0:
162,12,20979,5,2,0:2:0:0:
201,63,21152,1,0,0:0:0:0:
261,86,21324,1,0,0:0:0:0:
324,75,21496,1,0,0:2:0:0:
368,27,21669,2,0,L|356:105,1,65,2|0,0:2|0:0,0:0:0:0:
422,140,22014,2,0,B|391:150|391:150|371:187,1,65,2|0,0:2|0:0,0:0:0:0:
360,242,22358,1,2,0:2:0:0:
360,242,23221,5,0,0:0:0:0:
372,307,23394,1,0,0:0:0:0:
427,347,23566,1,0,0:0:0:0:
493,342,23738,1,4,0:1:0:0:
493,342,24427,1,2,0:2:0:0:
474,213,24772,1,2,0:2:0:0:
458,80,25117,5,4,0:1:0:0:
397,56,25290,1,0,0:0:0:0:
333,70,25462,1,0,0:0:0:0:
286,114,25634,1,0,0:0:0:0:
272,177,25807,2,0,L|293:258,1,65,2|0,0:2|0:0,0:0:0:0:
237,300,26152,2,0,L|221:229,1,65,2|0,0:2|0:0,0:0:0:0:
125,213,26496,5,2,0:2:0:0:
125,213,27014,1,2,0:2:0:0:
69,179,27186,1,2,0:2:0:0:
188,25,27703,1,2,0:2:0:0:
230,74,27876,5,2,0:2:0:0:
288,102,28048,1,0,0:0:0:0:
353,100,28221,1,0,0:0:0:0:
405,62,28393,1,0,0:0:0:0:
436,5,28565,2,0,L|428:83,1,65,2|0,0:2|0:0,0:0:0:0:
425,134,28910,2,0,B|427:174|427:174|460:200,1,65,2|0,0:2|0:0,0:0:0:0:
505,218,29255,5,2,0:2:0:0:
505,218,29772,1,2,0:2:0:0:
489,281,29945,1,2,0:2:0:0:
308,354,30462,1,2,0:2:0:0:
261,308,30634,6,0,L|268:233,1,65,4|0,0:1|0:0,0:0:0:0:
235,186,30979,2,0,B|211:207|211:207|203:252,1,65,0|0,0:0|0:0,0:0:0:0:
98,233,31324,6,0,L|103:156,1,65,0|0,0:0|0:0,0:0:0:0:
37,156,31669,2,0,B|41:123|41:123|75:98,1,65,2|2,0:2|0:2,0:0:0:0:
146,41,32014,5,4,0:1:0:0:
197,80,32186,1,0,0:0:0:0:
260,91,32358,1,0,0:0:0:0:
322,73,32531,1,0,0:0:0:0:
371,30,32703,2,0,L|446:21,1,65,0|0,0:0|0:0,0:0:0:0:
425,86,33048,2,0,L|493:76,1,65,2|2,0:2|0:2,0:0:0:0:
489,77,33307,1,2,0:2:0:0:
489,77,33393,1,4,0:1:0:0:
503,147,34772,1,2,0:2:0:0:
396,271,35376,5,2,0:2:0:0:
396,271,35462,1,2,0:2:0:0:
333,292,35634,1,2,0:2:0:0:
271,285,35807,1,4,0:3:0:0:
218,244,35979,1,4,0:3:0:0:
209,180,36152,6,0,P|192:143|117:149,1,97.5,4|2,1:0|0:0,0:0:0:0:
111,164,36496,1,0,1:0:0:0:
49,143,36669,2,0,L|39:293,1,130,4|2,0:3|0:2,0:0:0:0:
82,322,37186,1,0,1:0:0:0:
141,296,37358,1,0,0:0:0:0:
141,296,37445,1,0,0:0:0:0:
141,296,37531,5,4,0:3:0:0:
196,329,37703,2,0,L|347:354,1,130,0|0,1:0|1:2,0:0:0:0:
387,333,38221,2,0,B|389:290|389:290|368:254,1,65,4|2,0:3|0:2,0:0:0:0:
380,206,38565,2,0,B|385:167|385:167|421:128,1,65,2|2,1:2|0:2,0:0:0:0:
449,56,38910,6,0,P|399:26|344:31,1,97.5,4|2,0:3|0:2,0:0:0:0:
335,46,39255,1,0,1:0:0:0:
288,91,39427,2,0,L|299:232,1,130,4|2,0:3|0:2,0:0:0:0:
245,258,39945,1,2,1:2:0:0:
181,268,40117,1,2,0:2:0:0:
121,240,40290,6,0,P|133:198|194:185,1,97.5,4|2,0:3|0:2,0:0:0:0:
210,196,40634,1,0,1:3:0:0:
237,136,40807,1,4,0:3:0:0:
333,48,41152,1,0,1:3:0:0:
395,74,41324,1,4,0:3:0:0:
448,127,41496,1,2,1:2:0:0:
448,127,41583,1,2,0:2:0:0:
448,127,41669,6,0,L|438:212,1,65,4|0,0:3|0:2,0:0:0:0:
417,214,41927,2,0,L|403:329,1,97.5,0|0,1:0|1:0,0:0:0:0:
354,350,42358,1,4,0:3:0:0:
302,310,42531,5,2,0:2:0:0:
241,286,42703,1,0,1:0:0:0:
175,288,42876,1,0,0:0:0:0:
116,315,43048,6,0,L|104:232,1,65,4|0,0:3|0:0,0:0:0:0:
129,226,43307,2,0,L|115:110,1,97.5,2|0,1:2|1:0,0:0:0:0:
69,85,43738,1,4,0:3:0:0:
110,35,43910,5,2,0:2:0:0:
175,32,44083,1,0,1:0:0:0:
239,32,44255,1,2,0:2:0:0:
296,62,44427,6,0,L|298:136,1,65,4|2,0:3|0:2,0:0:0:0:
349,166,44772,2,0,P|371:174|416:144,1,65,0|2,1:0|0:2,0:0:0:0:
278,291,45117,6,0,L|273:210,1,65,4|2,0:3|0:2,0:0:0:0:
224,185,45462,2,0,P|190:166|152:179,1,65,2|2,1:2|0:2,0:0:0:0:
109,204,45807,1,4,0:3:0:0:
51,125,46065,5,2,1:2:0:0:
51,125,46152,1,2,0:2:0:0:
111,89,46324,1,2,1:2:0:0:
111,89,46410,1,2,0:2:0:0:
111,89,46496,2,0,B|132:62|132:62|185:55,1,65,2|4,1:2|0:3,0:0:0:0:
227,50,46841,2,0,L|305:40,1,65,0|4,1:0|0:3,0:0:0:0:
397,40,47186,6,0,L|386:156,1,97.5,4|2,1:0|0:2,0:0:0:0:
407,174,47531,1,0,1:0:0:0:
352,209,47703,2,0,L|332:366,1,130,4|2,0:3|1:2,0:0:0:0:
271,349,48221,1,0,0:0:0:0:
227,301,48393,1,2,1:2:0:0:
227,301,48479,1,2,0:2:0:0:
227,301,48565,5,4,0:3:0:0:
171,252,48738,2,0,P|135:283|37:263,1,130,2|2,1:2|1:2,0:0:0:0:
30,219,49255,2,0,L|23:129,1,65,4|2,0:3|0:2,0:0:0:0:
84,126,49600,2,0,L|78:45,1,65,0|2,1:0|0:2,0:0:0:0:
161,40,49945,6,0,B|179:58|179:58|227:61,1,65,4|0,0:3|0:0,0:0:0:0:
250,40,50203,2,0,L|378:44,1,97.5,0|2,1:0|1:2,0:0:0:0:
413,45,50634,1,4,0:3:0:0:
449,98,50807,5,2,0:2:0:0:
385,111,50979,1,2,1:2:0:0:
320,121,51152,1,2,0:2:0:0:
255,131,51324,1,4,0:3:0:0:
311,210,51583,5,2,1:2:0:0:
311,210,51669,1,2,0:2:0:0:
247,222,51841,2,0,L|241:277,2,32.5,2|2|2,1:2|0:2|1:2,0:0:0:0:
186,196,52186,1,4,0:3:0:0:
121,190,52358,2,0,L|32:182,1,65,0|4,1:0|0:3,0:0:0:0:
42,120,52703,6,0,L|135:125,1,65,4|0,0:3|0:0,0:0:0:0:
123,95,52962,2,0,L|244:103,1,97.5,0|2,1:0|1:2,0:0:0:0:
285,92,53393,1,4,0:3:0:0:
316,151,53565,5,4,0:3:0:0:
379,135,53738,1,0,1:0:0:0:
442,124,53910,1,4,0:3:0:0:
461,186,54083,6,0,L|382:201,1,65,4|0,1:0|0:0,0:0:0:0:
382,227,54341,2,0,L|264:248,1,97.5,2|2,1:2|1:2,0:0:0:0:
222,260,54772,1,4,0:3:0:0:
157,253,54945,1,4,0:3:0:0:
105,213,55117,1,0,1:0:0:0:
86,150,55290,1,4,0:3:0:0:
112,90,55462,6,0,B|133:58|133:58|244:53,2,130,4|0|4,1:0|1:0|0:3,0:0:0:0:
230,144,56496,2,0,L|314:139,1,65,0|0,1:0|1:0,0:0:0:0:
360,136,56841,1,4,1:0:0:0:
343,265,57186,1,0,1:0:0:0:
447,219,57531,1,0,1:0:0:0:
267,225,57876,1,0,1:0:0:0:
415,303,58221,5,4,1:0:0:0:
303,369,58565,1,2,0:2:0:0:
240,349,58738,1,2,0:2:0:0:
178,328,58910,1,2,0:2:0:0:
125,208,59255,1,2,0:2:0:0:
62,190,59427,1,2,0:2:0:0:
1,176,59600,5,2,0:2:0:0:
76,70,59945,1,2,0:2:0:0:
76,70,60031,1,0,0:0:0:0:
76,70,60117,1,0,0:0:0:0:
76,70,60203,1,0,0:0:0:0:
76,70,60290,1,2,0:2:0:0:
198,111,60634,1,2,0:2:0:0:
249,71,60807,1,0,0:0:0:0:
249,71,60893,1,0,0:0:0:0:
249,71,60979,5,2,0:2:0:0:
371,115,61324,1,2,0:2:0:0:
348,175,61496,1,2,0:2:0:0:
330,237,61669,1,2,0:2:0:0:
207,194,62014,1,2,0:2:0:0:
218,257,62186,1,2,0:2:0:0:
228,320,62358,5,2,0:2:0:0:
98,315,62703,1,2,0:2:0:0:
76,253,62876,1,0,0:0:0:0:
76,253,62962,1,0,0:0:0:0:
76,253,63048,1,2,0:2:0:0:
42,127,63393,1,2,0:2:0:0:
11,184,63565,1,0,0:0:0:0:
11,184,63652,1,0,0:0:0:0:
11,184,63738,5,2,0:2:0:0:
140,168,64083,1,2,0:2:0:0:
161,107,64255,1,2,0:2:0:0:
155,42,64427,1,2,0:2:0:0:
258,120,64772,1,2,0:2:0:0:
322,108,64944,1,2,0:2:0:0:
375,70,65116,1,2,0:2:0:0:
486,230,65634,1,2,0:2:0:0:
421,219,65807,5,2,0:2:0:0:
421,219,65893,1,0,0:0:0:0:
421,219,65979,1,0,0:0:0:0:
357,232,66152,1,2,0:2:0:0:
302,267,66324,1,0,0:0:0:0:
273,325,66496,1,2,0:2:0:0:
83,277,67014,1,0,0:0:0:0:
127,229,67186,5,2,0:2:0:0:
127,229,67272,1,0,0:0:0:0:
127,229,67358,1,0,0:0:0:0:
156,170,67531,1,2,0:2:0:0:
156,105,67703,1,0,0:0:0:0:
134,43,67876,6,0,L|66:38,1,65,2|0,0:2|0:0,0:0:0:0:
199,9,68221,2,0,B|212:24|212:24|284:31,1,65,2|0,0:2|0:0,0:0:0:0:
327,31,68565,2,0,L|380:35,2,43.3333333333333,2|2|2,0:2|0:2|0:2,0:0:0:0:
338,67,68910,2,0,L|399:73,2,43.3333333333333,2|2|2,0:3|0:3|0:3,0:0:0:0:
345,96,69255,6,0,L|321:252,1,130,4|2,1:0|1:2,0:0:0:0:
371,270,69772,1,2,0:2:0:0:
358,333,69945,1,2,0:2:0:0:
228,322,70290,2,0,L|220:375,2,43.3333333333333,2|2|2,1:3|0:3|0:3,0:0:0:0:
204,286,70634,6,0,L|219:200,1,65,4|0,0:3|0:0,0:0:0:0:
158,189,70979,2,0,L|174:101,1,65,0|0,1:0|0:0,0:0:0:0:
239,120,71324,1,2,0:2:0:0:
239,120,71410,1,0,0:0:0:0:
239,120,71496,1,0,0:0:0:0:
289,79,71669,1,0,1:0:0:0:
352,65,71841,1,2,0:2:0:0:
415,78,72014,6,0,L|409:119,2,32.5,6|2|2,0:3|0:2|0:2,0:0:0:0:
468,139,72358,2,0,L|460:195,2,32.5,0|2|2,1:0|0:2|0:2,0:0:0:0:
406,208,72703,1,2,0:2:0:0:
406,208,72790,1,2,0:2:0:0:
406,208,72876,1,2,0:2:0:0:
438,264,73048,1,0,1:0:0:0:
400,317,73221,1,2,0:2:0:0:
335,312,73393,6,0,L|263:299,1,65,4|0,0:3|0:0,0:0:0:0:
209,322,73738,2,0,B|196:304|196:304|127:289,1,65,0|0,1:0|0:0,0:0:0:0:
90,280,74083,1,2,0:2:0:0:
42,159,74427,5,2,1:2:0:0:
106,166,74600,1,2,0:2:0:0:
170,174,74772,1,4,1:0:0:0:
286,115,75117,5,2,1:2:0:0:
350,124,75290,1,2,0:2:0:0:
414,134,75462,1,6,0:3:0:0:
435,262,75807,5,2,1:2:0:0:
381,223,75979,1,2,0:2:0:0:
322,251,76152,2,0,L|310:333,1,65,4|0,0:3|0:0,0:0:0:0:
247,314,76496,2,0,L|239:378,1,65,0|0,1:0|0:0,0:0:0:0:
176,340,76841,2,0,L|170:380,2,32.5,4|2|2,0:3|0:2|0:2,0:0:0:0:
136,288,77186,2,0,L|148:233,2,32.5,0|2|2,1:0|0:2|0:2,0:0:0:0:
71,257,77531,5,4,1:0:0:0:
92,195,77703,1,4,0:3:0:0:
80,130,77876,1,0,1:0:0:0:
38,80,78048,1,4,0:3:0:0:
85,124,78221,5,4,0:3:0:0:
148,137,78393,1,4,0:3:0:0:
212,131,78565,1,2,1:2:0:0:
265,94,78738,1,4,0:3:0:0:
218,138,78910,5,4,1:0:0:0:
457,245,80290,6,0,L|343:250,1,97.5,4|2,1:0|0:2,0:0:0:0:
334,269,80634,1,0,1:0:0:0:
291,318,80807,2,0,L|288:356,2,32.5,4|0|4,0:3|1:0|0:3,0:0:0:0:
240,274,81152,5,2,0:2:0:0:
175,278,81324,1,0,1:0:0:0:
110,282,81496,1,2,0:2:0:0:
52,251,81669,6,0,B|65:222|65:222|146:212,1,97.5,4|2,0:3|0:2,0:0:0:0:
151,188,82014,1,2,1:2:0:0:
129,126,82186,1,4,0:3:0:0:
129,126,82272,1,0,1:0:0:0:
129,126,82358,1,4,0:3:0:0:
161,69,82531,1,0,1:0:0:0:
290,54,82876,1,0,1:0:0:0:
341,99,83048,6,0,P|343:150|393:153,1,97.5,4|2,1:0|0:2,0:0:0:0:
410,144,83393,1,0,1:0:0:0:
447,196,83565,2,0,L|478:188,2,32.5,4|0|4,0:3|1:0|0:3,0:0:0:0:
430,257,83910,5,2,0:2:0:0:
366,244,84083,1,0,1:0:0:0:
302,231,84255,1,2,0:2:0:0:
244,260,84427,6,0,P|236:310|184:318,1,97.5,4|2,0:3|0:2,0:0:0:0:
171,299,84772,1,0,1:0:0:0:
110,322,84945,2,0,L|100:362,2,32.5,4|2|4,0:3|1:2|0:3,0:0:0:0:
69,271,85290,5,2,0:2:0:0:
102,215,85462,1,0,1:0:0:0:
96,150,85634,1,2,0:2:0:0:
51,102,85807,6,0,L|173:94,1,97.5,4|2,1:0|0:2,0:0:0:0:
168,70,86152,1,0,1:0:0:0:
213,116,86324,2,0,L|204:169,2,32.5,4|2|4,0:3|1:2|0:3,0:0:0:0:
262,77,86669,5,2,0:2:0:0:
325,64,86841,1,0,1:0:0:0:
389,56,87014,1,0,1:0:0:0:
436,101,87186,6,0,B|435:140|435:140|439:155|439:155|438:209,1,97.5,4|2,0:3|0:2,0:0:0:0:
410,216,87531,1,0,1:0:0:0:
288,263,87876,5,4,0:3:0:0:
230,292,88048,2,0,L|227:361,1,65,0|4,1:0|0:3,0:0:0:0:
170,254,88393,5,0,1:0:0:0:
112,223,88565,2,0,L|109:106,1,97.5,4|2,1:0|0:2,0:0:0:0:
88,99,88910,1,0,1:0:0:0:
42,55,89083,2,0,L|10:59,2,32.5,4|0|4,0:3|1:0|0:3,0:0:0:0:
91,13,89427,5,4,0:3:0:0:
148,44,89600,1,0,1:0:0:0:
212,42,89772,1,4,0:3:0:0:
275,12,89945,6,0,L|386:8,1,97.5,4|2,0:3|0:2,0:0:0:0:
400,25,90290,1,2,1:2:0:0:
446,70,90462,2,0,P|434:117|357:112,1,130,0|0,1:0|1:0,0:0:0:0:
297,127,90979,1,4,0:3:0:0:
208,222,91324,6,0,L|88:230,1,97.5,4|2,1:0|0:2,0:0:0:0:
82,213,91669,1,0,1:0:0:0:
40,263,91841,2,0,L|-4:270,2,32.5,4|0|4,0:3|1:0|0:3,0:0:0:0:
90,303,92186,5,2,0:2:0:0:
154,308,92358,1,0,1:0:0:0:
218,313,92531,1,2,0:2:0:0:
272,277,92703,6,0,B|295:260|295:260|388:254,1,97.5,4|2,0:3|0:2,0:0:0:0:
391,272,93048,1,0,1:0:0:0:
445,236,93221,1,4,0:3:0:0:
445,236,93307,1,2,1:2:0:0:
445,236,93393,1,4,0:3:0:0:
446,161,93565,2,0,P|416:104|332:118,1,130,0|0,1:0|1:0,0:0:0:0:
290,110,94083,6,0,L|282:207,1,97.5,4|2,1:0|0:2,0:0:0:0:
255,225,94427,1,0,1:0:0:0:
191,239,94600,1,2,0:2:0:0:
133,209,94772,1,4,0:3:0:0:
143,144,94945,5,2,1:2:0:0:
78,142,95117,1,4,0:3:0:0:
12,142,95290,1,2,1:2:0:0:
5,77,95462,6,0,P|37:36|99:43,1,97.5,4|2,1:0|0:2,0:0:0:0:
103,55,95807,2,0,L|184:49,1,65,0|0,1:0|0:0,0:0:0:0:
228,74,96152,2,0,L|321:65,1,65,4|2,0:3|0:2,0:0:0:0:
346,31,96496,1,0,1:0:0:0:
440,120,96841,6,0,B|377:131|377:131|324:161,1,97.5,4|2,1:0|0:2,0:0:0:0:
337,179,97186,1,0,1:0:0:0:
272,182,97358,2,0,L|258:138,2,32.5,4|0|4,0:3|1:0|0:3,0:0:0:0:
243,240,97703,5,2,0:2:0:0:
181,217,97876,1,0,1:0:0:0:
188,281,98048,1,2,0:2:0:0:
125,300,98221,6,0,P|70:304|38:259,1,97.5,4|2,0:3|0:2,0:0:0:0:
47,243,98565,1,0,1:0:0:0:
126,140,98910,5,4,0:3:0:0:
82,91,99083,2,0,L|6:90,1,65,0|4,1:0|0:3,0:0:0:0:
121,22,99427,5,0,1:0:0:0:
167,77,99600,2,0,L|274:64,1,97.5,4|2,1:0|0:2,0:0:0:0:
293,79,99945,1,0,1:0:0:0:
350,48,100117,2,0,L|356:0,2,32.5,4|0|4,0:3|1:0|0:3,0:0:0:0:
367,113,100462,5,4,0:3:0:0:
412,159,100634,1,0,1:0:0:0:
349,178,100807,1,4,0:3:0:0:
284,169,100979,6,0,L|281:265,1,65,0|4,1:0|0:3,0:0:0:0:
281,233,101238,1,0,0:0:0:0:
281,233,101324,1,4,0:3:0:0:
222,259,101496,2,0,L|215:334,1,65,0|4,1:0|0:3,0:0:0:0:
215,323,101755,1,0,0:0:0:0:
215,323,101841,1,4,0:3:0:0:
159,355,102014,1,0,1:0:0:0:
94,351,102186,1,2,0:2:0:0:
34,326,102358,5,4,1:0:0:0:
256,192,102445,12,4,105117,0:2:0:0:
256,192,105203,12,0,107790,0:0:0:0:
