osu file format v14

[General]
AudioFilename: Identic Conflict Full Version1.mp3
AudioLeadIn: 0
PreviewTime: 210658
Countdown: 0
SampleSet: Soft
StackLeniency: 0.7
Mode: 3
LetterboxInBreaks: 0
SpecialStyle: 0
WidescreenStoryboard: 1

[Editor]
DistanceSpacing: 0.9
BeatDivisor: 3
GridSize: 4
TimelineZoom: 1.6

[Metadata]
Title:Identic Conflict
TitleUnicode:Identic Conflict
Artist:bbn
ArtistUnicode:bbn
Creator:_VianK_
Version:Serupa tapi tak sama // 4K
Source:Oblivious Garden ~Carmina Burana
Tags:corypheesoft evening primrose marathon
BeatmapID:4527023
BeatmapSetID:2148960

[Difficulty]
HPDrainRate:8.5
CircleSize:4
OverallDifficulty:8
ApproachRate:5
SliderMultiplier:1.4
SliderTickRate:1

[Events]
//Background and Video events
0,0,"latest.jpg",0,0
//Break Periods
//Storyboard Layer 0 (Background)
//Storyboard Layer 1 (Fail)
//Storyboard Layer 2 (Pass)
//Storyboard Layer 3 (Foreground)
//Storyboard Layer 4 (Overlay)
//Storyboard Sound Samples

[TimingPoints]
2769,337.078651685393,4,1,1,30,1,0
24677,337.078651685393,4,2,1,30,1,0
46250,-100,4,1,1,30,0,0
73553,337.078651685393,4,2,1,30,1,0
93778,-100,4,1,1,30,0,0
96474,-100,4,2,1,30,0,1
115351,-100,4,1,1,30,0,1
118047,-100,4,2,1,30,0,0
139957,337.078651685393,4,2,1,30,1,0
163215,337.078651685393,4,2,1,30,1,0
184789,-100,4,1,1,30,0,0
209731,-125,4,1,1,30,0,0
210743,337.078651685393,4,1,1,30,1,0
210743,-125,4,1,1,30,0,0
226922,-117.647058823529,4,1,1,30,0,0
228271,-111.111111111111,4,1,1,30,0,0
229619,-105.263157894737,4,1,1,30,0,0
232316,-100,4,1,1,30,0,0
255237,-100,4,2,1,30,0,1
271418,-100,4,1,1,30,0,1
276810,-100,4,1,1,30,0,0
287596,-100,4,2,1,30,0,1
298383,-100,4,1,1,30,0,0
321641,337.078651685393,4,1,1,30,1,0

[HitObjects]
64,192,2769,5,0,0:0:0:0:
192,192,2769,1,0,0:0:0:0:
448,192,2769,1,0,0:0:0:0:
320,192,4117,1,0,0:0:0:0:
192,192,4117,1,0,0:0:0:0:
320,192,5465,1,0,0:0:0:0:
448,192,5465,1,0,0:0:0:0:
192,192,6813,1,0,0:0:0:0:
64,192,6813,1,0,0:0:0:0:
320,192,7656,1,0,0:0:0:0:
320,192,7993,1,0,0:0:0:0:
320,192,8162,1,0,0:0:0:0:
192,192,8162,1,0,0:0:0:0:
320,192,9510,1,0,0:0:0:0:
448,192,9510,1,0,0:0:0:0:
64,192,10858,1,0,0:0:0:0:
192,192,10858,1,0,0:0:0:0:
192,192,12207,1,0,0:0:0:0:
320,192,12207,1,0,0:0:0:0:
64,192,12291,1,0,0:0:0:0:
320,192,12375,1,0,0:0:0:0:
64,192,12460,1,0,0:0:0:0:
448,192,12544,1,0,0:0:0:0:
192,192,12628,1,0,0:0:0:0:
448,192,12712,1,0,0:0:0:0:
192,192,12797,1,0,0:0:0:0:
320,192,12881,1,0,0:0:0:0:
64,192,12965,1,0,0:0:0:0:
320,192,13049,1,0,0:0:0:0:
64,192,13134,1,0,0:0:0:0:
448,192,13218,1,0,0:0:0:0:
192,192,13302,1,0,0:0:0:0:
448,192,13386,1,0,0:0:0:0:
192,192,13471,1,0,0:0:0:0:
320,192,13555,128,0,14903:0:0:0:0:
448,192,13555,1,0,0:0:0:0:
64,192,13555,128,0,13724:0:0:0:0:
64,192,13892,1,0,0:0:0:0:
64,192,14229,128,0,14903:0:0:0:0:
448,192,14229,1,0,0:0:0:0:
448,192,14566,1,0,0:0:0:0:
448,192,14903,128,0,16252:0:0:0:0:
192,192,14903,1,0,0:0:0:0:
192,192,15240,1,0,0:0:0:0:
192,192,15577,128,0,16252:0:0:0:0:
64,192,15577,1,0,0:0:0:0:
64,192,15915,1,0,0:0:0:0:
64,192,16252,128,0,17600:0:0:0:0:
320,192,16252,1,0,0:0:0:0:
320,192,16589,1,0,0:0:0:0:
320,192,16926,128,0,17600:0:0:0:0:
192,192,16926,1,0,0:0:0:0:
192,192,17263,1,0,0:0:0:0:
448,192,17600,1,0,0:0:0:0:
192,192,17600,128,0,18948:0:0:0:0:
448,192,17937,1,0,0:0:0:0:
448,192,18274,128,0,18948:0:0:0:0:
320,192,18274,1,0,0:0:0:0:
64,192,18443,1,0,0:0:0:0:
64,192,18780,1,0,0:0:0:0:
64,192,18948,128,0,20297:0:0:0:0:
320,192,18948,128,0,19117:0:0:0:0:
320,192,19285,1,0,0:0:0:0:
320,192,19622,128,0,20297:0:0:0:0:
192,192,19622,1,0,0:0:0:0:
192,192,19960,1,0,0:0:0:0:
192,192,20297,128,0,21645:0:0:0:0:
448,192,20297,128,0,20465:0:0:0:0:
448,192,20634,1,0,0:0:0:0:
448,192,20971,128,0,21645:0:0:0:0:
320,192,20971,1,0,0:0:0:0:
320,192,21308,1,0,0:0:0:0:
320,192,21645,128,0,22993:0:0:0:0:
64,192,21645,128,0,21813:0:0:0:0:
64,192,21982,1,0,0:0:0:0:
64,192,22319,128,0,22993:0:0:0:0:
448,192,22319,1,0,0:0:0:0:
448,192,22656,1,0,0:0:0:0:
192,192,22993,1,0,0:0:0:0:
448,192,22993,128,0,23330:0:0:0:0:
64,192,23077,1,0,0:0:0:0:
320,192,23162,1,0,0:0:0:0:
192,192,23246,1,0,0:0:0:0:
64,192,23330,1,0,0:0:0:0:
320,192,23415,1,0,0:0:0:0:
192,192,23499,1,0,0:0:0:0:
448,192,23583,1,0,0:0:0:0:
64,192,23667,1,0,0:0:0:0:
320,192,23667,1,0,0:0:0:0:
192,192,23752,1,0,0:0:0:0:
320,192,23836,1,0,0:0:0:0:
448,192,23836,1,0,0:0:0:0:
64,192,23920,1,0,0:0:0:0:
192,192,24004,1,0,0:0:0:0:
448,192,24004,1,0,0:0:0:0:
320,192,24089,1,0,0:0:0:0:
64,192,24173,1,0,0:0:0:0:
192,192,24173,1,0,0:0:0:0:
320,192,24257,1,0,0:0:0:0:
448,192,24257,1,0,0:0:0:0:
64,192,24677,1,0,0:0:0:0:
192,192,24677,1,0,0:0:0:0:
448,192,24677,1,0,0:0:0:0:
320,192,24761,1,0,0:0:0:0:
64,192,24845,1,0,0:0:0:0:
448,192,24845,1,0,0:0:0:0:
192,192,24929,1,0,0:0:0:0:
320,192,25014,1,0,0:0:0:0:
448,192,25014,1,0,0:0:0:0:
64,192,25070,1,0,0:0:0:0:
320,192,25126,1,0,0:0:0:0:
192,192,25182,1,0,0:0:0:0:
448,192,25266,1,0,0:0:0:0:
64,192,25351,1,0,0:0:0:0:
192,192,25351,1,0,0:0:0:0:
320,192,25435,1,0,0:0:0:0:
64,192,25519,1,0,0:0:0:0:
192,192,25603,1,0,0:0:0:0:
320,192,25688,1,0,0:0:0:0:
448,192,25688,1,0,0:0:0:0:
192,192,25772,1,0,0:0:0:0:
320,192,25856,1,0,0:0:0:0:
448,192,25941,1,0,0:0:0:0:
192,192,26025,1,0,0:0:0:0:
64,192,26025,1,0,0:0:0:0:
320,192,26109,1,0,0:0:0:0:
64,192,26193,1,0,0:0:0:0:
192,192,26278,1,0,0:0:0:0:
320,192,26362,1,0,0:0:0:0:
448,192,26362,1,0,0:0:0:0:
192,192,26446,1,0,0:0:0:0:
448,192,26530,1,0,0:0:0:0:
320,192,26615,1,0,0:0:0:0:
192,192,26699,1,0,0:0:0:0:
64,192,26699,1,0,0:0:0:0:
320,192,26783,1,0,0:0:0:0:
64,192,26868,1,0,0:0:0:0:
192,192,26952,1,0,0:0:0:0:
320,192,27036,1,0,0:0:0:0:
448,192,27036,1,0,0:0:0:0:
192,192,27120,1,0,0:0:0:0:
448,192,27205,1,0,0:0:0:0:
320,192,27289,1,0,0:0:0:0:
192,192,27373,1,0,0:0:0:0:
64,192,27373,1,0,0:0:0:0:
320,192,27457,1,0,0:0:0:0:
64,192,27542,1,0,0:0:0:0:
192,192,27626,1,0,0:0:0:0:
320,192,27710,1,0,0:0:0:0:
448,192,27710,1,0,0:0:0:0:
192,192,27794,1,0,0:0:0:0:
448,192,27879,1,0,0:0:0:0:
320,192,27963,1,0,0:0:0:0:
192,192,28047,1,0,0:0:0:0:
64,192,28047,1,0,0:0:0:0:
320,192,28132,1,0,0:0:0:0:
192,192,28216,1,0,0:0:0:0:
64,192,28300,1,0,0:0:0:0:
320,192,28384,1,0,0:0:0:0:
448,192,28384,1,0,0:0:0:0:
192,192,28469,1,0,0:0:0:0:
320,192,28553,1,0,0:0:0:0:
448,192,28637,1,0,0:0:0:0:
192,192,28721,1,0,0:0:0:0:
64,192,28721,1,0,0:0:0:0:
320,192,28806,1,0,0:0:0:0:
64,192,28890,128,0,29227:0:0:0:0:
192,192,29059,1,0,0:0:0:0:
448,192,29059,1,0,0:0:0:0:
320,192,29227,1,0,0:0:0:0:
448,192,29311,1,0,0:0:0:0:
192,192,29396,1,0,0:0:0:0:
64,192,29396,1,0,0:0:0:0:
320,192,29480,1,0,0:0:0:0:
448,192,29564,1,0,0:0:0:0:
64,192,29564,1,0,0:0:0:0:
192,192,29648,1,0,0:0:0:0:
320,192,29733,1,0,0:0:0:0:
448,192,29733,1,0,0:0:0:0:
192,192,29817,1,0,0:0:0:0:
64,192,29901,1,0,0:0:0:0:
320,192,29901,1,0,0:0:0:0:
448,192,29985,1,0,0:0:0:0:
192,192,30070,1,0,0:0:0:0:
64,192,30070,1,0,0:0:0:0:
448,192,30154,1,0,0:0:0:0:
192,192,30196,1,0,0:0:0:0:
320,192,30238,1,0,0:0:0:0:
64,192,30323,1,0,0:0:0:0:
320,192,30407,1,0,0:0:0:0:
448,192,30407,1,0,0:0:0:0:
64,192,30491,1,0,0:0:0:0:
320,192,30533,1,0,0:0:0:0:
192,192,30575,1,0,0:0:0:0:
448,192,30660,1,0,0:0:0:0:
64,192,30744,1,0,0:0:0:0:
192,192,30744,1,0,0:0:0:0:
448,192,30828,1,0,0:0:0:0:
192,192,30870,1,0,0:0:0:0:
320,192,30912,1,0,0:0:0:0:
64,192,30997,1,0,0:0:0:0:
448,192,31081,1,0,0:0:0:0:
320,192,31081,1,0,0:0:0:0:
64,192,31165,1,0,0:0:0:0:
320,192,31207,1,0,0:0:0:0:
192,192,31250,1,0,0:0:0:0:
448,192,31334,1,0,0:0:0:0:
192,192,31418,1,0,0:0:0:0:
64,192,31418,1,0,0:0:0:0:
320,192,31502,1,0,0:0:0:0:
64,192,31587,1,0,0:0:0:0:
192,192,31671,1,0,0:0:0:0:
64,192,31755,1,0,0:0:0:0:
448,192,31755,1,0,0:0:0:0:
320,192,31839,1,0,0:0:0:0:
448,192,31924,1,0,0:0:0:0:
192,192,32008,1,0,0:0:0:0:
320,192,32092,1,0,0:0:0:0:
448,192,32092,1,0,0:0:0:0:
192,192,32261,1,0,0:0:0:0:
64,192,32261,1,0,0:0:0:0:
64,192,32429,1,0,0:0:0:0:
448,192,32429,1,0,0:0:0:0:
320,192,32598,1,0,0:0:0:0:
448,192,32598,1,0,0:0:0:0:
320,192,32682,1,0,0:0:0:0:
448,192,32682,1,0,0:0:0:0:
192,192,32766,1,0,0:0:0:0:
64,192,32766,1,0,0:0:0:0:
320,192,32851,1,0,0:0:0:0:
192,192,32935,1,0,0:0:0:0:
64,192,33019,1,0,0:0:0:0:
448,192,33103,1,0,0:0:0:0:
320,192,33103,1,0,0:0:0:0:
192,192,33188,1,0,0:0:0:0:
448,192,33272,1,0,0:0:0:0:
320,192,33356,1,0,0:0:0:0:
448,192,33441,1,0,0:0:0:0:
64,192,33441,1,0,0:0:0:0:
192,192,33525,1,0,0:0:0:0:
320,192,33609,1,0,0:0:0:0:
192,192,33693,1,0,0:0:0:0:
64,192,33778,1,0,0:0:0:0:
448,192,33778,1,0,0:0:0:0:
320,192,33862,1,0,0:0:0:0:
192,192,33946,1,0,0:0:0:0:
320,192,34030,1,0,0:0:0:0:
448,192,34115,1,0,0:0:0:0:
64,192,34115,1,0,0:0:0:0:
192,192,34199,1,0,0:0:0:0:
320,192,34283,1,0,0:0:0:0:
64,192,34283,1,0,0:0:0:0:
448,192,34368,1,0,0:0:0:0:
320,192,34452,1,0,0:0:0:0:
192,192,34452,1,0,0:0:0:0:
64,192,34536,1,0,0:0:0:0:
192,192,34620,1,0,0:0:0:0:
448,192,34620,1,0,0:0:0:0:
320,192,34705,1,0,0:0:0:0:
448,192,34789,1,0,0:0:0:0:
192,192,34873,1,0,0:0:0:0:
64,192,34873,1,0,0:0:0:0:
320,192,34957,1,0,0:0:0:0:
64,192,35042,1,0,0:0:0:0:
192,192,35126,1,0,0:0:0:0:
448,192,35126,1,0,0:0:0:0:
320,192,35210,1,0,0:0:0:0:
64,192,35294,1,0,0:0:0:0:
448,192,35294,1,0,0:0:0:0:
192,192,35379,1,0,0:0:0:0:
320,192,35463,1,0,0:0:0:0:
64,192,35463,1,0,0:0:0:0:
448,192,35463,1,0,0:0:0:0:
192,192,35547,1,0,0:0:0:0:
320,192,35632,1,0,0:0:0:0:
192,192,35716,1,0,0:0:0:0:
64,192,35800,1,0,0:0:0:0:
448,192,35800,1,0,0:0:0:0:
320,192,35884,1,0,0:0:0:0:
192,192,35969,1,0,0:0:0:0:
320,192,36053,1,0,0:0:0:0:
448,192,36137,1,0,0:0:0:0:
64,192,36137,1,0,0:0:0:0:
192,192,36221,1,0,0:0:0:0:
320,192,36306,1,0,0:0:0:0:
448,192,36390,1,0,0:0:0:0:
320,192,36474,1,0,0:0:0:0:
192,192,36474,1,0,0:0:0:0:
64,192,36559,1,0,0:0:0:0:
192,192,36643,1,0,0:0:0:0:
320,192,36727,1,0,0:0:0:0:
448,192,36811,1,0,0:0:0:0:
64,192,36811,1,0,0:0:0:0:
192,192,36980,1,0,0:0:0:0:
64,192,36980,1,0,0:0:0:0:
192,192,37148,1,0,0:0:0:0:
320,192,37148,1,0,0:0:0:0:
320,192,37317,1,0,0:0:0:0:
448,192,37317,1,0,0:0:0:0:
64,192,37485,1,0,0:0:0:0:
448,192,37485,1,0,0:0:0:0:
192,192,37654,1,0,0:0:0:0:
64,192,37654,1,0,0:0:0:0:
192,192,37823,1,0,0:0:0:0:
320,192,37823,1,0,0:0:0:0:
320,192,37991,1,0,0:0:0:0:
448,192,37991,1,0,0:0:0:0:
448,192,38160,1,0,0:0:0:0:
64,192,38160,1,0,0:0:0:0:
192,192,38244,1,0,0:0:0:0:
320,192,38328,1,0,0:0:0:0:
192,192,38412,1,0,0:0:0:0:
64,192,38497,1,0,0:0:0:0:
448,192,38497,1,0,0:0:0:0:
320,192,38581,1,0,0:0:0:0:
192,192,38665,1,0,0:0:0:0:
320,192,38750,1,0,0:0:0:0:
448,192,38834,1,0,0:0:0:0:
64,192,38834,1,0,0:0:0:0:
192,192,38918,1,0,0:0:0:0:
320,192,39002,1,0,0:0:0:0:
448,192,39087,1,0,0:0:0:0:
320,192,39171,1,0,0:0:0:0:
192,192,39171,1,0,0:0:0:0:
64,192,39255,1,0,0:0:0:0:
192,192,39339,1,0,0:0:0:0:
320,192,39424,1,0,0:0:0:0:
448,192,39508,1,0,0:0:0:0:
64,192,39508,1,0,0:0:0:0:
192,192,39592,1,0,0:0:0:0:
448,192,39676,1,0,0:0:0:0:
192,192,39761,1,0,0:0:0:0:
320,192,39845,1,0,0:0:0:0:
448,192,39845,1,0,0:0:0:0:
64,192,39929,1,0,0:0:0:0:
320,192,40014,1,0,0:0:0:0:
64,192,40098,1,0,0:0:0:0:
320,192,40182,1,0,0:0:0:0:
448,192,40182,1,0,0:0:0:0:
192,192,40266,1,0,0:0:0:0:
64,192,40351,1,0,0:0:0:0:
448,192,40351,1,0,0:0:0:0:
320,192,40435,1,0,0:0:0:0:
192,192,40519,1,0,0:0:0:0:
64,192,40519,1,0,0:0:0:0:
448,192,40603,1,0,0:0:0:0:
320,192,40688,1,0,0:0:0:0:
64,192,40688,1,0,0:0:0:0:
192,192,40772,1,0,0:0:0:0:
320,192,40856,1,0,0:0:0:0:
448,192,40856,1,0,0:0:0:0:
64,192,40856,1,0,0:0:0:0:
192,192,40941,1,0,0:0:0:0:
448,192,40983,1,0,0:0:0:0:
320,192,41025,1,0,0:0:0:0:
192,192,41193,1,0,0:0:0:0:
64,192,41193,1,0,0:0:0:0:
320,192,41278,1,0,0:0:0:0:
64,192,41320,1,0,0:0:0:0:
192,192,41362,1,0,0:0:0:0:
320,192,41530,1,0,0:0:0:0:
448,192,41530,1,0,0:0:0:0:
192,192,41615,1,0,0:0:0:0:
448,192,41657,1,0,0:0:0:0:
320,192,41699,1,0,0:0:0:0:
64,192,41868,1,0,0:0:0:0:
192,192,41868,1,0,0:0:0:0:
320,192,41952,1,0,0:0:0:0:
64,192,41994,1,0,0:0:0:0:
192,192,42036,1,0,0:0:0:0:
320,192,42205,1,0,0:0:0:0:
448,192,42205,1,0,0:0:0:0:
64,192,42205,1,0,0:0:0:0:
192,192,42289,1,0,0:0:0:0:
320,192,42331,1,0,0:0:0:0:
448,192,42373,1,0,0:0:0:0:
192,192,42542,1,0,0:0:0:0:
64,192,42542,1,0,0:0:0:0:
320,192,42626,1,0,0:0:0:0:
192,192,42668,1,0,0:0:0:0:
64,192,42710,1,0,0:0:0:0:
320,192,42879,1,0,0:0:0:0:
448,192,42879,1,0,0:0:0:0:
192,192,42963,1,0,0:0:0:0:
320,192,43005,1,0,0:0:0:0:
448,192,43047,1,0,0:0:0:0:
64,192,43216,1,0,0:0:0:0:
192,192,43216,1,0,0:0:0:0:
320,192,43300,1,0,0:0:0:0:
192,192,43342,1,0,0:0:0:0:
64,192,43384,1,0,0:0:0:0:
192,192,43553,1,0,0:0:0:0:
320,192,43553,1,0,0:0:0:0:
448,192,43553,1,0,0:0:0:0:
64,192,43637,1,0,0:0:0:0:
320,192,43721,1,0,0:0:0:0:
64,192,43806,1,0,0:0:0:0:
320,192,43890,1,0,0:0:0:0:
448,192,43890,1,0,0:0:0:0:
192,192,43974,1,0,0:0:0:0:
448,192,44059,1,0,0:0:0:0:
192,192,44143,1,0,0:0:0:0:
448,192,44227,1,0,0:0:0:0:
64,192,44227,1,0,0:0:0:0:
320,192,44311,1,0,0:0:0:0:
64,192,44396,1,0,0:0:0:0:
320,192,44480,1,0,0:0:0:0:
64,192,44564,1,0,0:0:0:0:
192,192,44564,1,0,0:0:0:0:
448,192,44648,1,0,0:0:0:0:
192,192,44733,1,0,0:0:0:0:
448,192,44817,1,0,0:0:0:0:
64,192,44901,1,0,0:0:0:0:
320,192,44901,1,0,0:0:0:0:
192,192,44985,1,0,0:0:0:0:
64,192,45070,1,0,0:0:0:0:
448,192,45070,1,0,0:0:0:0:
320,192,45154,1,0,0:0:0:0:
448,192,45238,1,0,0:0:0:0:
192,192,45238,1,0,0:0:0:0:
64,192,45323,1,0,0:0:0:0:
192,192,45407,1,0,0:0:0:0:
320,192,45407,1,0,0:0:0:0:
448,192,45491,1,0,0:0:0:0:
320,192,45575,1,0,0:0:0:0:
64,192,45575,1,0,0:0:0:0:
192,192,45660,1,0,0:0:0:0:
64,192,45744,1,0,0:0:0:0:
448,192,45744,1,0,0:0:0:0:
320,192,45828,1,0,0:0:0:0:
192,192,45912,1,0,0:0:0:0:
64,192,45912,1,0,0:0:0:0:
320,192,45997,1,0,0:0:0:0:
448,192,45997,1,0,0:0:0:0:
192,192,46081,1,0,0:0:0:0:
64,192,46081,1,0,0:0:0:0:
320,192,46165,1,0,0:0:0:0:
192,192,46250,1,0,0:0:0:0:
64,192,46250,1,0,0:0:0:0:
448,192,46250,128,0,46924:0:0:0:0:
320,192,46418,1,0,0:0:0:0:
64,192,46587,1,0,0:0:0:0:
192,192,46587,1,0,0:0:0:0:
192,192,46755,1,0,0:0:0:0:
320,192,46924,1,0,0:0:0:0:
64,192,46924,128,0,47261:0:0:0:0:
448,192,47092,1,0,0:0:0:0:
320,192,47261,1,0,0:0:0:0:
192,192,47261,128,0,47598:0:0:0:0:
64,192,47429,128,0,47598:0:0:0:0:
320,192,47598,128,0,47935:0:0:0:0:
448,192,47598,1,0,0:0:0:0:
192,192,47766,128,0,47935:0:0:0:0:
448,192,47935,128,0,48272:0:0:0:0:
64,192,47935,1,0,0:0:0:0:
192,192,48103,1,0,0:0:0:0:
64,192,48272,128,0,48946:0:0:0:0:
320,192,48272,1,0,0:0:0:0:
192,192,48441,1,0,0:0:0:0:
448,192,48609,1,0,0:0:0:0:
320,192,48609,1,0,0:0:0:0:
320,192,48778,128,0,48946:0:0:0:0:
448,192,48946,1,0,0:0:0:0:
192,192,48946,128,0,49620:0:0:0:0:
320,192,49115,1,0,0:0:0:0:
448,192,49283,1,0,0:0:0:0:
64,192,49283,1,0,0:0:0:0:
448,192,49452,1,0,0:0:0:0:
320,192,49620,128,0,49957:0:0:0:0:
64,192,49620,1,0,0:0:0:0:
192,192,49789,1,0,0:0:0:0:
64,192,49957,128,0,50126:0:0:0:0:
448,192,49957,1,0,0:0:0:0:
320,192,50126,128,0,50294:0:0:0:0:
192,192,50294,128,0,50463:0:0:0:0:
64,192,50294,1,0,0:0:0:0:
448,192,50463,128,0,50632:0:0:0:0:
320,192,50632,128,0,50969:0:0:0:0:
192,192,50632,1,0,0:0:0:0:
192,192,50800,1,0,0:0:0:0:
64,192,50969,128,0,51137:0:0:0:0:
448,192,50969,1,0,0:0:0:0:
320,192,51137,128,0,51306:0:0:0:0:
448,192,51137,1,0,0:0:0:0:
64,192,51306,128,0,52317:0:0:0:0:
192,192,51306,1,0,0:0:0:0:
320,192,51474,1,0,0:0:0:0:
448,192,51474,1,0,0:0:0:0:
448,192,51643,1,0,0:0:0:0:
192,192,51643,1,0,0:0:0:0:
320,192,51811,1,0,0:0:0:0:
448,192,51980,1,0,0:0:0:0:
192,192,51980,1,0,0:0:0:0:
192,192,52148,1,0,0:0:0:0:
320,192,52317,128,0,52991:0:0:0:0:
448,192,52317,1,0,0:0:0:0:
192,192,52485,1,0,0:0:0:0:
64,192,52654,1,0,0:0:0:0:
448,192,52654,1,0,0:0:0:0:
64,192,52823,1,0,0:0:0:0:
192,192,52991,128,0,53665:0:0:0:0:
448,192,52991,1,0,0:0:0:0:
320,192,53160,1,0,0:0:0:0:
448,192,53328,1,0,0:0:0:0:
64,192,53328,1,0,0:0:0:0:
448,192,53497,1,0,0:0:0:0:
320,192,53665,128,0,54339:0:0:0:0:
64,192,53665,1,0,0:0:0:0:
192,192,53834,1,0,0:0:0:0:
448,192,54002,1,0,0:0:0:0:
64,192,54002,1,0,0:0:0:0:
64,192,54171,1,0,0:0:0:0:
448,192,54339,128,0,55688:0:0:0:0:
192,192,54339,1,0,0:0:0:0:
320,192,54508,1,0,0:0:0:0:
192,192,54676,1,0,0:0:0:0:
64,192,54676,1,0,0:0:0:0:
64,192,54845,1,0,0:0:0:0:
192,192,55014,1,0,0:0:0:0:
320,192,55014,1,0,0:0:0:0:
64,192,55182,1,0,0:0:0:0:
192,192,55351,1,0,0:0:0:0:
320,192,55351,1,0,0:0:0:0:
320,192,55519,1,0,0:0:0:0:
192,192,55688,1,0,0:0:0:0:
64,192,55688,1,0,0:0:0:0:
320,192,55772,1,0,0:0:0:0:
448,192,55856,1,0,0:0:0:0:
192,192,55856,1,0,0:0:0:0:
64,192,55941,1,0,0:0:0:0:
192,192,56025,1,0,0:0:0:0:
320,192,56025,1,0,0:0:0:0:
448,192,56109,1,0,0:0:0:0:
64,192,56193,1,0,0:0:0:0:
320,192,56193,1,0,0:0:0:0:
192,192,56278,1,0,0:0:0:0:
320,192,56362,1,0,0:0:0:0:
64,192,56446,1,0,0:0:0:0:
448,192,56446,1,0,0:0:0:0:
192,192,56530,1,0,0:0:0:0:
320,192,56615,1,0,0:0:0:0:
192,192,56699,1,0,0:0:0:0:
64,192,56699,1,0,0:0:0:0:
448,192,56783,1,0,0:0:0:0:
64,192,56868,1,0,0:0:0:0:
320,192,56868,1,0,0:0:0:0:
192,192,56952,1,0,0:0:0:0:
448,192,57036,1,0,0:0:0:0:
64,192,57036,128,0,57710:0:0:0:0:
320,192,57036,1,0,0:0:0:0:
192,192,57205,1,0,0:0:0:0:
320,192,57373,1,0,0:0:0:0:
448,192,57373,1,0,0:0:0:0:
448,192,57542,1,0,0:0:0:0:
192,192,57710,1,0,0:0:0:0:
320,192,57710,128,0,58047:0:0:0:0:
64,192,57879,1,0,0:0:0:0:
192,192,58047,1,0,0:0:0:0:
448,192,58047,128,0,58384:0:0:0:0:
192,192,58216,1,0,0:0:0:0:
320,192,58384,128,0,58553:0:0:0:0:
64,192,58384,1,0,0:0:0:0:
192,192,58553,128,0,58721:0:0:0:0:
64,192,58721,128,0,59059:0:0:0:0:
448,192,58721,1,0,0:0:0:0:
448,192,58890,1,0,0:0:0:0:
320,192,59059,128,0,59396:0:0:0:0:
192,192,59059,1,0,0:0:0:0:
64,192,59227,1,0,0:0:0:0:
192,192,59396,128,0,59564:0:0:0:0:
448,192,59396,1,0,0:0:0:0:
320,192,59564,128,0,59733:0:0:0:0:
448,192,59733,128,0,60238:0:0:0:0:
64,192,59733,1,0,0:0:0:0:
192,192,59901,1,0,0:0:0:0:
320,192,60070,1,0,0:0:0:0:
64,192,60070,1,0,0:0:0:0:
320,192,60238,128,0,60744:0:0:0:0:
192,192,60407,1,0,0:0:0:0:
64,192,60407,1,0,0:0:0:0:
448,192,60575,1,0,0:0:0:0:
64,192,60744,1,0,0:0:0:0:
192,192,60744,128,0,60912:0:0:0:0:
320,192,60912,128,0,61081:0:0:0:0:
448,192,61081,128,0,61418:0:0:0:0:
64,192,61081,1,0,0:0:0:0:
320,192,61250,1,0,0:0:0:0:
192,192,61418,128,0,61587:0:0:0:0:
64,192,61418,1,0,0:0:0:0:
448,192,61587,128,0,61755:0:0:0:0:
192,192,61755,128,0,62092:0:0:0:0:
64,192,61755,1,0,0:0:0:0:
320,192,61924,1,0,0:0:0:0:
448,192,61924,1,0,0:0:0:0:
320,192,62092,128,0,62261:0:0:0:0:
448,192,62092,1,0,0:0:0:0:
192,192,62261,128,0,62429:0:0:0:0:
64,192,62261,1,0,0:0:0:0:
448,192,62429,1,0,0:0:0:0:
320,192,62429,1,0,0:0:0:0:
64,192,62429,128,0,63441:0:0:0:0:
192,192,62598,1,0,0:0:0:0:
320,192,62766,1,0,0:0:0:0:
448,192,62766,1,0,0:0:0:0:
448,192,62935,1,0,0:0:0:0:
192,192,63103,1,0,0:0:0:0:
320,192,63103,1,0,0:0:0:0:
448,192,63272,128,0,63441:0:0:0:0:
192,192,63441,1,0,0:0:0:0:
320,192,63441,128,0,63609:0:0:0:0:
192,192,63609,1,0,0:0:0:0:
448,192,63778,1,0,0:0:0:0:
320,192,63778,128,0,63946:0:0:0:0:
64,192,63778,1,0,0:0:0:0:
192,192,63946,128,0,64115:0:0:0:0:
64,192,64115,128,0,64452:0:0:0:0:
448,192,64115,1,0,0:0:0:0:
320,192,64283,1,0,0:0:0:0:
192,192,64452,128,0,64789:0:0:0:0:
448,192,64452,1,0,0:0:0:0:
64,192,64620,1,0,0:0:0:0:
320,192,64789,128,0,65126:0:0:0:0:
448,192,64789,1,0,0:0:0:0:
64,192,64957,1,0,0:0:0:0:
64,192,65126,1,0,0:0:0:0:
192,192,65126,1,0,0:0:0:0:
448,192,65126,128,0,66306:0:0:0:0:
320,192,65294,1,0,0:0:0:0:
192,192,65463,1,0,0:0:0:0:
64,192,65463,1,0,0:0:0:0:
64,192,65632,1,0,0:0:0:0:
320,192,65800,1,0,0:0:0:0:
192,192,65800,1,0,0:0:0:0:
64,192,65969,1,0,0:0:0:0:
192,192,66137,1,0,0:0:0:0:
320,192,66137,1,0,0:0:0:0:
320,192,66306,1,0,0:0:0:0:
64,192,66474,1,0,0:0:0:0:
448,192,66474,1,0,0:0:0:0:
192,192,66559,1,0,0:0:0:0:
320,192,66643,1,0,0:0:0:0:
448,192,66643,1,0,0:0:0:0:
192,192,66727,1,0,0:0:0:0:
64,192,66811,1,0,0:0:0:0:
320,192,66811,1,0,0:0:0:0:
448,192,66896,1,0,0:0:0:0:
320,192,66980,1,0,0:0:0:0:
192,192,66980,1,0,0:0:0:0:
64,192,67064,1,0,0:0:0:0:
448,192,67148,1,0,0:0:0:0:
192,192,67148,1,0,0:0:0:0:
320,192,67233,1,0,0:0:0:0:
192,192,67317,1,0,0:0:0:0:
64,192,67317,1,0,0:0:0:0:
448,192,67401,1,0,0:0:0:0:
64,192,67485,1,0,0:0:0:0:
320,192,67485,1,0,0:0:0:0:
192,192,67570,1,0,0:0:0:0:
448,192,67654,1,0,0:0:0:0:
64,192,67654,1,0,0:0:0:0:
320,192,67738,1,0,0:0:0:0:
64,192,67823,1,0,0:0:0:0:
192,192,67823,1,0,0:0:0:0:
448,192,67823,128,0,73469:0:0:0:0:
320,192,69002,128,0,70182:0:0:0:0:
64,192,69845,1,0,0:0:0:0:
192,192,70182,1,0,0:0:0:0:
320,192,70519,1,0,0:0:0:0:
320,192,72542,128,0,73469:0:0:0:0:
192,192,72879,128,0,73469:0:0:0:0:
64,192,73216,128,0,73469:0:0:0:0:
448,192,73553,1,0,0:0:0:0:
320,192,73553,1,0,0:0:0:0:
192,192,73553,1,0,0:0:0:0:
64,192,73553,1,0,0:0:0:0:
448,192,73721,1,0,0:0:0:0:
192,192,73890,1,0,0:0:0:0:
320,192,74058,1,0,0:0:0:0:
64,192,74227,1,0,0:0:0:0:
64,192,74395,1,0,0:0:0:0:
192,192,74564,1,0,0:0:0:0:
320,192,74732,1,0,0:0:0:0:
320,192,75069,1,0,0:0:0:0:
192,192,75238,1,0,0:0:0:0:
320,192,75406,1,0,0:0:0:0:
320,192,75575,1,0,0:0:0:0:
192,192,75744,1,0,0:0:0:0:
64,192,75912,1,0,0:0:0:0:
448,192,76249,1,0,0:0:0:0:
320,192,76418,1,0,0:0:0:0:
192,192,76586,1,0,0:0:0:0:
192,192,76755,1,0,0:0:0:0:
320,192,76923,1,0,0:0:0:0:
64,192,77092,1,0,0:0:0:0:
448,192,77260,1,0,0:0:0:0:
192,192,77429,1,0,0:0:0:0:
320,192,77597,1,0,0:0:0:0:
192,192,77766,1,0,0:0:0:0:
64,192,77935,1,0,0:0:0:0:
64,192,78103,1,0,0:0:0:0:
448,192,78272,1,0,0:0:0:0:
192,192,78272,1,0,0:0:0:0:
320,192,78440,1,0,0:0:0:0:
64,192,78440,1,0,0:0:0:0:
192,192,78609,1,0,0:0:0:0:
192,192,78777,1,0,0:0:0:0:
448,192,78777,1,0,0:0:0:0:
320,192,78946,1,0,0:0:0:0:
64,192,78946,1,0,0:0:0:0:
192,192,79114,1,0,0:0:0:0:
64,192,79283,1,0,0:0:0:0:
64,192,79451,1,0,0:0:0:0:
320,192,79620,1,0,0:0:0:0:
192,192,79788,1,0,0:0:0:0:
448,192,79957,1,0,0:0:0:0:
320,192,80126,1,0,0:0:0:0:
320,192,80463,1,0,0:0:0:0:
192,192,80631,1,0,0:0:0:0:
320,192,80800,1,0,0:0:0:0:
320,192,80968,1,0,0:0:0:0:
192,192,81137,1,0,0:0:0:0:
64,192,81305,1,0,0:0:0:0:
320,192,81642,1,0,0:0:0:0:
192,192,81811,1,0,0:0:0:0:
320,192,81979,1,0,0:0:0:0:
320,192,82148,1,0,0:0:0:0:
192,192,82317,1,0,0:0:0:0:
320,192,82485,1,0,0:0:0:0:
448,192,82654,1,0,0:0:0:0:
192,192,82822,1,0,0:0:0:0:
448,192,82991,1,0,0:0:0:0:
64,192,82991,1,0,0:0:0:0:
320,192,83075,1,0,0:0:0:0:
192,192,83159,1,0,0:0:0:0:
64,192,83244,1,0,0:0:0:0:
320,192,83328,1,0,0:0:0:0:
192,192,83412,1,0,0:0:0:0:
448,192,83496,1,0,0:0:0:0:
320,192,83581,1,0,0:0:0:0:
192,192,83665,1,0,0:0:0:0:
64,192,83665,1,0,0:0:0:0:
448,192,83749,1,0,0:0:0:0:
320,192,83833,1,0,0:0:0:0:
192,192,83833,1,0,0:0:0:0:
64,192,83918,1,0,0:0:0:0:
448,192,84002,1,0,0:0:0:0:
320,192,84002,1,0,0:0:0:0:
192,192,84086,1,0,0:0:0:0:
64,192,84170,1,0,0:0:0:0:
448,192,84170,1,0,0:0:0:0:
320,192,84255,1,0,0:0:0:0:
192,192,84339,1,0,0:0:0:0:
64,192,84339,1,0,0:0:0:0:
448,192,84339,1,0,0:0:0:0:
320,192,84508,1,0,0:0:0:0:
192,192,84676,1,0,0:0:0:0:
448,192,84676,1,0,0:0:0:0:
320,192,84845,1,0,0:0:0:0:
64,192,85013,1,0,0:0:0:0:
448,192,85013,1,0,0:0:0:0:
64,192,85182,1,0,0:0:0:0:
192,192,85350,1,0,0:0:0:0:
448,192,85350,1,0,0:0:0:0:
320,192,85519,1,0,0:0:0:0:
448,192,85687,1,0,0:0:0:0:
320,192,85856,1,0,0:0:0:0:
192,192,86024,1,0,0:0:0:0:
448,192,86024,1,0,0:0:0:0:
320,192,86193,1,0,0:0:0:0:
320,192,86361,1,0,0:0:0:0:
448,192,86361,1,0,0:0:0:0:
192,192,86530,1,0,0:0:0:0:
64,192,86699,1,0,0:0:0:0:
448,192,86699,1,0,0:0:0:0:
448,192,87036,1,0,0:0:0:0:
192,192,87036,1,0,0:0:0:0:
320,192,87204,1,0,0:0:0:0:
192,192,87373,1,0,0:0:0:0:
448,192,87373,1,0,0:0:0:0:
192,192,87541,1,0,0:0:0:0:
320,192,87710,1,0,0:0:0:0:
448,192,87710,1,0,0:0:0:0:
64,192,87878,1,0,0:0:0:0:
448,192,88047,1,0,0:0:0:0:
320,192,88047,1,0,0:0:0:0:
192,192,88215,1,0,0:0:0:0:
320,192,88384,1,0,0:0:0:0:
448,192,88384,1,0,0:0:0:0:
192,192,88552,1,0,0:0:0:0:
64,192,88721,1,0,0:0:0:0:
448,192,88721,1,0,0:0:0:0:
64,192,88890,1,0,0:0:0:0:
448,192,89058,1,0,0:0:0:0:
192,192,89058,1,0,0:0:0:0:
448,192,89227,1,0,0:0:0:0:
320,192,89227,1,0,0:0:0:0:
192,192,89395,1,0,0:0:0:0:
192,192,89564,1,0,0:0:0:0:
448,192,89564,1,0,0:0:0:0:
320,192,89732,1,0,0:0:0:0:
64,192,89732,1,0,0:0:0:0:
448,192,89732,1,0,0:0:0:0:
192,192,89901,1,0,0:0:0:0:
64,192,90069,1,0,0:0:0:0:
448,192,90069,1,0,0:0:0:0:
64,192,90238,1,0,0:0:0:0:
320,192,90406,1,0,0:0:0:0:
448,192,90406,1,0,0:0:0:0:
192,192,90575,1,0,0:0:0:0:
448,192,90744,1,0,0:0:0:0:
64,192,90744,1,0,0:0:0:0:
320,192,90912,1,0,0:0:0:0:
192,192,91081,1,0,0:0:0:0:
64,192,91081,1,0,0:0:0:0:
448,192,91081,1,0,0:0:0:0:
320,192,91249,1,0,0:0:0:0:
192,192,91418,1,0,0:0:0:0:
448,192,91418,1,0,0:0:0:0:
320,192,91586,1,0,0:0:0:0:
320,192,91755,1,0,0:0:0:0:
448,192,91755,1,0,0:0:0:0:
192,192,91923,1,0,0:0:0:0:
64,192,92092,1,0,0:0:0:0:
448,192,92092,1,0,0:0:0:0:
320,192,92429,1,0,0:0:0:0:
448,192,92429,1,0,0:0:0:0:
64,192,92429,1,0,0:0:0:0:
192,192,92597,1,0,0:0:0:0:
320,192,92766,1,0,0:0:0:0:
448,192,92766,1,0,0:0:0:0:
320,192,92935,1,0,0:0:0:0:
192,192,93103,1,0,0:0:0:0:
448,192,93103,1,0,0:0:0:0:
320,192,93272,1,0,0:0:0:0:
448,192,93440,1,0,0:0:0:0:
64,192,93440,1,0,0:0:0:0:
192,192,93609,1,0,0:0:0:0:
448,192,93777,1,0,0:0:0:0:
64,192,93777,1,0,0:0:0:0:
320,192,93861,1,0,0:0:0:0:
64,192,93946,1,0,0:0:0:0:
320,192,94030,1,0,0:0:0:0:
448,192,94114,1,0,0:0:0:0:
64,192,94114,1,0,0:0:0:0:
192,192,94199,1,0,0:0:0:0:
448,192,94283,1,0,0:0:0:0:
192,192,94367,1,0,0:0:0:0:
448,192,94451,1,0,0:0:0:0:
64,192,94451,1,0,0:0:0:0:
320,192,94536,1,0,0:0:0:0:
64,192,94620,1,0,0:0:0:0:
320,192,94704,1,0,0:0:0:0:
448,192,94788,1,0,0:0:0:0:
64,192,94788,1,0,0:0:0:0:
192,192,94873,1,0,0:0:0:0:
448,192,94957,1,0,0:0:0:0:
320,192,95041,1,0,0:0:0:0:
448,192,95126,1,0,0:0:0:0:
64,192,95126,1,0,0:0:0:0:
192,192,95126,1,0,0:0:0:0:
320,192,95210,1,0,0:0:0:0:
192,192,95294,1,0,0:0:0:0:
64,192,95294,1,0,0:0:0:0:
320,192,95378,1,0,0:0:0:0:
64,192,95463,1,0,0:0:0:0:
448,192,95463,1,0,0:0:0:0:
192,192,95547,1,0,0:0:0:0:
320,192,95631,1,0,0:0:0:0:
448,192,95631,1,0,0:0:0:0:
192,192,95715,1,0,0:0:0:0:
448,192,95800,1,0,0:0:0:0:
64,192,95800,1,0,0:0:0:0:
320,192,95884,1,0,0:0:0:0:
192,192,95884,1,0,0:0:0:0:
64,192,95968,1,0,0:0:0:0:
448,192,95968,1,0,0:0:0:0:
320,192,96052,1,0,0:0:0:0:
192,192,96137,1,0,0:0:0:0:
64,192,96137,1,0,0:0:0:0:
448,192,96221,1,0,0:0:0:0:
320,192,96221,1,0,0:0:0:0:
192,192,96305,1,0,0:0:0:0:
64,192,96305,1,0,0:0:0:0:
320,192,96390,1,0,0:0:0:0:
448,192,96474,1,0,0:0:0:0:
192,192,96474,1,0,0:0:0:0:
64,192,96474,1,0,0:0:0:0:
320,192,96558,1,0,0:0:0:0:
192,192,96642,1,0,0:0:0:0:
64,192,96727,1,0,0:0:0:0:
320,192,96811,1,0,0:0:0:0:
448,192,96811,1,0,0:0:0:0:
192,192,96895,1,0,0:0:0:0:
448,192,96979,1,0,0:0:0:0:
320,192,97064,1,0,0:0:0:0:
192,192,97148,1,0,0:0:0:0:
64,192,97148,1,0,0:0:0:0:
320,192,97232,1,0,0:0:0:0:
448,192,97317,1,0,0:0:0:0:
64,192,97401,1,0,0:0:0:0:
192,192,97401,1,0,0:0:0:0:
320,192,97485,1,0,0:0:0:0:
448,192,97485,1,0,0:0:0:0:
192,192,97569,1,0,0:0:0:0:
64,192,97654,1,0,0:0:0:0:
320,192,97654,1,0,0:0:0:0:
448,192,97738,1,0,0:0:0:0:
192,192,97822,1,0,0:0:0:0:
64,192,97822,1,0,0:0:0:0:
320,192,97906,1,0,0:0:0:0:
192,192,97991,1,0,0:0:0:0:
64,192,98075,1,0,0:0:0:0:
320,192,98159,1,0,0:0:0:0:
448,192,98159,1,0,0:0:0:0:
192,192,98244,1,0,0:0:0:0:
448,192,98328,1,0,0:0:0:0:
320,192,98412,1,0,0:0:0:0:
192,192,98496,1,0,0:0:0:0:
64,192,98496,1,0,0:0:0:0:
448,192,98581,1,0,0:0:0:0:
192,192,98665,1,0,0:0:0:0:
320,192,98749,1,0,0:0:0:0:
448,192,98749,1,0,0:0:0:0:
192,192,98833,1,0,0:0:0:0:
64,192,98833,1,0,0:0:0:0:
320,192,98918,1,0,0:0:0:0:
448,192,99002,1,0,0:0:0:0:
64,192,99002,1,0,0:0:0:0:
192,192,99086,1,0,0:0:0:0:
320,192,99170,1,0,0:0:0:0:
448,192,99170,1,0,0:0:0:0:
192,192,99255,1,0,0:0:0:0:
320,192,99339,1,0,0:0:0:0:
448,192,99423,1,0,0:0:0:0:
192,192,99508,1,0,0:0:0:0:
64,192,99508,1,0,0:0:0:0:
320,192,99592,1,0,0:0:0:0:
64,192,99676,1,0,0:0:0:0:
192,192,99760,1,0,0:0:0:0:
320,192,99845,1,0,0:0:0:0:
448,192,99845,1,0,0:0:0:0:
64,192,99929,1,0,0:0:0:0:
320,192,100013,1,0,0:0:0:0:
192,192,100097,1,0,0:0:0:0:
64,192,100097,1,0,0:0:0:0:
320,192,100182,1,0,0:0:0:0:
448,192,100182,1,0,0:0:0:0:
192,192,100266,1,0,0:0:0:0:
64,192,100350,1,0,0:0:0:0:
448,192,100350,1,0,0:0:0:0:
320,192,100435,1,0,0:0:0:0:
192,192,100519,1,0,0:0:0:0:
64,192,100519,1,0,0:0:0:0:
448,192,100603,1,0,0:0:0:0:
192,192,100687,1,0,0:0:0:0:
320,192,100772,1,0,0:0:0:0:
448,192,100856,1,0,0:0:0:0:
64,192,100856,1,0,0:0:0:0:
192,192,100940,1,0,0:0:0:0:
320,192,101024,1,0,0:0:0:0:
64,192,101109,1,0,0:0:0:0:
320,192,101193,1,0,0:0:0:0:
448,192,101193,1,0,0:0:0:0:
192,192,101277,1,0,0:0:0:0:
448,192,101361,1,0,0:0:0:0:
64,192,101446,1,0,0:0:0:0:
192,192,101446,1,0,0:0:0:0:
320,192,101530,1,0,0:0:0:0:
448,192,101530,1,0,0:0:0:0:
64,192,101614,1,0,0:0:0:0:
192,192,101699,1,0,0:0:0:0:
320,192,101699,1,0,0:0:0:0:
448,192,101783,1,0,0:0:0:0:
192,192,101867,1,0,0:0:0:0:
64,192,101867,1,0,0:0:0:0:
320,192,101951,1,0,0:0:0:0:
64,192,102036,1,0,0:0:0:0:
192,192,102120,1,0,0:0:0:0:
320,192,102204,1,0,0:0:0:0:
448,192,102204,1,0,0:0:0:0:
192,192,102288,1,0,0:0:0:0:
448,192,102373,1,0,0:0:0:0:
320,192,102457,1,0,0:0:0:0:
192,192,102541,1,0,0:0:0:0:
64,192,102541,1,0,0:0:0:0:
320,192,102626,1,0,0:0:0:0:
448,192,102710,1,0,0:0:0:0:
64,192,102794,1,0,0:0:0:0:
192,192,102794,1,0,0:0:0:0:
320,192,102878,1,0,0:0:0:0:
448,192,102878,1,0,0:0:0:0:
192,192,102963,1,0,0:0:0:0:
320,192,103047,1,0,0:0:0:0:
64,192,103047,1,0,0:0:0:0:
448,192,103131,1,0,0:0:0:0:
192,192,103215,1,0,0:0:0:0:
64,192,103215,1,0,0:0:0:0:
320,192,103300,1,0,0:0:0:0:
192,192,103384,1,0,0:0:0:0:
320,192,103468,1,0,0:0:0:0:
448,192,103468,1,0,0:0:0:0:
192,192,103552,1,0,0:0:0:0:
64,192,103552,1,0,0:0:0:0:
320,192,103637,1,0,0:0:0:0:
64,192,103721,1,0,0:0:0:0:
448,192,103721,1,0,0:0:0:0:
192,192,103805,1,0,0:0:0:0:
320,192,103890,1,0,0:0:0:0:
448,192,103890,1,0,0:0:0:0:
192,192,103974,1,0,0:0:0:0:
64,192,104058,1,0,0:0:0:0:
448,192,104142,1,0,0:0:0:0:
320,192,104142,1,0,0:0:0:0:
192,192,104227,1,0,0:0:0:0:
64,192,104227,1,0,0:0:0:0:
448,192,104311,1,0,0:0:0:0:
320,192,104395,1,0,0:0:0:0:
192,192,104395,1,0,0:0:0:0:
64,192,104479,1,0,0:0:0:0:
320,192,104564,1,0,0:0:0:0:
448,192,104564,1,0,0:0:0:0:
192,192,104648,1,0,0:0:0:0:
448,192,104732,1,0,0:0:0:0:
320,192,104817,1,0,0:0:0:0:
192,192,104901,1,0,0:0:0:0:
64,192,104901,1,0,0:0:0:0:
320,192,104985,1,0,0:0:0:0:
192,192,105069,1,0,0:0:0:0:
64,192,105154,1,0,0:0:0:0:
320,192,105238,1,0,0:0:0:0:
448,192,105238,1,0,0:0:0:0:
192,192,105322,1,0,0:0:0:0:
448,192,105406,1,0,0:0:0:0:
64,192,105491,1,0,0:0:0:0:
192,192,105491,1,0,0:0:0:0:
320,192,105575,1,0,0:0:0:0:
448,192,105575,1,0,0:0:0:0:
64,192,105659,1,0,0:0:0:0:
192,192,105744,1,0,0:0:0:0:
320,192,105744,1,0,0:0:0:0:
448,192,105828,1,0,0:0:0:0:
192,192,105912,1,0,0:0:0:0:
64,192,105912,1,0,0:0:0:0:
320,192,105996,1,0,0:0:0:0:
192,192,106081,1,0,0:0:0:0:
320,192,106165,1,0,0:0:0:0:
448,192,106165,1,0,0:0:0:0:
192,192,106249,1,0,0:0:0:0:
64,192,106249,1,0,0:0:0:0:
448,192,106333,1,0,0:0:0:0:
64,192,106418,1,0,0:0:0:0:
320,192,106418,1,0,0:0:0:0:
192,192,106502,1,0,0:0:0:0:
320,192,106586,1,0,0:0:0:0:
448,192,106586,1,0,0:0:0:0:
192,192,106670,1,0,0:0:0:0:
64,192,106670,1,0,0:0:0:0:
448,192,106755,1,0,0:0:0:0:
192,192,106839,1,0,0:0:0:0:
320,192,106839,1,0,0:0:0:0:
448,192,106923,1,0,0:0:0:0:
64,192,106923,1,0,0:0:0:0:
192,192,107008,1,0,0:0:0:0:
448,192,107092,1,0,0:0:0:0:
320,192,107092,1,0,0:0:0:0:
192,192,107176,1,0,0:0:0:0:
64,192,107260,1,0,0:0:0:0:
320,192,107260,1,0,0:0:0:0:
448,192,107260,1,0,0:0:0:0:
192,192,107345,1,0,0:0:0:0:
320,192,107429,1,0,0:0:0:0:
448,192,107513,1,0,0:0:0:0:
192,192,107597,1,0,0:0:0:0:
64,192,107597,1,0,0:0:0:0:
320,192,107682,1,0,0:0:0:0:
192,192,107766,1,0,0:0:0:0:
64,192,107850,1,0,0:0:0:0:
448,192,107935,1,0,0:0:0:0:
320,192,107935,1,0,0:0:0:0:
192,192,108019,1,0,0:0:0:0:
448,192,108103,1,0,0:0:0:0:
192,192,108187,1,0,0:0:0:0:
64,192,108187,1,0,0:0:0:0:
320,192,108272,1,0,0:0:0:0:
448,192,108272,1,0,0:0:0:0:
192,192,108356,1,0,0:0:0:0:
64,192,108440,1,0,0:0:0:0:
320,192,108440,1,0,0:0:0:0:
448,192,108524,1,0,0:0:0:0:
192,192,108609,1,0,0:0:0:0:
64,192,108609,1,0,0:0:0:0:
320,192,108693,1,0,0:0:0:0:
192,192,108777,1,0,0:0:0:0:
64,192,108861,1,0,0:0:0:0:
448,192,108946,1,0,0:0:0:0:
320,192,108946,1,0,0:0:0:0:
192,192,109030,1,0,0:0:0:0:
320,192,109114,1,0,0:0:0:0:
448,192,109199,1,0,0:0:0:0:
64,192,109283,1,0,0:0:0:0:
192,192,109283,1,0,0:0:0:0:
320,192,109367,1,0,0:0:0:0:
64,192,109451,1,0,0:0:0:0:
448,192,109536,1,0,0:0:0:0:
320,192,109536,1,0,0:0:0:0:
192,192,109620,1,0,0:0:0:0:
64,192,109620,1,0,0:0:0:0:
320,192,109704,1,0,0:0:0:0:
448,192,109788,1,0,0:0:0:0:
192,192,109788,1,0,0:0:0:0:
64,192,109873,1,0,0:0:0:0:
448,192,109957,1,0,0:0:0:0:
320,192,109957,1,0,0:0:0:0:
192,192,110041,1,0,0:0:0:0:
320,192,110126,1,0,0:0:0:0:
192,192,110210,1,0,0:0:0:0:
64,192,110294,1,0,0:0:0:0:
448,192,110294,1,0,0:0:0:0:
320,192,110378,1,0,0:0:0:0:
192,192,110463,1,0,0:0:0:0:
320,192,110547,1,0,0:0:0:0:
192,192,110631,1,0,0:0:0:0:
64,192,110631,1,0,0:0:0:0:
448,192,110715,1,0,0:0:0:0:
320,192,110800,1,0,0:0:0:0:
192,192,110884,1,0,0:0:0:0:
64,192,110884,1,0,0:0:0:0:
320,192,110968,1,0,0:0:0:0:
448,192,110968,1,0,0:0:0:0:
192,192,111052,1,0,0:0:0:0:
64,192,111137,1,0,0:0:0:0:
448,192,111137,1,0,0:0:0:0:
320,192,111221,1,0,0:0:0:0:
64,192,111305,1,0,0:0:0:0:
192,192,111305,1,0,0:0:0:0:
320,192,111390,1,0,0:0:0:0:
192,192,111474,1,0,0:0:0:0:
320,192,111558,1,0,0:0:0:0:
448,192,111642,1,0,0:0:0:0:
64,192,111642,1,0,0:0:0:0:
192,192,111727,1,0,0:0:0:0:
320,192,111811,1,0,0:0:0:0:
192,192,111895,1,0,0:0:0:0:
320,192,111979,1,0,0:0:0:0:
448,192,111979,1,0,0:0:0:0:
64,192,112064,1,0,0:0:0:0:
192,192,112148,1,0,0:0:0:0:
448,192,112148,1,0,0:0:0:0:
320,192,112232,1,0,0:0:0:0:
192,192,112317,1,0,0:0:0:0:
64,192,112317,1,0,0:0:0:0:
320,192,112401,1,0,0:0:0:0:
448,192,112485,1,0,0:0:0:0:
64,192,112485,1,0,0:0:0:0:
192,192,112569,1,0,0:0:0:0:
320,192,112654,1,0,0:0:0:0:
448,192,112654,1,0,0:0:0:0:
64,192,112654,1,0,0:0:0:0:
192,192,112738,1,0,0:0:0:0:
320,192,112822,1,0,0:0:0:0:
448,192,112906,1,0,0:0:0:0:
192,192,112991,1,0,0:0:0:0:
64,192,112991,1,0,0:0:0:0:
320,192,113075,1,0,0:0:0:0:
64,192,113159,1,0,0:0:0:0:
192,192,113244,1,0,0:0:0:0:
320,192,113328,1,0,0:0:0:0:
448,192,113328,1,0,0:0:0:0:
64,192,113412,1,0,0:0:0:0:
320,192,113496,1,0,0:0:0:0:
192,192,113581,1,0,0:0:0:0:
64,192,113581,1,0,0:0:0:0:
448,192,113665,1,0,0:0:0:0:
320,192,113665,1,0,0:0:0:0:
192,192,113749,1,0,0:0:0:0:
448,192,113833,1,0,0:0:0:0:
64,192,113833,1,0,0:0:0:0:
320,192,113918,1,0,0:0:0:0:
64,192,114002,1,0,0:0:0:0:
192,192,114002,1,0,0:0:0:0:
448,192,114002,1,0,0:0:0:0:
320,192,114086,1,0,0:0:0:0:
192,192,114170,1,0,0:0:0:0:
64,192,114255,1,0,0:0:0:0:
448,192,114339,1,0,0:0:0:0:
320,192,114339,1,0,0:0:0:0:
192,192,114423,1,0,0:0:0:0:
448,192,114508,1,0,0:0:0:0:
320,192,114592,1,0,0:0:0:0:
192,192,114676,1,0,0:0:0:0:
64,192,114676,1,0,0:0:0:0:
448,192,114760,1,0,0:0:0:0:
192,192,114845,1,0,0:0:0:0:
320,192,114929,1,0,0:0:0:0:
448,192,114929,1,0,0:0:0:0:
64,192,115013,1,0,0:0:0:0:
192,192,115013,1,0,0:0:0:0:
320,192,115097,1,0,0:0:0:0:
64,192,115182,1,0,0:0:0:0:
448,192,115182,1,0,0:0:0:0:
192,192,115266,1,0,0:0:0:0:
448,192,115350,1,0,0:0:0:0:
320,192,115350,1,0,0:0:0:0:
64,192,115350,1,0,0:0:0:0:
192,192,115435,1,0,0:0:0:0:
320,192,115519,1,0,0:0:0:0:
192,192,115603,1,0,0:0:0:0:
64,192,115687,1,0,0:0:0:0:
448,192,115687,1,0,0:0:0:0:
320,192,115772,1,0,0:0:0:0:
192,192,115856,1,0,0:0:0:0:
448,192,115940,1,0,0:0:0:0:
64,192,116024,1,0,0:0:0:0:
192,192,116024,1,0,0:0:0:0:
320,192,116109,1,0,0:0:0:0:
64,192,116193,1,0,0:0:0:0:
192,192,116277,1,0,0:0:0:0:
448,192,116361,1,0,0:0:0:0:
320,192,116361,1,0,0:0:0:0:
192,192,116446,1,0,0:0:0:0:
448,192,116530,1,0,0:0:0:0:
320,192,116614,1,0,0:0:0:0:
192,192,116699,1,0,0:0:0:0:
64,192,116699,1,0,0:0:0:0:
320,192,116783,1,0,0:0:0:0:
448,192,116867,1,0,0:0:0:0:
192,192,116867,1,0,0:0:0:0:
64,192,116951,1,0,0:0:0:0:
448,192,117036,1,0,0:0:0:0:
320,192,117036,1,0,0:0:0:0:
64,192,117120,1,0,0:0:0:0:
320,192,117204,1,0,0:0:0:0:
192,192,117204,1,0,0:0:0:0:
448,192,117288,1,0,0:0:0:0:
192,192,117373,1,0,0:0:0:0:
64,192,117373,1,0,0:0:0:0:
320,192,117457,1,0,0:0:0:0:
448,192,117541,1,0,0:0:0:0:
64,192,117541,1,0,0:0:0:0:
192,192,117626,1,0,0:0:0:0:
320,192,117710,1,0,0:0:0:0:
448,192,117710,1,0,0:0:0:0:
192,192,117794,1,0,0:0:0:0:
64,192,117794,1,0,0:0:0:0:
448,192,117878,1,0,0:0:0:0:
320,192,117878,1,0,0:0:0:0:
192,192,117963,1,0,0:0:0:0:
64,192,118047,1,0,0:0:0:0:
448,192,118047,1,0,0:0:0:0:
320,192,118047,128,0,118159:0:0:0:0:
64,192,118159,128,0,118272:0:0:0:0:
320,192,118272,128,0,118384:0:0:0:0:
192,192,118384,1,0,0:0:0:0:
448,192,118384,128,0,118496:0:0:0:0:
192,192,118496,128,0,118609:0:0:0:0:
448,192,118609,128,0,118721:0:0:0:0:
320,192,118721,1,0,0:0:0:0:
64,192,118721,128,0,118833:0:0:0:0:
320,192,118833,128,0,118946:0:0:0:0:
64,192,118946,128,0,119058:0:0:0:0:
448,192,119058,1,0,0:0:0:0:
192,192,119058,128,0,119170:0:0:0:0:
448,192,119170,128,0,119283:0:0:0:0:
192,192,119283,128,0,119395:0:0:0:0:
64,192,119395,1,0,0:0:0:0:
320,192,119395,128,0,119508:0:0:0:0:
64,192,119508,128,0,119620:0:0:0:0:
320,192,119620,128,0,119732:0:0:0:0:
448,192,119732,1,0,0:0:0:0:
192,192,119732,128,0,119845:0:0:0:0:
448,192,119845,128,0,119957:0:0:0:0:
192,192,119957,128,0,120069:0:0:0:0:
64,192,120069,128,0,120182:0:0:0:0:
320,192,120069,1,0,0:0:0:0:
320,192,120182,128,0,120294:0:0:0:0:
448,192,120294,128,0,120406:0:0:0:0:
64,192,120406,128,0,120519:0:0:0:0:
192,192,120406,1,0,0:0:0:0:
320,192,120519,128,0,120631:0:0:0:0:
192,192,120631,128,0,120744:0:0:0:0:
448,192,120744,1,0,0:0:0:0:
64,192,120744,128,0,120856:0:0:0:0:
448,192,120856,128,0,120968:0:0:0:0:
192,192,120968,128,0,121081:0:0:0:0:
320,192,121081,128,0,121193:0:0:0:0:
448,192,121081,1,0,0:0:0:0:
64,192,121193,128,0,121305:0:0:0:0:
192,192,121305,128,0,121418:0:0:0:0:
448,192,121418,1,0,0:0:0:0:
320,192,121418,128,0,121530:0:0:0:0:
448,192,121530,128,0,121642:0:0:0:0:
192,192,121642,128,0,121755:0:0:0:0:
64,192,121755,1,0,0:0:0:0:
320,192,121755,128,0,121867:0:0:0:0:
64,192,121867,128,0,121979:0:0:0:0:
192,192,121979,128,0,122092:0:0:0:0:
448,192,122092,1,0,0:0:0:0:
320,192,122092,128,0,122204:0:0:0:0:
64,192,122204,128,0,122317:0:0:0:0:
320,192,122317,128,0,122429:0:0:0:0:
64,192,122429,1,0,0:0:0:0:
448,192,122429,128,0,122541:0:0:0:0:
192,192,122541,128,0,122654:0:0:0:0:
320,192,122654,128,0,122766:0:0:0:0:
64,192,122766,1,0,0:0:0:0:
192,192,122766,128,0,122878:0:0:0:0:
320,192,122878,128,0,122991:0:0:0:0:
64,192,122935,1,0,0:0:0:0:
448,192,122991,128,0,123103:0:0:0:0:
320,192,123103,1,0,0:0:0:0:
192,192,123103,128,0,123215:0:0:0:0:
64,192,123215,128,0,123328:0:0:0:0:
448,192,123272,1,0,0:0:0:0:
192,192,123328,128,0,123440:0:0:0:0:
448,192,123440,1,0,0:0:0:0:
320,192,123440,128,0,123552:0:0:0:0:
192,192,123552,128,0,123665:0:0:0:0:
448,192,123665,128,0,123777:0:0:0:0:
192,192,123777,1,0,0:0:0:0:
64,192,123777,128,0,123890:0:0:0:0:
320,192,123890,128,0,124002:0:0:0:0:
64,192,124002,128,0,124114:0:0:0:0:
320,192,124114,1,0,0:0:0:0:
448,192,124114,128,0,124227:0:0:0:0:
192,192,124227,1,0,0:0:0:0:
192,192,124339,128,0,124451:0:0:0:0:
448,192,124451,1,0,0:0:0:0:
64,192,124451,128,0,124564:0:0:0:0:
320,192,124564,1,0,0:0:0:0:
320,192,124676,128,0,124788:0:0:0:0:
192,192,124788,1,0,0:0:0:0:
64,192,124788,128,0,124901:0:0:0:0:
448,192,124901,128,0,125013:0:0:0:0:
192,192,125013,128,0,125126:0:0:0:0:
448,192,125126,1,0,0:0:0:0:
320,192,125126,128,0,125238:0:0:0:0:
64,192,125238,128,0,125350:0:0:0:0:
448,192,125350,128,0,125463:0:0:0:0:
192,192,125463,1,0,0:0:0:0:
64,192,125463,128,0,125575:0:0:0:0:
320,192,125575,1,0,0:0:0:0:
320,192,125687,128,0,125800:0:0:0:0:
64,192,125800,1,0,0:0:0:0:
448,192,125800,128,0,125912:0:0:0:0:
192,192,125912,1,0,0:0:0:0:
192,192,126024,128,0,126137:0:0:0:0:
64,192,126137,1,0,0:0:0:0:
448,192,126137,1,0,0:0:0:0:
448,192,126249,128,0,126361:0:0:0:0:
192,192,126361,1,0,0:0:0:0:
192,192,126474,1,0,0:0:0:0:
64,192,126474,128,0,126586:0:0:0:0:
320,192,126586,128,0,126699:0:0:0:0:
192,192,126699,128,0,126811:0:0:0:0:
64,192,126811,1,0,0:0:0:0:
448,192,126811,128,0,126923:0:0:0:0:
64,192,126923,128,0,127036:0:0:0:0:
320,192,127036,1,0,0:0:0:0:
320,192,127148,1,0,0:0:0:0:
448,192,127148,128,0,127260:0:0:0:0:
192,192,127260,128,0,127373:0:0:0:0:
320,192,127373,128,0,127485:0:0:0:0:
64,192,127485,1,0,0:0:0:0:
448,192,127485,128,0,127597:0:0:0:0:
192,192,127597,1,0,0:0:0:0:
320,192,127710,1,0,0:0:0:0:
448,192,127710,1,0,0:0:0:0:
192,192,127822,1,0,0:0:0:0:
64,192,127822,128,0,127935:0:0:0:0:
320,192,127935,1,0,0:0:0:0:
192,192,128047,1,0,0:0:0:0:
64,192,128047,1,0,0:0:0:0:
320,192,128159,1,0,0:0:0:0:
448,192,128159,128,0,128272:0:0:0:0:
192,192,128272,1,0,0:0:0:0:
320,192,128384,1,0,0:0:0:0:
448,192,128384,1,0,0:0:0:0:
192,192,128496,1,0,0:0:0:0:
64,192,128496,128,0,128609:0:0:0:0:
320,192,128609,1,0,0:0:0:0:
192,192,128721,1,0,0:0:0:0:
448,192,128833,1,0,0:0:0:0:
64,192,128833,1,0,0:0:0:0:
320,192,128833,128,0,128946:0:0:0:0:
64,192,128946,128,0,129058:0:0:0:0:
320,192,129058,1,0,0:0:0:0:
192,192,129170,1,0,0:0:0:0:
448,192,129170,128,0,129283:0:0:0:0:
192,192,129283,128,0,129395:0:0:0:0:
448,192,129395,1,0,0:0:0:0:
320,192,129508,1,0,0:0:0:0:
64,192,129508,128,0,129620:0:0:0:0:
320,192,129620,128,0,129732:0:0:0:0:
64,192,129732,1,0,0:0:0:0:
448,192,129845,1,0,0:0:0:0:
192,192,129845,128,0,129957:0:0:0:0:
448,192,129957,128,0,130069:0:0:0:0:
192,192,130069,1,0,0:0:0:0:
320,192,130182,128,0,130294:0:0:0:0:
64,192,130182,1,0,0:0:0:0:
64,192,130294,128,0,130406:0:0:0:0:
320,192,130406,128,0,130519:0:0:0:0:
64,192,130519,1,0,0:0:0:0:
448,192,130519,128,0,130631:0:0:0:0:
192,192,130631,128,0,130744:0:0:0:0:
320,192,130744,128,0,130856:0:0:0:0:
192,192,130856,1,0,0:0:0:0:
448,192,130856,128,0,130968:0:0:0:0:
192,192,130968,128,0,131081:0:0:0:0:
64,192,131081,128,0,131193:0:0:0:0:
448,192,131193,1,0,0:0:0:0:
320,192,131193,1,0,0:0:0:0:
320,192,131305,128,0,131418:0:0:0:0:
192,192,131418,128,0,131530:0:0:0:0:
64,192,131530,128,0,131642:0:0:0:0:
448,192,131530,1,0,0:0:0:0:
320,192,131642,128,0,131755:0:0:0:0:
448,192,131755,128,0,131867:0:0:0:0:
64,192,131867,128,0,131979:0:0:0:0:
192,192,131867,1,0,0:0:0:0:
320,192,131979,128,0,132092:0:0:0:0:
192,192,132092,128,0,132204:0:0:0:0:
448,192,132204,1,0,0:0:0:0:
64,192,132204,128,0,132317:0:0:0:0:
448,192,132317,128,0,132429:0:0:0:0:
192,192,132429,128,0,132541:0:0:0:0:
64,192,132541,1,0,0:0:0:0:
320,192,132541,128,0,132654:0:0:0:0:
64,192,132654,128,0,132766:0:0:0:0:
192,192,132766,128,0,132878:0:0:0:0:
320,192,132878,1,0,0:0:0:0:
448,192,132878,128,0,132991:0:0:0:0:
320,192,132991,128,0,133103:0:0:0:0:
192,192,133103,128,0,133215:0:0:0:0:
448,192,133215,1,0,0:0:0:0:
64,192,133215,128,0,133328:0:0:0:0:
448,192,133328,128,0,133440:0:0:0:0:
320,192,133440,128,0,133552:0:0:0:0:
64,192,133552,1,0,0:0:0:0:
192,192,133552,128,0,133665:0:0:0:0:
320,192,133665,128,0,133777:0:0:0:0:
64,192,133721,1,0,0:0:0:0:
448,192,133777,128,0,133890:0:0:0:0:
320,192,133890,1,0,0:0:0:0:
192,192,133890,128,0,134002:0:0:0:0:
64,192,134002,128,0,134114:0:0:0:0:
448,192,134058,1,0,0:0:0:0:
320,192,134114,128,0,134227:0:0:0:0:
64,192,134227,1,0,0:0:0:0:
192,192,134227,128,0,134339:0:0:0:0:
448,192,134227,1,0,0:0:0:0:
320,192,134339,128,0,134451:0:0:0:0:
192,192,134451,128,0,134564:0:0:0:0:
448,192,134564,128,0,134676:0:0:0:0:
64,192,134564,128,0,134676:0:0:0:0:
192,192,134676,128,0,134788:0:0:0:0:
320,192,134788,128,0,134901:0:0:0:0:
64,192,134901,1,0,0:0:0:0:
448,192,134901,128,0,135013:0:0:0:0:
192,192,135013,1,0,0:0:0:0:
192,192,135126,128,0,135238:0:0:0:0:
448,192,135238,1,0,0:0:0:0:
64,192,135238,128,0,135350:0:0:0:0:
320,192,135350,1,0,0:0:0:0:
320,192,135463,128,0,135575:0:0:0:0:
192,192,135575,1,0,0:0:0:0:
64,192,135575,1,0,0:0:0:0:
448,192,135575,1,0,0:0:0:0:
192,192,135687,128,0,135800:0:0:0:0:
64,192,135687,128,0,135800:0:0:0:0:
448,192,135800,1,0,0:0:0:0:
320,192,135800,1,0,0:0:0:0:
320,192,135912,128,0,136024:0:0:0:0:
448,192,135912,128,0,136024:0:0:0:0:
192,192,136024,128,0,136137:0:0:0:0:
320,192,136137,128,0,136249:0:0:0:0:
64,192,136249,1,0,0:0:0:0:
448,192,136249,128,0,136361:0:0:0:0:
192,192,136361,1,0,0:0:0:0:
192,192,136474,128,0,136586:0:0:0:0:
448,192,136586,1,0,0:0:0:0:
64,192,136586,128,0,136699:0:0:0:0:
320,192,136699,1,0,0:0:0:0:
320,192,136811,128,0,136923:0:0:0:0:
64,192,136923,1,0,0:0:0:0:
448,192,136923,1,0,0:0:0:0:
192,192,136923,128,0,137036:0:0:0:0:
320,192,137036,1,0,0:0:0:0:
192,192,137148,1,0,0:0:0:0:
64,192,137148,128,0,137260:0:0:0:0:
448,192,137260,1,0,0:0:0:0:
320,192,137260,128,0,137373:0:0:0:0:
192,192,137373,1,0,0:0:0:0:
320,192,137485,1,0,0:0:0:0:
448,192,137485,128,0,137597:0:0:0:0:
64,192,137597,1,0,0:0:0:0:
192,192,137597,128,0,137710:0:0:0:0:
320,192,137710,1,0,0:0:0:0:
192,192,137822,1,0,0:0:0:0:
64,192,137822,128,0,137935:0:0:0:0:
320,192,137935,1,0,0:0:0:0:
448,192,137935,1,0,0:0:0:0:
320,192,138047,1,0,0:0:0:0:
448,192,138047,128,0,138159:0:0:0:0:
192,192,138159,1,0,0:0:0:0:
64,192,138159,1,0,0:0:0:0:
192,192,138272,1,0,0:0:0:0:
64,192,138272,128,0,138384:0:0:0:0:
320,192,138384,1,0,0:0:0:0:
448,192,138384,1,0,0:0:0:0:
320,192,138496,1,0,0:0:0:0:
192,192,138496,1,0,0:0:0:0:
192,192,138609,1,0,0:0:0:0:
64,192,138609,1,0,0:0:0:0:
448,192,138721,1,0,0:0:0:0:
320,192,138721,1,0,0:0:0:0:
320,192,138833,1,0,0:0:0:0:
192,192,138833,1,0,0:0:0:0:
192,192,138946,1,0,0:0:0:0:
64,192,138946,1,0,0:0:0:0:
448,192,139030,1,0,0:0:0:0:
320,192,139030,1,0,0:0:0:0:
320,192,139114,1,0,0:0:0:0:
448,192,139114,1,0,0:0:0:0:
64,192,139199,1,0,0:0:0:0:
192,192,139199,1,0,0:0:0:0:
64,192,139283,1,0,0:0:0:0:
192,192,139283,1,0,0:0:0:0:
448,192,139367,1,0,0:0:0:0:
320,192,139367,1,0,0:0:0:0:
192,192,139451,1,0,0:0:0:0:
64,192,139451,1,0,0:0:0:0:
320,192,139536,1,0,0:0:0:0:
448,192,139536,1,0,0:0:0:0:
64,192,139620,1,0,0:0:0:0:
192,192,139676,1,0,0:0:0:0:
320,192,139732,1,0,0:0:0:0:
64,192,139788,1,0,0:0:0:0:
448,192,139788,1,0,0:0:0:0:
192,192,139845,1,0,0:0:0:0:
320,192,139901,1,0,0:0:0:0:
64,192,139957,1,0,0:0:0:0:
448,192,139957,1,0,0:0:0:0:
192,192,139957,1,0,0:0:0:0:
192,192,140294,1,0,0:0:0:0:
64,192,140294,1,0,0:0:0:0:
192,192,140631,1,0,0:0:0:0:
64,192,140631,1,0,0:0:0:0:
192,192,140968,1,0,0:0:0:0:
64,192,140968,1,0,0:0:0:0:
64,192,141136,1,0,0:0:0:0:
192,192,141136,1,0,0:0:0:0:
320,192,141221,1,0,0:0:0:0:
192,192,141305,1,0,0:0:0:0:
64,192,141305,1,0,0:0:0:0:
64,192,141642,1,0,0:0:0:0:
192,192,141642,1,0,0:0:0:0:
192,192,141979,1,0,0:0:0:0:
64,192,141979,1,0,0:0:0:0:
64,192,142316,1,0,0:0:0:0:
192,192,142316,1,0,0:0:0:0:
192,192,142485,1,0,0:0:0:0:
64,192,142485,1,0,0:0:0:0:
320,192,142569,1,0,0:0:0:0:
192,192,142653,1,0,0:0:0:0:
64,192,142653,1,0,0:0:0:0:
192,192,142990,1,0,0:0:0:0:
64,192,142990,1,0,0:0:0:0:
64,192,143327,1,0,0:0:0:0:
192,192,143327,1,0,0:0:0:0:
192,192,143664,1,0,0:0:0:0:
64,192,143664,1,0,0:0:0:0:
64,192,143833,1,0,0:0:0:0:
192,192,143833,1,0,0:0:0:0:
320,192,143917,1,0,0:0:0:0:
192,192,144001,1,0,0:0:0:0:
64,192,144001,128,0,144339:0:0:0:0:
448,192,144339,1,0,0:0:0:0:
320,192,144339,1,0,0:0:0:0:
192,192,144423,1,0,0:0:0:0:
448,192,144507,1,0,0:0:0:0:
320,192,144591,1,0,0:0:0:0:
192,192,144676,1,0,0:0:0:0:
64,192,144676,1,0,0:0:0:0:
64,192,144844,1,0,0:0:0:0:
448,192,144844,1,0,0:0:0:0:
192,192,145013,1,0,0:0:0:0:
320,192,145013,1,0,0:0:0:0:
192,192,145181,1,0,0:0:0:0:
64,192,145181,1,0,0:0:0:0:
320,192,145350,1,0,0:0:0:0:
448,192,145350,1,0,0:0:0:0:
448,192,145687,1,0,0:0:0:0:
320,192,145687,1,0,0:0:0:0:
448,192,146024,1,0,0:0:0:0:
320,192,146024,1,0,0:0:0:0:
448,192,146361,1,0,0:0:0:0:
320,192,146361,1,0,0:0:0:0:
448,192,146530,1,0,0:0:0:0:
320,192,146530,1,0,0:0:0:0:
192,192,146614,1,0,0:0:0:0:
320,192,146698,1,0,0:0:0:0:
448,192,146698,1,0,0:0:0:0:
448,192,147035,1,0,0:0:0:0:
320,192,147035,1,0,0:0:0:0:
320,192,147372,1,0,0:0:0:0:
448,192,147372,1,0,0:0:0:0:
320,192,147709,1,0,0:0:0:0:
448,192,147709,1,0,0:0:0:0:
448,192,147878,1,0,0:0:0:0:
320,192,147878,1,0,0:0:0:0:
192,192,147962,1,0,0:0:0:0:
320,192,148046,1,0,0:0:0:0:
448,192,148046,1,0,0:0:0:0:
320,192,148383,1,0,0:0:0:0:
448,192,148383,1,0,0:0:0:0:
448,192,148721,1,0,0:0:0:0:
320,192,148721,1,0,0:0:0:0:
448,192,149058,1,0,0:0:0:0:
320,192,149058,1,0,0:0:0:0:
320,192,149226,1,0,0:0:0:0:
448,192,149226,1,0,0:0:0:0:
192,192,149310,1,0,0:0:0:0:
320,192,149395,1,0,0:0:0:0:
448,192,149395,128,0,149732:0:0:0:0:
64,192,149732,1,0,0:0:0:0:
192,192,149732,1,0,0:0:0:0:
320,192,149816,1,0,0:0:0:0:
64,192,149900,1,0,0:0:0:0:
192,192,149985,1,0,0:0:0:0:
320,192,150069,1,0,0:0:0:0:
448,192,150069,1,0,0:0:0:0:
64,192,150153,1,0,0:0:0:0:
448,192,150237,1,0,0:0:0:0:
192,192,150237,1,0,0:0:0:0:
320,192,150322,1,0,0:0:0:0:
192,192,150406,1,0,0:0:0:0:
64,192,150406,1,0,0:0:0:0:
320,192,150490,1,0,0:0:0:0:
448,192,150574,1,0,0:0:0:0:
64,192,150574,1,0,0:0:0:0:
192,192,150659,1,0,0:0:0:0:
320,192,150743,1,0,0:0:0:0:
448,192,150743,1,0,0:0:0:0:
64,192,150743,1,0,0:0:0:0:
320,192,151080,1,0,0:0:0:0:
64,192,151080,1,0,0:0:0:0:
64,192,151417,1,0,0:0:0:0:
320,192,151417,1,0,0:0:0:0:
320,192,151754,1,0,0:0:0:0:
64,192,151754,1,0,0:0:0:0:
64,192,151923,1,0,0:0:0:0:
320,192,151923,1,0,0:0:0:0:
192,192,152007,1,0,0:0:0:0:
64,192,152091,1,0,0:0:0:0:
320,192,152091,1,0,0:0:0:0:
64,192,152428,1,0,0:0:0:0:
320,192,152428,1,0,0:0:0:0:
64,192,152765,1,0,0:0:0:0:
320,192,152765,1,0,0:0:0:0:
64,192,153103,1,0,0:0:0:0:
320,192,153103,1,0,0:0:0:0:
320,192,153271,1,0,0:0:0:0:
64,192,153271,1,0,0:0:0:0:
192,192,153355,1,0,0:0:0:0:
64,192,153440,1,0,0:0:0:0:
320,192,153440,1,0,0:0:0:0:
320,192,153777,1,0,0:0:0:0:
64,192,153777,1,0,0:0:0:0:
320,192,154114,1,0,0:0:0:0:
64,192,154114,1,0,0:0:0:0:
320,192,154451,1,0,0:0:0:0:
64,192,154451,1,0,0:0:0:0:
64,192,154619,1,0,0:0:0:0:
320,192,154619,1,0,0:0:0:0:
192,192,154704,1,0,0:0:0:0:
64,192,154788,1,0,0:0:0:0:
320,192,154788,128,0,155125:0:0:0:0:
192,192,155125,1,0,0:0:0:0:
448,192,155125,1,0,0:0:0:0:
64,192,155209,1,0,0:0:0:0:
320,192,155294,1,0,0:0:0:0:
192,192,155378,1,0,0:0:0:0:
448,192,155462,1,0,0:0:0:0:
320,192,155462,1,0,0:0:0:0:
192,192,155631,1,0,0:0:0:0:
64,192,155631,1,0,0:0:0:0:
448,192,155799,1,0,0:0:0:0:
64,192,155799,1,0,0:0:0:0:
320,192,155968,1,0,0:0:0:0:
192,192,155968,1,0,0:0:0:0:
192,192,156136,1,0,0:0:0:0:
448,192,156136,1,0,0:0:0:0:
64,192,156136,1,0,0:0:0:0:
448,192,156473,1,0,0:0:0:0:
192,192,156473,1,0,0:0:0:0:
192,192,156810,1,0,0:0:0:0:
448,192,156810,1,0,0:0:0:0:
448,192,157148,1,0,0:0:0:0:
192,192,157148,1,0,0:0:0:0:
192,192,157316,1,0,0:0:0:0:
448,192,157316,1,0,0:0:0:0:
320,192,157400,1,0,0:0:0:0:
448,192,157485,1,0,0:0:0:0:
192,192,157485,1,0,0:0:0:0:
64,192,157485,1,0,0:0:0:0:
448,192,157822,1,0,0:0:0:0:
192,192,157822,1,0,0:0:0:0:
192,192,158159,1,0,0:0:0:0:
448,192,158159,1,0,0:0:0:0:
448,192,158496,1,0,0:0:0:0:
192,192,158496,1,0,0:0:0:0:
192,192,158664,1,0,0:0:0:0:
448,192,158664,1,0,0:0:0:0:
320,192,158749,1,0,0:0:0:0:
448,192,158833,1,0,0:0:0:0:
192,192,158833,1,0,0:0:0:0:
64,192,158833,1,0,0:0:0:0:
192,192,159170,1,0,0:0:0:0:
448,192,159170,1,0,0:0:0:0:
448,192,159507,1,0,0:0:0:0:
192,192,159507,1,0,0:0:0:0:
192,192,159844,1,0,0:0:0:0:
448,192,159844,1,0,0:0:0:0:
448,192,160013,1,0,0:0:0:0:
192,192,160013,1,0,0:0:0:0:
320,192,160097,1,0,0:0:0:0:
192,192,160181,1,0,0:0:0:0:
448,192,160181,128,0,160518:0:0:0:0:
64,192,160518,1,0,0:0:0:0:
192,192,160518,1,0,0:0:0:0:
320,192,160603,1,0,0:0:0:0:
192,192,160687,1,0,0:0:0:0:
448,192,160771,1,0,0:0:0:0:
320,192,160855,1,0,0:0:0:0:
64,192,160855,1,0,0:0:0:0:
192,192,161024,1,0,0:0:0:0:
448,192,161024,1,0,0:0:0:0:
320,192,161192,1,0,0:0:0:0:
448,192,161192,1,0,0:0:0:0:
320,192,161361,1,0,0:0:0:0:
192,192,161361,1,0,0:0:0:0:
192,192,161530,1,0,0:0:0:0:
64,192,161530,128,0,163131:0:0:0:0:
448,192,162204,128,0,163131:0:0:0:0:
320,192,162541,128,0,163131:0:0:0:0:
192,192,162878,128,0,163131:0:0:0:0:
448,192,163215,1,0,0:0:0:0:
320,192,163215,1,0,0:0:0:0:
64,192,163215,1,0,0:0:0:0:
192,192,163299,1,0,0:0:0:0:
448,192,163383,1,0,0:0:0:0:
64,192,163383,1,0,0:0:0:0:
320,192,163467,1,0,0:0:0:0:
192,192,163552,1,0,0:0:0:0:
64,192,163552,1,0,0:0:0:0:
448,192,163608,1,0,0:0:0:0:
192,192,163664,1,0,0:0:0:0:
320,192,163720,1,0,0:0:0:0:
64,192,163804,1,0,0:0:0:0:
448,192,163889,1,0,0:0:0:0:
320,192,163889,1,0,0:0:0:0:
192,192,163973,1,0,0:0:0:0:
448,192,164057,1,0,0:0:0:0:
320,192,164141,1,0,0:0:0:0:
192,192,164226,1,0,0:0:0:0:
64,192,164226,1,0,0:0:0:0:
320,192,164310,1,0,0:0:0:0:
192,192,164394,1,0,0:0:0:0:
64,192,164479,1,0,0:0:0:0:
320,192,164563,1,0,0:0:0:0:
448,192,164563,1,0,0:0:0:0:
192,192,164647,1,0,0:0:0:0:
448,192,164731,1,0,0:0:0:0:
320,192,164816,1,0,0:0:0:0:
192,192,164900,1,0,0:0:0:0:
64,192,164900,1,0,0:0:0:0:
320,192,164984,1,0,0:0:0:0:
64,192,165068,1,0,0:0:0:0:
192,192,165153,1,0,0:0:0:0:
320,192,165237,1,0,0:0:0:0:
448,192,165237,1,0,0:0:0:0:
192,192,165321,1,0,0:0:0:0:
448,192,165406,1,0,0:0:0:0:
320,192,165490,1,0,0:0:0:0:
192,192,165574,1,0,0:0:0:0:
64,192,165574,1,0,0:0:0:0:
320,192,165658,1,0,0:0:0:0:
64,192,165743,1,0,0:0:0:0:
192,192,165827,1,0,0:0:0:0:
320,192,165911,1,0,0:0:0:0:
448,192,165911,1,0,0:0:0:0:
192,192,165995,1,0,0:0:0:0:
448,192,166080,1,0,0:0:0:0:
320,192,166164,1,0,0:0:0:0:
192,192,166248,1,0,0:0:0:0:
64,192,166248,1,0,0:0:0:0:
320,192,166332,1,0,0:0:0:0:
64,192,166417,1,0,0:0:0:0:
192,192,166501,1,0,0:0:0:0:
320,192,166585,1,0,0:0:0:0:
448,192,166585,1,0,0:0:0:0:
192,192,166670,1,0,0:0:0:0:
320,192,166754,1,0,0:0:0:0:
448,192,166838,1,0,0:0:0:0:
192,192,166922,1,0,0:0:0:0:
64,192,166922,1,0,0:0:0:0:
320,192,167007,1,0,0:0:0:0:
192,192,167091,1,0,0:0:0:0:
64,192,167175,1,0,0:0:0:0:
320,192,167259,1,0,0:0:0:0:
448,192,167259,1,0,0:0:0:0:
192,192,167344,1,0,0:0:0:0:
448,192,167428,128,0,167765:0:0:0:0:
320,192,167597,1,0,0:0:0:0:
64,192,167597,1,0,0:0:0:0:
192,192,167765,1,0,0:0:0:0:
64,192,167849,1,0,0:0:0:0:
320,192,167934,1,0,0:0:0:0:
448,192,167934,1,0,0:0:0:0:
192,192,168018,1,0,0:0:0:0:
64,192,168102,1,0,0:0:0:0:
448,192,168102,1,0,0:0:0:0:
320,192,168186,1,0,0:0:0:0:
192,192,168271,1,0,0:0:0:0:
64,192,168271,1,0,0:0:0:0:
320,192,168355,1,0,0:0:0:0:
448,192,168439,1,0,0:0:0:0:
192,192,168439,1,0,0:0:0:0:
64,192,168523,1,0,0:0:0:0:
320,192,168608,1,0,0:0:0:0:
448,192,168608,1,0,0:0:0:0:
64,192,168692,1,0,0:0:0:0:
320,192,168734,1,0,0:0:0:0:
192,192,168776,1,0,0:0:0:0:
448,192,168861,1,0,0:0:0:0:
192,192,168945,1,0,0:0:0:0:
64,192,168945,1,0,0:0:0:0:
448,192,169029,1,0,0:0:0:0:
192,192,169071,1,0,0:0:0:0:
320,192,169113,1,0,0:0:0:0:
64,192,169198,1,0,0:0:0:0:
448,192,169282,1,0,0:0:0:0:
320,192,169282,1,0,0:0:0:0:
64,192,169366,1,0,0:0:0:0:
320,192,169408,1,0,0:0:0:0:
192,192,169450,1,0,0:0:0:0:
448,192,169535,1,0,0:0:0:0:
64,192,169619,1,0,0:0:0:0:
192,192,169619,1,0,0:0:0:0:
448,192,169703,1,0,0:0:0:0:
192,192,169745,1,0,0:0:0:0:
320,192,169788,1,0,0:0:0:0:
64,192,169872,1,0,0:0:0:0:
320,192,169956,1,0,0:0:0:0:
448,192,169956,1,0,0:0:0:0:
192,192,170040,1,0,0:0:0:0:
448,192,170125,1,0,0:0:0:0:
320,192,170209,1,0,0:0:0:0:
448,192,170293,1,0,0:0:0:0:
64,192,170293,1,0,0:0:0:0:
192,192,170377,1,0,0:0:0:0:
64,192,170462,1,0,0:0:0:0:
320,192,170546,1,0,0:0:0:0:
192,192,170630,1,0,0:0:0:0:
64,192,170630,1,0,0:0:0:0:
320,192,170799,1,0,0:0:0:0:
448,192,170799,1,0,0:0:0:0:
448,192,170967,1,0,0:0:0:0:
64,192,170967,1,0,0:0:0:0:
192,192,171136,1,0,0:0:0:0:
64,192,171136,1,0,0:0:0:0:
192,192,171220,1,0,0:0:0:0:
64,192,171220,1,0,0:0:0:0:
320,192,171304,1,0,0:0:0:0:
448,192,171304,1,0,0:0:0:0:
192,192,171389,1,0,0:0:0:0:
320,192,171473,1,0,0:0:0:0:
448,192,171557,1,0,0:0:0:0:
64,192,171641,1,0,0:0:0:0:
192,192,171641,1,0,0:0:0:0:
320,192,171726,1,0,0:0:0:0:
64,192,171810,1,0,0:0:0:0:
192,192,171894,1,0,0:0:0:0:
64,192,171979,1,0,0:0:0:0:
448,192,171979,1,0,0:0:0:0:
320,192,172063,1,0,0:0:0:0:
192,192,172147,1,0,0:0:0:0:
320,192,172231,1,0,0:0:0:0:
448,192,172316,1,0,0:0:0:0:
64,192,172316,1,0,0:0:0:0:
192,192,172400,1,0,0:0:0:0:
320,192,172484,1,0,0:0:0:0:
192,192,172568,1,0,0:0:0:0:
64,192,172653,1,0,0:0:0:0:
448,192,172653,1,0,0:0:0:0:
320,192,172737,1,0,0:0:0:0:
192,192,172821,1,0,0:0:0:0:
448,192,172821,1,0,0:0:0:0:
64,192,172906,1,0,0:0:0:0:
192,192,172990,1,0,0:0:0:0:
320,192,172990,1,0,0:0:0:0:
448,192,173074,1,0,0:0:0:0:
320,192,173158,1,0,0:0:0:0:
64,192,173158,1,0,0:0:0:0:
192,192,173243,1,0,0:0:0:0:
64,192,173327,1,0,0:0:0:0:
320,192,173411,1,0,0:0:0:0:
448,192,173411,1,0,0:0:0:0:
192,192,173495,1,0,0:0:0:0:
448,192,173580,1,0,0:0:0:0:
320,192,173664,1,0,0:0:0:0:
64,192,173664,1,0,0:0:0:0:
192,192,173748,1,0,0:0:0:0:
448,192,173832,1,0,0:0:0:0:
64,192,173832,1,0,0:0:0:0:
320,192,173917,1,0,0:0:0:0:
192,192,174001,1,0,0:0:0:0:
448,192,174001,1,0,0:0:0:0:
64,192,174001,1,0,0:0:0:0:
320,192,174085,1,0,0:0:0:0:
192,192,174170,1,0,0:0:0:0:
320,192,174254,1,0,0:0:0:0:
448,192,174338,1,0,0:0:0:0:
64,192,174338,1,0,0:0:0:0:
192,192,174422,1,0,0:0:0:0:
320,192,174507,1,0,0:0:0:0:
192,192,174591,1,0,0:0:0:0:
64,192,174675,1,0,0:0:0:0:
448,192,174675,1,0,0:0:0:0:
320,192,174759,1,0,0:0:0:0:
192,192,174844,1,0,0:0:0:0:
64,192,174928,1,0,0:0:0:0:
192,192,175012,1,0,0:0:0:0:
320,192,175012,1,0,0:0:0:0:
448,192,175097,1,0,0:0:0:0:
320,192,175181,1,0,0:0:0:0:
192,192,175265,1,0,0:0:0:0:
64,192,175349,1,0,0:0:0:0:
448,192,175349,1,0,0:0:0:0:
320,192,175518,1,0,0:0:0:0:
448,192,175518,1,0,0:0:0:0:
320,192,175686,1,0,0:0:0:0:
192,192,175686,1,0,0:0:0:0:
192,192,175855,1,0,0:0:0:0:
64,192,175855,1,0,0:0:0:0:
448,192,176023,1,0,0:0:0:0:
64,192,176023,1,0,0:0:0:0:
320,192,176192,1,0,0:0:0:0:
448,192,176192,1,0,0:0:0:0:
320,192,176361,1,0,0:0:0:0:
192,192,176361,1,0,0:0:0:0:
192,192,176529,1,0,0:0:0:0:
64,192,176529,1,0,0:0:0:0:
64,192,176698,1,0,0:0:0:0:
448,192,176698,1,0,0:0:0:0:
320,192,176782,1,0,0:0:0:0:
192,192,176866,1,0,0:0:0:0:
320,192,176950,1,0,0:0:0:0:
448,192,177035,1,0,0:0:0:0:
64,192,177035,1,0,0:0:0:0:
192,192,177119,1,0,0:0:0:0:
320,192,177203,1,0,0:0:0:0:
192,192,177288,1,0,0:0:0:0:
64,192,177372,1,0,0:0:0:0:
448,192,177372,1,0,0:0:0:0:
320,192,177456,1,0,0:0:0:0:
192,192,177540,1,0,0:0:0:0:
64,192,177625,1,0,0:0:0:0:
192,192,177709,1,0,0:0:0:0:
320,192,177709,1,0,0:0:0:0:
448,192,177793,1,0,0:0:0:0:
320,192,177877,1,0,0:0:0:0:
192,192,177962,1,0,0:0:0:0:
64,192,178046,1,0,0:0:0:0:
448,192,178046,1,0,0:0:0:0:
320,192,178130,1,0,0:0:0:0:
64,192,178215,1,0,0:0:0:0:
320,192,178299,1,0,0:0:0:0:
192,192,178383,1,0,0:0:0:0:
64,192,178383,1,0,0:0:0:0:
448,192,178467,1,0,0:0:0:0:
192,192,178552,1,0,0:0:0:0:
448,192,178636,1,0,0:0:0:0:
192,192,178720,1,0,0:0:0:0:
64,192,178720,1,0,0:0:0:0:
320,192,178804,1,0,0:0:0:0:
448,192,178889,1,0,0:0:0:0:
64,192,178889,1,0,0:0:0:0:
192,192,178973,1,0,0:0:0:0:
320,192,179057,1,0,0:0:0:0:
448,192,179057,1,0,0:0:0:0:
64,192,179141,1,0,0:0:0:0:
192,192,179226,1,0,0:0:0:0:
448,192,179226,1,0,0:0:0:0:
320,192,179310,1,0,0:0:0:0:
192,192,179394,1,0,0:0:0:0:
64,192,179394,1,0,0:0:0:0:
448,192,179394,1,0,0:0:0:0:
320,192,179479,1,0,0:0:0:0:
64,192,179521,1,0,0:0:0:0:
192,192,179563,1,0,0:0:0:0:
320,192,179731,1,0,0:0:0:0:
448,192,179731,1,0,0:0:0:0:
192,192,179816,1,0,0:0:0:0:
448,192,179858,1,0,0:0:0:0:
320,192,179900,1,0,0:0:0:0:
192,192,180068,1,0,0:0:0:0:
64,192,180068,1,0,0:0:0:0:
320,192,180153,1,0,0:0:0:0:
64,192,180195,1,0,0:0:0:0:
192,192,180237,1,0,0:0:0:0:
448,192,180406,1,0,0:0:0:0:
320,192,180406,1,0,0:0:0:0:
192,192,180490,1,0,0:0:0:0:
448,192,180532,1,0,0:0:0:0:
320,192,180574,1,0,0:0:0:0:
192,192,180743,1,0,0:0:0:0:
64,192,180743,1,0,0:0:0:0:
448,192,180743,1,0,0:0:0:0:
320,192,180827,1,0,0:0:0:0:
192,192,180869,1,0,0:0:0:0:
64,192,180911,1,0,0:0:0:0:
320,192,181080,1,0,0:0:0:0:
448,192,181080,1,0,0:0:0:0:
192,192,181164,1,0,0:0:0:0:
320,192,181206,1,0,0:0:0:0:
448,192,181248,1,0,0:0:0:0:
192,192,181417,1,0,0:0:0:0:
64,192,181417,1,0,0:0:0:0:
320,192,181501,1,0,0:0:0:0:
192,192,181543,1,0,0:0:0:0:
64,192,181585,1,0,0:0:0:0:
448,192,181754,1,0,0:0:0:0:
320,192,181754,1,0,0:0:0:0:
192,192,181838,1,0,0:0:0:0:
320,192,181880,1,0,0:0:0:0:
448,192,181922,1,0,0:0:0:0:
320,192,182091,1,0,0:0:0:0:
192,192,182091,1,0,0:0:0:0:
64,192,182091,1,0,0:0:0:0:
448,192,182175,1,0,0:0:0:0:
192,192,182259,1,0,0:0:0:0:
448,192,182344,1,0,0:0:0:0:
192,192,182428,1,0,0:0:0:0:
64,192,182428,1,0,0:0:0:0:
320,192,182512,1,0,0:0:0:0:
64,192,182597,1,0,0:0:0:0:
320,192,182681,1,0,0:0:0:0:
64,192,182765,1,0,0:0:0:0:
448,192,182765,1,0,0:0:0:0:
192,192,182849,1,0,0:0:0:0:
448,192,182934,1,0,0:0:0:0:
192,192,183018,1,0,0:0:0:0:
448,192,183102,1,0,0:0:0:0:
320,192,183102,1,0,0:0:0:0:
64,192,183186,1,0,0:0:0:0:
320,192,183271,1,0,0:0:0:0:
64,192,183355,1,0,0:0:0:0:
448,192,183439,1,0,0:0:0:0:
320,192,183439,1,0,0:0:0:0:
192,192,183523,1,0,0:0:0:0:
64,192,183608,1,0,0:0:0:0:
448,192,183608,1,0,0:0:0:0:
320,192,183692,1,0,0:0:0:0:
192,192,183776,1,0,0:0:0:0:
64,192,183776,1,0,0:0:0:0:
448,192,183861,1,0,0:0:0:0:
320,192,183945,1,0,0:0:0:0:
192,192,183945,1,0,0:0:0:0:
64,192,184029,1,0,0:0:0:0:
320,192,184113,1,0,0:0:0:0:
448,192,184113,1,0,0:0:0:0:
192,192,184198,1,0,0:0:0:0:
64,192,184198,1,0,0:0:0:0:
448,192,184282,1,0,0:0:0:0:
320,192,184282,1,0,0:0:0:0:
192,192,184366,1,0,0:0:0:0:
64,192,184450,1,0,0:0:0:0:
448,192,184450,1,0,0:0:0:0:
320,192,184535,1,0,0:0:0:0:
192,192,184535,1,0,0:0:0:0:
64,192,184619,1,0,0:0:0:0:
448,192,184619,1,0,0:0:0:0:
320,192,184703,1,0,0:0:0:0:
192,192,184788,1,0,0:0:0:0:
448,192,184788,1,0,0:0:0:0:
64,192,184788,128,0,185799:0:0:0:0:
320,192,184956,1,0,0:0:0:0:
192,192,185125,1,0,0:0:0:0:
448,192,185125,1,0,0:0:0:0:
320,192,185293,1,0,0:0:0:0:
448,192,185462,1,0,0:0:0:0:
192,192,185630,1,0,0:0:0:0:
320,192,185799,128,0,186136:0:0:0:0:
448,192,185799,1,0,0:0:0:0:
64,192,185967,1,0,0:0:0:0:
192,192,186136,128,0,187147:0:0:0:0:
448,192,186136,1,0,0:0:0:0:
320,192,186304,1,0,0:0:0:0:
448,192,186473,1,0,0:0:0:0:
64,192,186473,1,0,0:0:0:0:
320,192,186641,1,0,0:0:0:0:
64,192,186810,1,0,0:0:0:0:
320,192,186979,1,0,0:0:0:0:
448,192,187147,128,0,187484:0:0:0:0:
64,192,187147,1,0,0:0:0:0:
192,192,187316,1,0,0:0:0:0:
320,192,187484,128,0,188495:0:0:0:0:
64,192,187484,1,0,0:0:0:0:
192,192,187653,1,0,0:0:0:0:
448,192,187821,1,0,0:0:0:0:
64,192,187821,1,0,0:0:0:0:
192,192,187990,1,0,0:0:0:0:
64,192,188158,1,0,0:0:0:0:
448,192,188327,1,0,0:0:0:0:
192,192,188495,128,0,188832:0:0:0:0:
64,192,188495,1,0,0:0:0:0:
320,192,188664,1,0,0:0:0:0:
64,192,188832,128,0,189844:0:0:0:0:
448,192,188832,1,0,0:0:0:0:
448,192,189001,1,0,0:0:0:0:
192,192,189170,1,0,0:0:0:0:
320,192,189170,1,0,0:0:0:0:
192,192,189338,1,0,0:0:0:0:
448,192,189507,1,0,0:0:0:0:
192,192,189675,1,0,0:0:0:0:
320,192,189844,128,0,190181:0:0:0:0:
448,192,189844,1,0,0:0:0:0:
192,192,190012,1,0,0:0:0:0:
448,192,190181,128,0,191192:0:0:0:0:
64,192,190181,1,0,0:0:0:0:
192,192,190349,1,0,0:0:0:0:
320,192,190518,1,0,0:0:0:0:
64,192,190518,1,0,0:0:0:0:
192,192,190686,1,0,0:0:0:0:
320,192,190855,1,0,0:0:0:0:
64,192,191023,1,0,0:0:0:0:
192,192,191192,128,0,191529:0:0:0:0:
320,192,191192,1,0,0:0:0:0:
448,192,191361,1,0,0:0:0:0:
320,192,191529,128,0,192540:0:0:0:0:
64,192,191529,1,0,0:0:0:0:
192,192,191698,1,0,0:0:0:0:
448,192,191866,1,0,0:0:0:0:
64,192,191866,1,0,0:0:0:0:
192,192,192035,1,0,0:0:0:0:
64,192,192203,1,0,0:0:0:0:
448,192,192372,1,0,0:0:0:0:
64,192,192540,128,0,192877:0:0:0:0:
192,192,192540,1,0,0:0:0:0:
320,192,192709,1,0,0:0:0:0:
192,192,192877,128,0,193720:0:0:0:0:
448,192,192877,1,0,0:0:0:0:
320,192,193046,1,0,0:0:0:0:
448,192,193214,1,0,0:0:0:0:
64,192,193214,1,0,0:0:0:0:
320,192,193383,1,0,0:0:0:0:
64,192,193552,1,0,0:0:0:0:
448,192,193720,1,0,0:0:0:0:
192,192,193889,128,0,194226:0:0:0:0:
320,192,193889,1,0,0:0:0:0:
448,192,194057,1,0,0:0:0:0:
320,192,194226,1,0,0:0:0:0:
64,192,194226,1,0,0:0:0:0:
448,192,194310,1,0,0:0:0:0:
192,192,194394,1,0,0:0:0:0:
64,192,194394,1,0,0:0:0:0:
320,192,194479,1,0,0:0:0:0:
448,192,194563,1,0,0:0:0:0:
192,192,194563,1,0,0:0:0:0:
64,192,194647,1,0,0:0:0:0:
320,192,194731,1,0,0:0:0:0:
448,192,194731,1,0,0:0:0:0:
192,192,194816,1,0,0:0:0:0:
64,192,194900,1,0,0:0:0:0:
448,192,194984,1,0,0:0:0:0:
320,192,194984,1,0,0:0:0:0:
192,192,195068,1,0,0:0:0:0:
64,192,195068,1,0,0:0:0:0:
320,192,195153,1,0,0:0:0:0:
448,192,195237,1,0,0:0:0:0:
64,192,195237,1,0,0:0:0:0:
192,192,195321,1,0,0:0:0:0:
320,192,195406,1,0,0:0:0:0:
448,192,195406,1,0,0:0:0:0:
192,192,195490,1,0,0:0:0:0:
320,192,195574,1,0,0:0:0:0:
448,192,195574,1,0,0:0:0:0:
64,192,195574,128,0,196585:0:0:0:0:
192,192,195743,1,0,0:0:0:0:
320,192,195911,1,0,0:0:0:0:
448,192,195911,1,0,0:0:0:0:
448,192,196080,1,0,0:0:0:0:
192,192,196248,1,0,0:0:0:0:
320,192,196248,1,0,0:0:0:0:
448,192,196417,1,0,0:0:0:0:
320,192,196585,128,0,196922:0:0:0:0:
192,192,196585,1,0,0:0:0:0:
192,192,196754,1,0,0:0:0:0:
64,192,196922,128,0,197934:0:0:0:0:
448,192,196922,1,0,0:0:0:0:
448,192,197091,1,0,0:0:0:0:
320,192,197259,1,0,0:0:0:0:
192,192,197259,1,0,0:0:0:0:
320,192,197428,1,0,0:0:0:0:
192,192,197597,1,0,0:0:0:0:
448,192,197597,1,0,0:0:0:0:
448,192,197765,1,0,0:0:0:0:
192,192,197934,128,0,198271:0:0:0:0:
320,192,197934,1,0,0:0:0:0:
320,192,198102,1,0,0:0:0:0:
448,192,198271,128,0,199282:0:0:0:0:
64,192,198271,1,0,0:0:0:0:
192,192,198439,1,0,0:0:0:0:
320,192,198608,1,0,0:0:0:0:
64,192,198608,1,0,0:0:0:0:
64,192,198776,1,0,0:0:0:0:
192,192,198945,1,0,0:0:0:0:
320,192,198945,1,0,0:0:0:0:
64,192,199113,1,0,0:0:0:0:
320,192,199282,128,0,199619:0:0:0:0:
192,192,199282,1,0,0:0:0:0:
192,192,199450,1,0,0:0:0:0:
448,192,199619,128,0,200630:0:0:0:0:
64,192,199619,1,0,0:0:0:0:
64,192,199788,1,0,0:0:0:0:
192,192,199956,1,0,0:0:0:0:
320,192,199956,1,0,0:0:0:0:
192,192,200125,1,0,0:0:0:0:
320,192,200293,1,0,0:0:0:0:
64,192,200293,1,0,0:0:0:0:
320,192,200462,1,0,0:0:0:0:
192,192,200462,1,0,0:0:0:0:
64,192,200630,1,0,0:0:0:0:
192,192,200630,1,0,0:0:0:0:
448,192,200799,1,0,0:0:0:0:
320,192,200799,1,0,0:0:0:0:
192,192,200883,1,0,0:0:0:0:
320,192,200967,1,0,0:0:0:0:
448,192,200967,1,0,0:0:0:0:
64,192,200967,128,0,201979:0:0:0:0:
192,192,201136,1,0,0:0:0:0:
320,192,201304,1,0,0:0:0:0:
448,192,201304,1,0,0:0:0:0:
320,192,201473,1,0,0:0:0:0:
448,192,201641,1,0,0:0:0:0:
192,192,201641,1,0,0:0:0:0:
320,192,201810,1,0,0:0:0:0:
192,192,201979,128,0,202316:0:0:0:0:
448,192,201979,1,0,0:0:0:0:
320,192,202147,1,0,0:0:0:0:
64,192,202316,128,0,202653:0:0:0:0:
320,192,202316,1,0,0:0:0:0:
448,192,202316,1,0,0:0:0:0:
192,192,202484,1,0,0:0:0:0:
320,192,202653,1,0,0:0:0:0:
448,192,202653,1,0,0:0:0:0:
64,192,202821,128,0,203327:0:0:0:0:
448,192,202821,1,0,0:0:0:0:
320,192,202906,1,0,0:0:0:0:
192,192,202990,1,0,0:0:0:0:
448,192,202990,1,0,0:0:0:0:
320,192,203074,1,0,0:0:0:0:
192,192,203158,1,0,0:0:0:0:
320,192,203327,128,0,203664:0:0:0:0:
448,192,203327,1,0,0:0:0:0:
192,192,203495,1,0,0:0:0:0:
448,192,203664,128,0,205012:0:0:0:0:
64,192,203664,1,0,0:0:0:0:
192,192,203664,1,0,0:0:0:0:
320,192,203832,1,0,0:0:0:0:
64,192,204001,1,0,0:0:0:0:
192,192,204001,1,0,0:0:0:0:
64,192,204170,1,0,0:0:0:0:
192,192,204254,1,0,0:0:0:0:
64,192,204338,1,0,0:0:0:0:
320,192,204338,1,0,0:0:0:0:
192,192,204422,1,0,0:0:0:0:
320,192,204507,1,0,0:0:0:0:
192,192,204675,1,0,0:0:0:0:
64,192,204675,1,0,0:0:0:0:
192,192,204844,1,0,0:0:0:0:
320,192,205012,1,0,0:0:0:0:
64,192,205012,1,0,0:0:0:0:
192,192,205097,1,0,0:0:0:0:
64,192,205181,1,0,0:0:0:0:
448,192,205181,1,0,0:0:0:0:
320,192,205265,1,0,0:0:0:0:
192,192,205349,1,0,0:0:0:0:
448,192,205349,1,0,0:0:0:0:
64,192,205434,1,0,0:0:0:0:
192,192,205518,1,0,0:0:0:0:
320,192,205518,1,0,0:0:0:0:
448,192,205602,1,0,0:0:0:0:
320,192,205686,1,0,0:0:0:0:
64,192,205686,1,0,0:0:0:0:
192,192,205771,1,0,0:0:0:0:
64,192,205855,1,0,0:0:0:0:
448,192,205855,1,0,0:0:0:0:
320,192,205939,1,0,0:0:0:0:
448,192,206023,1,0,0:0:0:0:
192,192,206023,1,0,0:0:0:0:
64,192,206108,1,0,0:0:0:0:
192,192,206192,1,0,0:0:0:0:
320,192,206192,1,0,0:0:0:0:
448,192,206276,1,0,0:0:0:0:
64,192,206361,1,0,0:0:0:0:
320,192,206361,1,0,0:0:0:0:
192,192,206361,128,0,209057:0:0:0:0:
64,192,210743,1,0,0:0:0:0:
448,192,210743,1,0,0:0:0:0:
192,192,210743,1,0,0:0:0:0:
448,192,210911,1,0,0:0:0:0:
192,192,211080,1,0,0:0:0:0:
320,192,211248,1,0,0:0:0:0:
64,192,211417,1,0,0:0:0:0:
64,192,211585,1,0,0:0:0:0:
192,192,211754,1,0,0:0:0:0:
320,192,211922,1,0,0:0:0:0:
320,192,212259,1,0,0:0:0:0:
192,192,212428,1,0,0:0:0:0:
320,192,212596,1,0,0:0:0:0:
320,192,212765,1,0,0:0:0:0:
192,192,212934,1,0,0:0:0:0:
64,192,213102,1,0,0:0:0:0:
448,192,213439,1,0,0:0:0:0:
320,192,213608,1,0,0:0:0:0:
192,192,213776,1,0,0:0:0:0:
192,192,213945,1,0,0:0:0:0:
320,192,214113,1,0,0:0:0:0:
64,192,214282,1,0,0:0:0:0:
448,192,214450,1,0,0:0:0:0:
192,192,214619,1,0,0:0:0:0:
320,192,214787,1,0,0:0:0:0:
192,192,214956,1,0,0:0:0:0:
64,192,215125,1,0,0:0:0:0:
64,192,215293,1,0,0:0:0:0:
448,192,215462,1,0,0:0:0:0:
320,192,215630,1,0,0:0:0:0:
192,192,215799,1,0,0:0:0:0:
192,192,215967,1,0,0:0:0:0:
320,192,216136,1,0,0:0:0:0:
192,192,216304,1,0,0:0:0:0:
64,192,216473,1,0,0:0:0:0:
64,192,216641,1,0,0:0:0:0:
320,192,216810,1,0,0:0:0:0:
192,192,216978,1,0,0:0:0:0:
448,192,217147,1,0,0:0:0:0:
320,192,217316,1,0,0:0:0:0:
320,192,217653,1,0,0:0:0:0:
192,192,217821,1,0,0:0:0:0:
320,192,217990,1,0,0:0:0:0:
320,192,218158,1,0,0:0:0:0:
192,192,218327,1,0,0:0:0:0:
64,192,218495,1,0,0:0:0:0:
320,192,218832,1,0,0:0:0:0:
192,192,219001,1,0,0:0:0:0:
320,192,219169,1,0,0:0:0:0:
320,192,219338,1,0,0:0:0:0:
192,192,219507,1,0,0:0:0:0:
320,192,219675,1,0,0:0:0:0:
64,192,219844,1,0,0:0:0:0:
448,192,220012,1,0,0:0:0:0:
192,192,220181,1,0,0:0:0:0:
320,192,220349,1,0,0:0:0:0:
448,192,220518,1,0,0:0:0:0:
448,192,220686,1,0,0:0:0:0:
64,192,220855,1,0,0:0:0:0:
192,192,221023,1,0,0:0:0:0:
320,192,221192,1,0,0:0:0:0:
320,192,221360,1,0,0:0:0:0:
192,192,221529,1,0,0:0:0:0:
64,192,221529,1,0,0:0:0:0:
448,192,221529,1,0,0:0:0:0:
448,192,221698,1,0,0:0:0:0:
192,192,221866,1,0,0:0:0:0:
320,192,222035,1,0,0:0:0:0:
64,192,222203,1,0,0:0:0:0:
64,192,222372,1,0,0:0:0:0:
192,192,222540,1,0,0:0:0:0:
320,192,222709,1,0,0:0:0:0:
320,192,223046,1,0,0:0:0:0:
192,192,223214,1,0,0:0:0:0:
320,192,223383,1,0,0:0:0:0:
320,192,223551,1,0,0:0:0:0:
192,192,223720,1,0,0:0:0:0:
64,192,223889,1,0,0:0:0:0:
448,192,224226,1,0,0:0:0:0:
320,192,224394,1,0,0:0:0:0:
192,192,224563,1,0,0:0:0:0:
192,192,224731,1,0,0:0:0:0:
320,192,224900,1,0,0:0:0:0:
64,192,225068,1,0,0:0:0:0:
448,192,225237,1,0,0:0:0:0:
192,192,225405,1,0,0:0:0:0:
320,192,225574,1,0,0:0:0:0:
192,192,225743,1,0,0:0:0:0:
64,192,225911,1,0,0:0:0:0:
64,192,226080,1,0,0:0:0:0:
448,192,226248,1,0,0:0:0:0:
320,192,226417,1,0,0:0:0:0:
192,192,226585,1,0,0:0:0:0:
192,192,226754,1,0,0:0:0:0:
320,192,226922,1,0,0:0:0:0:
64,192,226922,1,0,0:0:0:0:
448,192,226922,1,0,0:0:0:0:
192,192,227091,1,0,0:0:0:0:
64,192,227259,1,0,0:0:0:0:
64,192,227428,1,0,0:0:0:0:
320,192,227596,1,0,0:0:0:0:
192,192,227765,1,0,0:0:0:0:
448,192,227934,1,0,0:0:0:0:
320,192,228102,1,0,0:0:0:0:
64,192,228271,1,0,0:0:0:0:
192,192,228271,1,0,0:0:0:0:
448,192,228271,1,0,0:0:0:0:
320,192,228439,1,0,0:0:0:0:
192,192,228608,1,0,0:0:0:0:
320,192,228776,1,0,0:0:0:0:
320,192,228945,1,0,0:0:0:0:
192,192,229113,1,0,0:0:0:0:
64,192,229282,1,0,0:0:0:0:
320,192,229619,1,0,0:0:0:0:
448,192,229619,1,0,0:0:0:0:
64,192,229619,1,0,0:0:0:0:
192,192,229787,1,0,0:0:0:0:
320,192,229956,1,0,0:0:0:0:
320,192,230125,1,0,0:0:0:0:
192,192,230293,1,0,0:0:0:0:
320,192,230462,1,0,0:0:0:0:
64,192,230630,1,0,0:0:0:0:
448,192,230799,1,0,0:0:0:0:
192,192,230967,1,0,0:0:0:0:
320,192,231136,1,0,0:0:0:0:
448,192,231304,1,0,0:0:0:0:
448,192,231473,1,0,0:0:0:0:
64,192,231641,1,0,0:0:0:0:
192,192,231810,1,0,0:0:0:0:
320,192,231978,1,0,0:0:0:0:
320,192,232147,1,0,0:0:0:0:
64,192,232316,1,0,0:0:0:0:
192,192,232316,128,0,232484:0:0:0:0:
448,192,232316,128,0,232484:0:0:0:0:
320,192,232484,128,0,232653:0:0:0:0:
448,192,232653,128,0,232821:0:0:0:0:
64,192,232653,128,0,232821:0:0:0:0:
192,192,232821,128,0,232990:0:0:0:0:
64,192,232990,128,0,233158:0:0:0:0:
448,192,232990,128,0,233158:0:0:0:0:
320,192,233158,128,0,233327:0:0:0:0:
64,192,233327,128,0,233495:0:0:0:0:
192,192,233327,128,0,233664:0:0:0:0:
320,192,233495,128,0,233664:0:0:0:0:
448,192,233664,1,0,0:0:0:0:
320,192,233832,128,0,234001:0:0:0:0:
64,192,234001,128,0,234169:0:0:0:0:
448,192,234001,128,0,234169:0:0:0:0:
192,192,234169,128,0,234338:0:0:0:0:
320,192,234338,128,0,234507:0:0:0:0:
448,192,234338,128,0,234507:0:0:0:0:
192,192,234507,128,0,234675:0:0:0:0:
64,192,234675,128,0,234844:0:0:0:0:
448,192,234675,128,0,234844:0:0:0:0:
320,192,235012,128,0,235181:0:0:0:0:
192,192,235012,128,0,235181:0:0:0:0:
64,192,235181,128,0,235349:0:0:0:0:
320,192,235349,128,0,235518:0:0:0:0:
448,192,235349,128,0,235518:0:0:0:0:
192,192,235518,128,0,235686:0:0:0:0:
64,192,235686,128,0,235855:0:0:0:0:
448,192,235686,128,0,235855:0:0:0:0:
320,192,235855,128,0,236023:0:0:0:0:
192,192,236023,128,0,236192:0:0:0:0:
64,192,236023,128,0,236192:0:0:0:0:
448,192,236192,128,0,236360:0:0:0:0:
320,192,236360,128,0,236529:0:0:0:0:
192,192,236360,128,0,236529:0:0:0:0:
448,192,236529,128,0,236698:0:0:0:0:
192,192,236698,128,0,236866:0:0:0:0:
64,192,236698,128,0,236866:0:0:0:0:
448,192,236866,128,0,237035:0:0:0:0:
320,192,237035,128,0,237203:0:0:0:0:
64,192,237035,1,0,0:0:0:0:
192,192,237203,128,0,237372:0:0:0:0:
64,192,237203,128,0,237372:0:0:0:0:
320,192,237372,128,0,237540:0:0:0:0:
448,192,237540,1,0,0:0:0:0:
64,192,237540,128,0,237709:0:0:0:0:
448,192,237709,128,0,237877:0:0:0:0:
192,192,237709,128,0,237877:0:0:0:0:
320,192,237877,128,0,238046:0:0:0:0:
448,192,238046,128,0,238214:0:0:0:0:
64,192,238046,128,0,238214:0:0:0:0:
192,192,238214,128,0,238383:0:0:0:0:
320,192,238383,128,0,238551:0:0:0:0:
448,192,238383,128,0,238551:0:0:0:0:
192,192,238551,128,0,238720:0:0:0:0:
64,192,238720,128,0,238889:0:0:0:0:
448,192,238720,128,0,239057:0:0:0:0:
320,192,238889,128,0,239057:0:0:0:0:
64,192,239057,1,0,0:0:0:0:
320,192,239226,128,0,239394:0:0:0:0:
64,192,239394,128,0,239563:0:0:0:0:
448,192,239394,128,0,239563:0:0:0:0:
192,192,239563,128,0,239731:0:0:0:0:
320,192,239731,128,0,239900:0:0:0:0:
448,192,239731,128,0,239900:0:0:0:0:
192,192,239900,128,0,240068:0:0:0:0:
64,192,240068,128,0,240237:0:0:0:0:
448,192,240068,128,0,240237:0:0:0:0:
320,192,240405,128,0,240574:0:0:0:0:
448,192,240405,128,0,240574:0:0:0:0:
192,192,240574,128,0,240742:0:0:0:0:
320,192,240742,128,0,240911:0:0:0:0:
64,192,240742,128,0,240911:0:0:0:0:
192,192,240911,128,0,241080:0:0:0:0:
64,192,241080,128,0,241248:0:0:0:0:
448,192,241080,128,0,241248:0:0:0:0:
320,192,241248,128,0,241417:0:0:0:0:
192,192,241417,128,0,241585:0:0:0:0:
448,192,241417,128,0,241585:0:0:0:0:
320,192,241585,128,0,241754:0:0:0:0:
64,192,241754,1,0,0:0:0:0:
192,192,241754,128,0,241838:0:0:0:0:
448,192,241838,1,0,0:0:0:0:
64,192,241922,128,0,242007:0:0:0:0:
192,192,241922,1,0,0:0:0:0:
320,192,242007,1,0,0:0:0:0:
448,192,242091,128,0,242175:0:0:0:0:
64,192,242091,1,0,0:0:0:0:
192,192,242175,1,0,0:0:0:0:
320,192,242259,128,0,242344:0:0:0:0:
448,192,242259,1,0,0:0:0:0:
64,192,242344,1,0,0:0:0:0:
192,192,242428,128,0,242512:0:0:0:0:
320,192,242428,1,0,0:0:0:0:
448,192,242512,1,0,0:0:0:0:
64,192,242596,128,0,242681:0:0:0:0:
192,192,242596,1,0,0:0:0:0:
320,192,242681,1,0,0:0:0:0:
448,192,242765,128,0,242849:0:0:0:0:
64,192,242765,1,0,0:0:0:0:
192,192,242849,1,0,0:0:0:0:
320,192,242934,128,0,243018:0:0:0:0:
448,192,242934,1,0,0:0:0:0:
64,192,243018,1,0,0:0:0:0:
320,192,243102,1,0,0:0:0:0:
192,192,243102,128,0,243271:0:0:0:0:
448,192,243102,128,0,243271:0:0:0:0:
64,192,243271,128,0,243439:0:0:0:0:
320,192,243439,128,0,243608:0:0:0:0:
448,192,243439,128,0,243608:0:0:0:0:
192,192,243608,128,0,243776:0:0:0:0:
64,192,243776,128,0,243945:0:0:0:0:
320,192,243776,128,0,243945:0:0:0:0:
448,192,243945,128,0,244113:0:0:0:0:
64,192,244113,128,0,244282:0:0:0:0:
192,192,244113,128,0,244450:0:0:0:0:
320,192,244282,128,0,244450:0:0:0:0:
448,192,244450,1,0,0:0:0:0:
320,192,244619,128,0,244787:0:0:0:0:
192,192,244787,128,0,244956:0:0:0:0:
64,192,244787,128,0,244956:0:0:0:0:
448,192,244956,128,0,245125:0:0:0:0:
320,192,245125,128,0,245293:0:0:0:0:
64,192,245125,128,0,245293:0:0:0:0:
192,192,245293,128,0,245462:0:0:0:0:
448,192,245462,128,0,245630:0:0:0:0:
320,192,245462,128,0,245630:0:0:0:0:
320,192,245799,128,0,245967:0:0:0:0:
192,192,245799,128,0,245967:0:0:0:0:
64,192,245967,128,0,246136:0:0:0:0:
192,192,246136,128,0,246304:0:0:0:0:
448,192,246136,128,0,246304:0:0:0:0:
320,192,246304,128,0,246473:0:0:0:0:
448,192,246473,128,0,246641:0:0:0:0:
64,192,246473,128,0,246641:0:0:0:0:
192,192,246641,128,0,246810:0:0:0:0:
320,192,246810,128,0,246978:0:0:0:0:
64,192,246810,128,0,246978:0:0:0:0:
448,192,246978,128,0,247147:0:0:0:0:
320,192,247147,128,0,247316:0:0:0:0:
192,192,247147,128,0,247316:0:0:0:0:
64,192,247316,128,0,247484:0:0:0:0:
320,192,247484,128,0,247653:0:0:0:0:
448,192,247484,128,0,247653:0:0:0:0:
64,192,247653,128,0,247821:0:0:0:0:
192,192,247821,128,0,247990:0:0:0:0:
320,192,247821,1,0,0:0:0:0:
320,192,247990,128,0,248158:0:0:0:0:
448,192,247990,128,0,248158:0:0:0:0:
64,192,248158,128,0,248327:0:0:0:0:
192,192,248327,128,0,248495:0:0:0:0:
320,192,248327,1,0,0:0:0:0:
448,192,248495,128,0,248664:0:0:0:0:
320,192,248495,128,0,248664:0:0:0:0:
64,192,248495,1,0,0:0:0:0:
192,192,248664,128,0,248832:0:0:0:0:
448,192,248832,128,0,249001:0:0:0:0:
64,192,248832,128,0,249001:0:0:0:0:
320,192,249001,128,0,249169:0:0:0:0:
192,192,249169,128,0,249338:0:0:0:0:
64,192,249169,128,0,249338:0:0:0:0:
448,192,249338,128,0,249507:0:0:0:0:
320,192,249507,128,0,249675:0:0:0:0:
192,192,249507,128,0,249675:0:0:0:0:
64,192,249675,128,0,249844:0:0:0:0:
448,192,249844,128,0,250012:0:0:0:0:
192,192,249844,1,0,0:0:0:0:
320,192,249844,128,0,250012:0:0:0:0:
64,192,250012,128,0,250181:0:0:0:0:
192,192,250181,128,0,250349:0:0:0:0:
448,192,250181,128,0,250349:0:0:0:0:
320,192,250349,128,0,250518:0:0:0:0:
448,192,250518,128,0,250686:0:0:0:0:
64,192,250518,128,0,250686:0:0:0:0:
192,192,250686,128,0,250855:0:0:0:0:
320,192,250855,128,0,251023:0:0:0:0:
448,192,250855,128,0,251023:0:0:0:0:
64,192,251192,1,0,0:0:0:0:
448,192,251192,128,0,251360:0:0:0:0:
320,192,251192,128,0,251360:0:0:0:0:
192,192,251360,128,0,251529:0:0:0:0:
448,192,251529,128,0,251698:0:0:0:0:
64,192,251529,128,0,251698:0:0:0:0:
320,192,251698,128,0,251866:0:0:0:0:
64,192,251866,128,0,252035:0:0:0:0:
448,192,251866,128,0,252035:0:0:0:0:
192,192,252035,128,0,252203:0:0:0:0:
64,192,252203,128,0,252372:0:0:0:0:
448,192,252203,128,0,252372:0:0:0:0:
320,192,252372,128,0,252540:0:0:0:0:
64,192,252540,1,0,0:0:0:0:
448,192,252540,1,0,0:0:0:0:
192,192,252625,1,0,0:0:0:0:
448,192,252709,1,0,0:0:0:0:
192,192,252793,1,0,0:0:0:0:
64,192,252877,1,0,0:0:0:0:
448,192,252877,1,0,0:0:0:0:
320,192,252962,1,0,0:0:0:0:
64,192,253046,1,0,0:0:0:0:
320,192,253130,1,0,0:0:0:0:
64,192,253214,1,0,0:0:0:0:
448,192,253214,1,0,0:0:0:0:
192,192,253299,1,0,0:0:0:0:
448,192,253383,1,0,0:0:0:0:
192,192,253467,1,0,0:0:0:0:
64,192,253551,1,0,0:0:0:0:
448,192,253551,1,0,0:0:0:0:
320,192,253636,1,0,0:0:0:0:
64,192,253720,1,0,0:0:0:0:
192,192,253804,1,0,0:0:0:0:
64,192,253889,1,0,0:0:0:0:
448,192,253889,1,0,0:0:0:0:
320,192,253889,1,0,0:0:0:0:
192,192,253973,1,0,0:0:0:0:
320,192,254057,1,0,0:0:0:0:
448,192,254057,1,0,0:0:0:0:
192,192,254141,1,0,0:0:0:0:
448,192,254226,1,0,0:0:0:0:
64,192,254226,1,0,0:0:0:0:
320,192,254310,1,0,0:0:0:0:
192,192,254394,1,0,0:0:0:0:
64,192,254394,1,0,0:0:0:0:
320,192,254478,1,0,0:0:0:0:
64,192,254563,1,0,0:0:0:0:
448,192,254563,1,0,0:0:0:0:
192,192,254647,1,0,0:0:0:0:
320,192,254647,1,0,0:0:0:0:
448,192,254731,1,0,0:0:0:0:
64,192,254731,1,0,0:0:0:0:
192,192,254816,1,0,0:0:0:0:
320,192,254900,1,0,0:0:0:0:
448,192,254900,1,0,0:0:0:0:
64,192,254984,1,0,0:0:0:0:
192,192,254984,1,0,0:0:0:0:
320,192,255068,1,0,0:0:0:0:
448,192,255068,1,0,0:0:0:0:
192,192,255153,1,0,0:0:0:0:
64,192,255237,1,0,0:0:0:0:
320,192,255237,1,0,0:0:0:0:
448,192,255237,1,0,0:0:0:0:
192,192,255321,1,0,0:0:0:0:
320,192,255405,1,0,0:0:0:0:
448,192,255490,1,0,0:0:0:0:
192,192,255574,1,0,0:0:0:0:
64,192,255574,1,0,0:0:0:0:
320,192,255658,1,0,0:0:0:0:
64,192,255742,1,0,0:0:0:0:
192,192,255827,1,0,0:0:0:0:
320,192,255911,1,0,0:0:0:0:
448,192,255911,1,0,0:0:0:0:
192,192,255995,1,0,0:0:0:0:
64,192,256080,1,0,0:0:0:0:
448,192,256164,1,0,0:0:0:0:
320,192,256164,1,0,0:0:0:0:
192,192,256248,1,0,0:0:0:0:
64,192,256248,1,0,0:0:0:0:
320,192,256332,1,0,0:0:0:0:
192,192,256417,1,0,0:0:0:0:
448,192,256417,1,0,0:0:0:0:
64,192,256501,1,0,0:0:0:0:
320,192,256585,1,0,0:0:0:0:
448,192,256585,1,0,0:0:0:0:
192,192,256669,1,0,0:0:0:0:
320,192,256754,1,0,0:0:0:0:
448,192,256838,1,0,0:0:0:0:
192,192,256922,1,0,0:0:0:0:
64,192,256922,1,0,0:0:0:0:
320,192,257007,1,0,0:0:0:0:
64,192,257091,1,0,0:0:0:0:
192,192,257175,1,0,0:0:0:0:
320,192,257259,1,0,0:0:0:0:
448,192,257259,1,0,0:0:0:0:
64,192,257344,1,0,0:0:0:0:
320,192,257428,1,0,0:0:0:0:
192,192,257512,1,0,0:0:0:0:
64,192,257512,1,0,0:0:0:0:
320,192,257596,1,0,0:0:0:0:
448,192,257596,1,0,0:0:0:0:
192,192,257681,1,0,0:0:0:0:
64,192,257765,1,0,0:0:0:0:
448,192,257765,1,0,0:0:0:0:
320,192,257849,1,0,0:0:0:0:
192,192,257934,1,0,0:0:0:0:
64,192,257934,1,0,0:0:0:0:
320,192,258018,1,0,0:0:0:0:
192,192,258102,1,0,0:0:0:0:
64,192,258186,1,0,0:0:0:0:
320,192,258271,1,0,0:0:0:0:
448,192,258271,1,0,0:0:0:0:
192,192,258355,1,0,0:0:0:0:
448,192,258439,1,0,0:0:0:0:
320,192,258523,1,0,0:0:0:0:
192,192,258608,1,0,0:0:0:0:
64,192,258608,1,0,0:0:0:0:
448,192,258692,1,0,0:0:0:0:
192,192,258776,1,0,0:0:0:0:
320,192,258860,1,0,0:0:0:0:
448,192,258860,1,0,0:0:0:0:
192,192,258945,1,0,0:0:0:0:
64,192,258945,1,0,0:0:0:0:
320,192,259029,1,0,0:0:0:0:
448,192,259113,1,0,0:0:0:0:
64,192,259113,1,0,0:0:0:0:
192,192,259198,1,0,0:0:0:0:
320,192,259282,1,0,0:0:0:0:
448,192,259282,1,0,0:0:0:0:
64,192,259366,1,0,0:0:0:0:
320,192,259450,1,0,0:0:0:0:
192,192,259535,1,0,0:0:0:0:
64,192,259619,1,0,0:0:0:0:
448,192,259619,1,0,0:0:0:0:
320,192,259703,1,0,0:0:0:0:
192,192,259787,1,0,0:0:0:0:
448,192,259872,1,0,0:0:0:0:
192,192,259956,1,0,0:0:0:0:
64,192,259956,1,0,0:0:0:0:
320,192,260040,1,0,0:0:0:0:
64,192,260125,1,0,0:0:0:0:
448,192,260209,1,0,0:0:0:0:
320,192,260209,1,0,0:0:0:0:
192,192,260293,1,0,0:0:0:0:
64,192,260293,1,0,0:0:0:0:
448,192,260377,1,0,0:0:0:0:
320,192,260462,1,0,0:0:0:0:
192,192,260462,1,0,0:0:0:0:
64,192,260546,1,0,0:0:0:0:
320,192,260630,1,0,0:0:0:0:
448,192,260630,1,0,0:0:0:0:
192,192,260714,1,0,0:0:0:0:
448,192,260799,1,0,0:0:0:0:
320,192,260883,1,0,0:0:0:0:
192,192,260967,1,0,0:0:0:0:
64,192,260967,1,0,0:0:0:0:
320,192,261051,1,0,0:0:0:0:
64,192,261136,1,0,0:0:0:0:
192,192,261220,1,0,0:0:0:0:
320,192,261304,1,0,0:0:0:0:
448,192,261304,1,0,0:0:0:0:
192,192,261389,1,0,0:0:0:0:
64,192,261473,1,0,0:0:0:0:
448,192,261557,1,0,0:0:0:0:
320,192,261557,1,0,0:0:0:0:
192,192,261641,1,0,0:0:0:0:
64,192,261641,1,0,0:0:0:0:
320,192,261726,1,0,0:0:0:0:
192,192,261810,1,0,0:0:0:0:
448,192,261810,1,0,0:0:0:0:
64,192,261894,1,0,0:0:0:0:
320,192,261978,1,0,0:0:0:0:
448,192,261978,1,0,0:0:0:0:
192,192,262063,1,0,0:0:0:0:
320,192,262147,1,0,0:0:0:0:
192,192,262231,1,0,0:0:0:0:
64,192,262231,1,0,0:0:0:0:
320,192,262316,1,0,0:0:0:0:
448,192,262316,1,0,0:0:0:0:
192,192,262400,1,0,0:0:0:0:
448,192,262484,1,0,0:0:0:0:
64,192,262484,1,0,0:0:0:0:
320,192,262568,1,0,0:0:0:0:
192,192,262653,1,0,0:0:0:0:
64,192,262653,1,0,0:0:0:0:
320,192,262737,1,0,0:0:0:0:
448,192,262821,1,0,0:0:0:0:
64,192,262905,1,0,0:0:0:0:
192,192,262905,1,0,0:0:0:0:
320,192,262990,1,0,0:0:0:0:
448,192,262990,1,0,0:0:0:0:
64,192,263074,1,0,0:0:0:0:
192,192,263158,1,0,0:0:0:0:
320,192,263158,1,0,0:0:0:0:
448,192,263242,1,0,0:0:0:0:
192,192,263327,1,0,0:0:0:0:
64,192,263327,1,0,0:0:0:0:
320,192,263411,1,0,0:0:0:0:
64,192,263495,1,0,0:0:0:0:
192,192,263580,1,0,0:0:0:0:
320,192,263664,1,0,0:0:0:0:
448,192,263664,1,0,0:0:0:0:
192,192,263748,1,0,0:0:0:0:
320,192,263832,1,0,0:0:0:0:
448,192,263917,1,0,0:0:0:0:
192,192,264001,1,0,0:0:0:0:
64,192,264001,1,0,0:0:0:0:
320,192,264085,1,0,0:0:0:0:
64,192,264169,1,0,0:0:0:0:
448,192,264254,1,0,0:0:0:0:
320,192,264254,1,0,0:0:0:0:
192,192,264338,1,0,0:0:0:0:
64,192,264338,1,0,0:0:0:0:
448,192,264422,1,0,0:0:0:0:
320,192,264507,1,0,0:0:0:0:
192,192,264507,1,0,0:0:0:0:
64,192,264591,1,0,0:0:0:0:
320,192,264675,1,0,0:0:0:0:
448,192,264675,1,0,0:0:0:0:
192,192,264759,1,0,0:0:0:0:
320,192,264844,1,0,0:0:0:0:
192,192,264928,1,0,0:0:0:0:
64,192,264928,1,0,0:0:0:0:
320,192,265012,1,0,0:0:0:0:
448,192,265012,1,0,0:0:0:0:
64,192,265096,1,0,0:0:0:0:
448,192,265181,1,0,0:0:0:0:
192,192,265181,1,0,0:0:0:0:
320,192,265265,1,0,0:0:0:0:
192,192,265349,1,0,0:0:0:0:
64,192,265349,1,0,0:0:0:0:
320,192,265434,1,0,0:0:0:0:
448,192,265434,1,0,0:0:0:0:
64,192,265518,1,0,0:0:0:0:
320,192,265602,1,0,0:0:0:0:
192,192,265602,1,0,0:0:0:0:
64,192,265686,1,0,0:0:0:0:
448,192,265686,1,0,0:0:0:0:
320,192,265771,1,0,0:0:0:0:
64,192,265855,1,0,0:0:0:0:
192,192,265855,1,0,0:0:0:0:
320,192,265939,1,0,0:0:0:0:
448,192,266023,1,0,0:0:0:0:
192,192,266023,1,0,0:0:0:0:
64,192,266023,1,0,0:0:0:0:
320,192,266108,1,0,0:0:0:0:
192,192,266192,1,0,0:0:0:0:
64,192,266276,1,0,0:0:0:0:
320,192,266360,1,0,0:0:0:0:
448,192,266360,1,0,0:0:0:0:
192,192,266445,1,0,0:0:0:0:
320,192,266529,1,0,0:0:0:0:
448,192,266613,1,0,0:0:0:0:
64,192,266698,1,0,0:0:0:0:
192,192,266698,1,0,0:0:0:0:
320,192,266782,1,0,0:0:0:0:
64,192,266866,1,0,0:0:0:0:
320,192,266950,1,0,0:0:0:0:
448,192,266950,1,0,0:0:0:0:
192,192,267035,1,0,0:0:0:0:
64,192,267035,1,0,0:0:0:0:
320,192,267119,1,0,0:0:0:0:
448,192,267203,1,0,0:0:0:0:
192,192,267203,1,0,0:0:0:0:
64,192,267287,1,0,0:0:0:0:
320,192,267372,1,0,0:0:0:0:
448,192,267372,1,0,0:0:0:0:
192,192,267456,1,0,0:0:0:0:
320,192,267540,1,0,0:0:0:0:
448,192,267625,1,0,0:0:0:0:
64,192,267709,1,0,0:0:0:0:
192,192,267709,1,0,0:0:0:0:
320,192,267793,1,0,0:0:0:0:
192,192,267877,1,0,0:0:0:0:
64,192,267962,1,0,0:0:0:0:
448,192,268046,1,0,0:0:0:0:
320,192,268046,1,0,0:0:0:0:
192,192,268130,1,0,0:0:0:0:
448,192,268214,1,0,0:0:0:0:
64,192,268299,1,0,0:0:0:0:
192,192,268299,1,0,0:0:0:0:
320,192,268383,1,0,0:0:0:0:
448,192,268383,1,0,0:0:0:0:
192,192,268467,1,0,0:0:0:0:
64,192,268551,1,0,0:0:0:0:
320,192,268551,1,0,0:0:0:0:
448,192,268636,1,0,0:0:0:0:
64,192,268720,1,0,0:0:0:0:
192,192,268720,1,0,0:0:0:0:
320,192,268804,1,0,0:0:0:0:
192,192,268889,1,0,0:0:0:0:
320,192,268973,1,0,0:0:0:0:
448,192,269057,1,0,0:0:0:0:
64,192,269057,1,0,0:0:0:0:
192,192,269141,1,0,0:0:0:0:
320,192,269226,1,0,0:0:0:0:
192,192,269310,1,0,0:0:0:0:
320,192,269394,1,0,0:0:0:0:
448,192,269394,1,0,0:0:0:0:
64,192,269478,1,0,0:0:0:0:
192,192,269563,1,0,0:0:0:0:
320,192,269647,1,0,0:0:0:0:
448,192,269647,1,0,0:0:0:0:
192,192,269731,1,0,0:0:0:0:
64,192,269731,1,0,0:0:0:0:
320,192,269816,1,0,0:0:0:0:
448,192,269900,1,0,0:0:0:0:
64,192,269900,1,0,0:0:0:0:
192,192,269984,1,0,0:0:0:0:
448,192,270068,1,0,0:0:0:0:
320,192,270068,1,0,0:0:0:0:
192,192,270153,1,0,0:0:0:0:
320,192,270237,1,0,0:0:0:0:
192,192,270321,1,0,0:0:0:0:
64,192,270405,1,0,0:0:0:0:
448,192,270405,1,0,0:0:0:0:
320,192,270490,1,0,0:0:0:0:
192,192,270574,1,0,0:0:0:0:
320,192,270658,1,0,0:0:0:0:
192,192,270742,1,0,0:0:0:0:
64,192,270742,1,0,0:0:0:0:
448,192,270827,1,0,0:0:0:0:
320,192,270911,1,0,0:0:0:0:
64,192,270911,1,0,0:0:0:0:
192,192,270995,1,0,0:0:0:0:
320,192,271080,1,0,0:0:0:0:
448,192,271080,1,0,0:0:0:0:
192,192,271164,1,0,0:0:0:0:
64,192,271248,1,0,0:0:0:0:
448,192,271248,1,0,0:0:0:0:
320,192,271332,1,0,0:0:0:0:
192,192,271417,1,0,0:0:0:0:
64,192,271417,1,0,0:0:0:0:
448,192,271417,1,0,0:0:0:0:
320,192,271501,1,0,0:0:0:0:
192,192,271585,1,0,0:0:0:0:
64,192,271669,1,0,0:0:0:0:
320,192,271754,1,0,0:0:0:0:
448,192,271754,1,0,0:0:0:0:
192,192,271838,1,0,0:0:0:0:
448,192,271922,1,0,0:0:0:0:
320,192,272007,1,0,0:0:0:0:
192,192,272091,1,0,0:0:0:0:
64,192,272091,1,0,0:0:0:0:
448,192,272175,1,0,0:0:0:0:
192,192,272259,1,0,0:0:0:0:
320,192,272344,1,0,0:0:0:0:
448,192,272344,1,0,0:0:0:0:
64,192,272428,1,0,0:0:0:0:
192,192,272428,1,0,0:0:0:0:
320,192,272512,1,0,0:0:0:0:
64,192,272596,1,0,0:0:0:0:
448,192,272596,1,0,0:0:0:0:
192,192,272681,1,0,0:0:0:0:
448,192,272765,1,0,0:0:0:0:
320,192,272765,1,0,0:0:0:0:
64,192,272765,1,0,0:0:0:0:
192,192,272849,1,0,0:0:0:0:
320,192,272934,1,0,0:0:0:0:
448,192,273018,1,0,0:0:0:0:
64,192,273102,1,0,0:0:0:0:
192,192,273102,1,0,0:0:0:0:
320,192,273186,1,0,0:0:0:0:
64,192,273271,1,0,0:0:0:0:
192,192,273355,1,0,0:0:0:0:
320,192,273439,1,0,0:0:0:0:
448,192,273439,1,0,0:0:0:0:
64,192,273523,1,0,0:0:0:0:
320,192,273608,1,0,0:0:0:0:
192,192,273692,1,0,0:0:0:0:
64,192,273692,1,0,0:0:0:0:
448,192,273776,1,0,0:0:0:0:
320,192,273776,1,0,0:0:0:0:
192,192,273860,1,0,0:0:0:0:
448,192,273945,1,0,0:0:0:0:
64,192,273945,1,0,0:0:0:0:
320,192,274029,1,0,0:0:0:0:
64,192,274113,1,0,0:0:0:0:
192,192,274113,1,0,0:0:0:0:
448,192,274113,1,0,0:0:0:0:
320,192,274198,1,0,0:0:0:0:
64,192,274282,1,0,0:0:0:0:
448,192,274366,1,0,0:0:0:0:
192,192,274450,1,0,0:0:0:0:
320,192,274450,1,0,0:0:0:0:
64,192,274535,1,0,0:0:0:0:
192,192,274619,1,0,0:0:0:0:
64,192,274703,1,0,0:0:0:0:
448,192,274787,1,0,0:0:0:0:
320,192,274787,1,0,0:0:0:0:
192,192,274872,1,0,0:0:0:0:
448,192,274956,1,0,0:0:0:0:
320,192,275040,1,0,0:0:0:0:
64,192,275125,1,0,0:0:0:0:
192,192,275125,1,0,0:0:0:0:
320,192,275209,1,0,0:0:0:0:
64,192,275293,1,0,0:0:0:0:
192,192,275377,1,0,0:0:0:0:
320,192,275462,1,0,0:0:0:0:
448,192,275462,1,0,0:0:0:0:
192,192,275546,1,0,0:0:0:0:
64,192,275630,1,0,0:0:0:0:
320,192,275630,1,0,0:0:0:0:
448,192,275714,1,0,0:0:0:0:
64,192,275799,1,0,0:0:0:0:
192,192,275799,1,0,0:0:0:0:
448,192,275883,1,0,0:0:0:0:
192,192,275967,1,0,0:0:0:0:
320,192,275967,1,0,0:0:0:0:
64,192,276051,1,0,0:0:0:0:
320,192,276136,1,0,0:0:0:0:
448,192,276136,1,0,0:0:0:0:
192,192,276220,1,0,0:0:0:0:
64,192,276304,1,0,0:0:0:0:
448,192,276304,1,0,0:0:0:0:
320,192,276389,1,0,0:0:0:0:
192,192,276473,1,0,0:0:0:0:
64,192,276473,1,0,0:0:0:0:
320,192,276557,1,0,0:0:0:0:
448,192,276557,1,0,0:0:0:0:
64,192,276641,1,0,0:0:0:0:
192,192,276641,1,0,0:0:0:0:
320,192,276726,1,0,0:0:0:0:
448,192,276810,1,0,0:0:0:0:
192,192,276810,1,0,0:0:0:0:
64,192,276810,1,0,0:0:0:0:
448,192,277484,1,0,0:0:0:0:
320,192,277737,1,0,0:0:0:0:
192,192,277990,1,0,0:0:0:0:
64,192,278158,1,0,0:0:0:0:
320,192,278158,1,0,0:0:0:0:
64,192,278832,1,0,0:0:0:0:
192,192,279085,1,0,0:0:0:0:
320,192,279338,1,0,0:0:0:0:
448,192,279507,1,0,0:0:0:0:
192,192,279507,1,0,0:0:0:0:
320,192,280181,1,0,0:0:0:0:
192,192,280434,1,0,0:0:0:0:
448,192,280686,1,0,0:0:0:0:
320,192,280855,1,0,0:0:0:0:
64,192,280855,1,0,0:0:0:0:
64,192,281529,1,0,0:0:0:0:
320,192,281782,1,0,0:0:0:0:
192,192,282035,1,0,0:0:0:0:
64,192,282203,1,0,0:0:0:0:
320,192,282203,1,0,0:0:0:0:
320,192,282877,1,0,0:0:0:0:
192,192,283130,1,0,0:0:0:0:
320,192,283383,1,0,0:0:0:0:
448,192,283551,1,0,0:0:0:0:
64,192,283551,1,0,0:0:0:0:
192,192,283804,1,0,0:0:0:0:
320,192,284057,1,0,0:0:0:0:
192,192,284226,1,0,0:0:0:0:
320,192,284478,1,0,0:0:0:0:
192,192,284731,1,0,0:0:0:0:
64,192,284900,1,0,0:0:0:0:
448,192,284900,1,0,0:0:0:0:
192,192,285574,1,0,0:0:0:0:
320,192,285827,1,0,0:0:0:0:
192,192,286080,1,0,0:0:0:0:
64,192,286248,1,0,0:0:0:0:
448,192,286248,1,0,0:0:0:0:
192,192,286332,1,0,0:0:0:0:
320,192,286417,1,0,0:0:0:0:
192,192,286501,1,0,0:0:0:0:
64,192,286501,1,0,0:0:0:0:
448,192,286585,1,0,0:0:0:0:
64,192,286669,1,0,0:0:0:0:
320,192,286754,1,0,0:0:0:0:
192,192,286754,1,0,0:0:0:0:
448,192,286838,1,0,0:0:0:0:
192,192,286922,1,0,0:0:0:0:
64,192,286922,1,0,0:0:0:0:
320,192,287007,1,0,0:0:0:0:
448,192,287091,1,0,0:0:0:0:
192,192,287175,1,0,0:0:0:0:
320,192,287175,1,0,0:0:0:0:
64,192,287259,1,0,0:0:0:0:
192,192,287344,1,0,0:0:0:0:
320,192,287428,1,0,0:0:0:0:
448,192,287428,1,0,0:0:0:0:
192,192,287512,1,0,0:0:0:0:
320,192,287596,1,0,0:0:0:0:
64,192,287596,128,0,287709:0:0:0:0:
448,192,287596,128,0,287821:0:0:0:0:
192,192,287709,128,0,287821:0:0:0:0:
320,192,287821,128,0,288046:0:0:0:0:
192,192,287934,1,0,0:0:0:0:
64,192,287934,128,0,288158:0:0:0:0:
448,192,288046,128,0,288158:0:0:0:0:
192,192,288158,128,0,288271:0:0:0:0:
448,192,288271,128,0,288355:0:0:0:0:
320,192,288271,128,0,288383:0:0:0:0:
192,192,288383,128,0,288495:0:0:0:0:
64,192,288495,128,0,288608:0:0:0:0:
320,192,288523,128,0,288608:0:0:0:0:
448,192,288608,128,0,288720:0:0:0:0:
192,192,288608,1,0,0:0:0:0:
64,192,288720,128,0,288832:0:0:0:0:
192,192,288776,128,0,288860:0:0:0:0:
320,192,288832,128,0,288945:0:0:0:0:
192,192,288945,1,0,0:0:0:0:
64,192,288945,128,0,289057:0:0:0:0:
448,192,288945,128,0,289169:0:0:0:0:
320,192,289057,128,0,289282:0:0:0:0:
192,192,289169,128,0,289282:0:0:0:0:
448,192,289282,1,0,0:0:0:0:
64,192,289282,128,0,289507:0:0:0:0:
192,192,289394,128,0,289619:0:0:0:0:
320,192,289507,128,0,289619:0:0:0:0:
448,192,289619,128,0,289731:0:0:0:0:
64,192,289619,128,0,289703:0:0:0:0:
320,192,289731,128,0,289844:0:0:0:0:
64,192,289844,128,0,289956:0:0:0:0:
192,192,289872,128,0,289956:0:0:0:0:
320,192,289956,1,0,0:0:0:0:
448,192,289956,128,0,290068:0:0:0:0:
192,192,290068,128,0,290181:0:0:0:0:
320,192,290125,128,0,290209:0:0:0:0:
64,192,290181,128,0,290293:0:0:0:0:
192,192,290293,1,0,0:0:0:0:
320,192,290293,128,0,290518:0:0:0:0:
448,192,290293,128,0,290405:0:0:0:0:
64,192,290405,128,0,290630:0:0:0:0:
192,192,290518,128,0,290630:0:0:0:0:
320,192,290630,128,0,290742:0:0:0:0:
448,192,290630,128,0,290855:0:0:0:0:
192,192,290742,128,0,290855:0:0:0:0:
320,192,290855,128,0,290967:0:0:0:0:
448,192,290967,128,0,291080:0:0:0:0:
64,192,290967,128,0,291051:0:0:0:0:
192,192,291080,128,0,291192:0:0:0:0:
64,192,291192,128,0,291304:0:0:0:0:
320,192,291220,128,0,291304:0:0:0:0:
192,192,291304,1,0,0:0:0:0:
448,192,291304,128,0,291417:0:0:0:0:
64,192,291417,128,0,291529:0:0:0:0:
192,192,291473,128,0,291557:0:0:0:0:
448,192,291529,128,0,291641:0:0:0:0:
192,192,291641,1,0,0:0:0:0:
64,192,291641,128,0,291866:0:0:0:0:
320,192,291641,128,0,291866:0:0:0:0:
448,192,291754,128,0,291866:0:0:0:0:
192,192,291866,128,0,292091:0:0:0:0:
448,192,291978,128,0,292203:0:0:0:0:
64,192,291978,128,0,292091:0:0:0:0:
320,192,292091,128,0,292203:0:0:0:0:
192,192,292203,128,0,292316:0:0:0:0:
448,192,292316,128,0,292428:0:0:0:0:
64,192,292316,128,0,292400:0:0:0:0:
320,192,292428,128,0,292540:0:0:0:0:
64,192,292540,128,0,292653:0:0:0:0:
192,192,292568,128,0,292653:0:0:0:0:
320,192,292653,1,0,0:0:0:0:
448,192,292653,128,0,292765:0:0:0:0:
192,192,292765,128,0,292877:0:0:0:0:
320,192,292821,128,0,292905:0:0:0:0:
64,192,292877,128,0,292990:0:0:0:0:
320,192,292990,1,0,0:0:0:0:
448,192,292990,128,0,293214:0:0:0:0:
192,192,292990,128,0,293102:0:0:0:0:
64,192,293102,128,0,293327:0:0:0:0:
320,192,293214,128,0,293439:0:0:0:0:
192,192,293327,128,0,293551:0:0:0:0:
448,192,293327,128,0,293439:0:0:0:0:
64,192,293439,128,0,293551:0:0:0:0:
320,192,293551,128,0,293664:0:0:0:0:
192,192,293664,128,0,293748:0:0:0:0:
64,192,293664,128,0,293776:0:0:0:0:
448,192,293776,128,0,293889:0:0:0:0:
192,192,293889,128,0,294001:0:0:0:0:
320,192,293917,128,0,294001:0:0:0:0:
64,192,294001,128,0,294113:0:0:0:0:
448,192,294001,1,0,0:0:0:0:
192,192,294113,128,0,294226:0:0:0:0:
448,192,294169,128,0,294254:0:0:0:0:
320,192,294226,128,0,294338:0:0:0:0:
192,192,294338,1,0,0:0:0:0:
448,192,294338,128,0,294450:0:0:0:0:
64,192,294338,128,0,294563:0:0:0:0:
320,192,294450,128,0,294563:0:0:0:0:
192,192,294563,128,0,294787:0:0:0:0:
64,192,294675,128,0,294787:0:0:0:0:
448,192,294675,128,0,294900:0:0:0:0:
320,192,294787,128,0,294900:0:0:0:0:
192,192,294900,128,0,295012:0:0:0:0:
320,192,295012,128,0,295096:0:0:0:0:
448,192,295012,128,0,295125:0:0:0:0:
64,192,295125,128,0,295237:0:0:0:0:
320,192,295237,128,0,295349:0:0:0:0:
192,192,295265,128,0,295349:0:0:0:0:
64,192,295349,1,0,0:0:0:0:
448,192,295349,128,0,295462:0:0:0:0:
192,192,295462,128,0,295574:0:0:0:0:
64,192,295518,128,0,295602:0:0:0:0:
320,192,295574,128,0,295686:0:0:0:0:
192,192,295686,128,0,295799:0:0:0:0:
64,192,295686,128,0,295911:0:0:0:0:
448,192,295686,128,0,295799:0:0:0:0:
320,192,295799,128,0,295911:0:0:0:0:
192,192,295911,128,0,296023:0:0:0:0:
64,192,296023,128,0,296136:0:0:0:0:
448,192,296023,128,0,296360:0:0:0:0:
320,192,296136,128,0,296248:0:0:0:0:
192,192,296248,1,0,0:0:0:0:
64,192,296360,128,0,296585:0:0:0:0:
320,192,296360,1,0,0:0:0:0:
192,192,296473,128,0,296698:0:0:0:0:
448,192,296473,1,0,0:0:0:0:
320,192,296585,128,0,296810:0:0:0:0:
448,192,296698,128,0,296922:0:0:0:0:
64,192,296698,1,0,0:0:0:0:
192,192,296810,1,0,0:0:0:0:
320,192,296922,1,0,0:0:0:0:
448,192,297035,1,0,0:0:0:0:
64,192,297035,1,0,0:0:0:0:
192,192,297119,1,0,0:0:0:0:
320,192,297203,1,0,0:0:0:0:
448,192,297203,1,0,0:0:0:0:
192,192,297287,1,0,0:0:0:0:
64,192,297372,1,0,0:0:0:0:
448,192,297372,1,0,0:0:0:0:
320,192,297456,1,0,0:0:0:0:
64,192,297540,1,0,0:0:0:0:
192,192,297540,1,0,0:0:0:0:
320,192,297625,1,0,0:0:0:0:
448,192,297709,1,0,0:0:0:0:
64,192,297709,1,0,0:0:0:0:
192,192,297793,1,0,0:0:0:0:
320,192,297877,1,0,0:0:0:0:
448,192,297877,1,0,0:0:0:0:
192,192,297962,1,0,0:0:0:0:
64,192,298046,1,0,0:0:0:0:
448,192,298046,1,0,0:0:0:0:
320,192,298130,1,0,0:0:0:0:
192,192,298214,1,0,0:0:0:0:
64,192,298214,1,0,0:0:0:0:
320,192,298299,1,0,0:0:0:0:
448,192,298299,1,0,0:0:0:0:
192,192,298383,128,0,299731:0:0:0:0:
320,192,299057,128,0,299731:0:0:0:0:
448,192,299731,1,0,0:0:0:0:
64,192,299731,1,0,0:0:0:0:
192,192,301080,1,0,0:0:0:0:
320,192,301080,1,0,0:0:0:0:
192,192,302428,1,0,0:0:0:0:
64,192,302428,1,0,0:0:0:0:
320,192,303776,1,0,0:0:0:0:
448,192,303776,1,0,0:0:0:0:
192,192,304619,1,0,0:0:0:0:
192,192,304956,1,0,0:0:0:0:
192,192,305125,1,0,0:0:0:0:
320,192,305125,1,0,0:0:0:0:
192,192,306473,1,0,0:0:0:0:
64,192,306473,1,0,0:0:0:0:
448,192,307821,1,0,0:0:0:0:
320,192,307821,1,0,0:0:0:0:
320,192,309169,1,0,0:0:0:0:
192,192,309169,1,0,0:0:0:0:
448,192,309254,1,0,0:0:0:0:
192,192,309338,1,0,0:0:0:0:
448,192,309422,1,0,0:0:0:0:
64,192,309507,1,0,0:0:0:0:
320,192,309591,1,0,0:0:0:0:
64,192,309675,1,0,0:0:0:0:
320,192,309759,1,0,0:0:0:0:
192,192,309844,1,0,0:0:0:0:
448,192,309928,1,0,0:0:0:0:
192,192,310012,1,0,0:0:0:0:
448,192,310096,1,0,0:0:0:0:
64,192,310181,1,0,0:0:0:0:
320,192,310265,1,0,0:0:0:0:
64,192,310349,1,0,0:0:0:0:
320,192,310434,1,0,0:0:0:0:
192,192,310518,128,0,311866:0:0:0:0:
64,192,310518,1,0,0:0:0:0:
448,192,310518,128,0,310686:0:0:0:0:
448,192,310855,1,0,0:0:0:0:
448,192,311192,128,0,311866:0:0:0:0:
64,192,311192,1,0,0:0:0:0:
64,192,311529,1,0,0:0:0:0:
64,192,311866,128,0,313214:0:0:0:0:
320,192,311866,1,0,0:0:0:0:
320,192,312203,1,0,0:0:0:0:
320,192,312540,128,0,313214:0:0:0:0:
448,192,312540,1,0,0:0:0:0:
448,192,312877,1,0,0:0:0:0:
448,192,313214,128,0,314563:0:0:0:0:
192,192,313214,1,0,0:0:0:0:
192,192,313551,1,0,0:0:0:0:
192,192,313889,128,0,314563:0:0:0:0:
320,192,313889,1,0,0:0:0:0:
320,192,314226,1,0,0:0:0:0:
64,192,314563,1,0,0:0:0:0:
320,192,314563,128,0,315911:0:0:0:0:
64,192,314900,1,0,0:0:0:0:
64,192,315237,128,0,315911:0:0:0:0:
192,192,315237,1,0,0:0:0:0:
448,192,315405,1,0,0:0:0:0:
448,192,315742,1,0,0:0:0:0:
448,192,315911,128,0,317259:0:0:0:0:
192,192,315911,128,0,316080:0:0:0:0:
192,192,316248,1,0,0:0:0:0:
192,192,316585,128,0,317259:0:0:0:0:
320,192,316585,1,0,0:0:0:0:
320,192,316922,1,0,0:0:0:0:
320,192,317259,128,0,318608:0:0:0:0:
64,192,317259,128,0,317428:0:0:0:0:
64,192,317596,1,0,0:0:0:0:
64,192,317934,128,0,318608:0:0:0:0:
192,192,317934,1,0,0:0:0:0:
192,192,318271,1,0,0:0:0:0:
192,192,318608,128,0,319956:0:0:0:0:
448,192,318608,128,0,318776:0:0:0:0:
448,192,318945,1,0,0:0:0:0:
448,192,319282,128,0,319956:0:0:0:0:
64,192,319282,1,0,0:0:0:0:
64,192,319619,1,0,0:0:0:0:
320,192,319956,1,0,0:0:0:0:
64,192,319956,128,0,320293:0:0:0:0:
448,192,320040,1,0,0:0:0:0:
192,192,320125,1,0,0:0:0:0:
320,192,320209,1,0,0:0:0:0:
448,192,320293,1,0,0:0:0:0:
192,192,320377,1,0,0:0:0:0:
320,192,320462,1,0,0:0:0:0:
64,192,320546,1,0,0:0:0:0:
448,192,320630,1,0,0:0:0:0:
192,192,320630,1,0,0:0:0:0:
320,192,320714,1,0,0:0:0:0:
192,192,320799,1,0,0:0:0:0:
64,192,320799,1,0,0:0:0:0:
448,192,320883,1,0,0:0:0:0:
320,192,320967,1,0,0:0:0:0:
64,192,320967,1,0,0:0:0:0:
192,192,321051,1,0,0:0:0:0:
448,192,321136,1,0,0:0:0:0:
320,192,321136,1,0,0:0:0:0:
192,192,321220,1,0,0:0:0:0:
64,192,321220,1,0,0:0:0:0:
320,192,321304,128,0,324674:0:0:0:0:
192,192,321641,128,0,324674:0:0:0:0:
448,192,321641,1,0,0:0:0:0:
64,192,321641,1,0,0:0:0:0:
