osu file format v14

[General]
AudioFilename: audio.mp3
AudioLeadIn: 0
PreviewTime: 23930
Countdown: 0
SampleSet: Normal
StackLeniency: 0.7
Mode: 0
LetterboxInBreaks: 0
WidescreenStoryboard: 1

[Editor]
DistanceSpacing: 0.9
BeatDivisor: 4
GridSize: 4
TimelineZoom: 2.5

[Metadata]
Title:Identic Conflict
TitleUnicode:永恆衝突
Artist:bbn
ArtistUnicode:bbn
Creator:Myxo
Version:LMT's Another
Source:Oblivious Garden ~Carmina Burana
Tags:myxomatosis lmt anto circlechu instrumental piano visual novel 遺忘花園
BeatmapID:2135438
BeatmapSetID:1020429

[Difficulty]
HPDrainRate:6
CircleSize:5
OverallDifficulty:8
ApproachRate:8
SliderMultiplier:1.4
SliderTickRate:1

[Events]
//Background and Video events
0,0,"1232.jpg",0,0
//Break Periods
//Storyboard Layer 0 (Background)
//Storyboard Layer 1 (Fail)
//Storyboard Layer 2 (Pass)
//Storyboard Layer 3 (Foreground)
//Storyboard Layer 4 (Overlay)
//Storyboard Sound Samples

[TimingPoints]
2045,336.68144324112,4,2,1,40,1,0
6842,-100,4,1,1,40,0,0
7516,-100,4,2,1,40,0,0
11808,-100,4,1,1,40,0,0
12818,-100,4,1,1,50,0,0
23930,336.68144324112,4,1,1,60,1,0
23930,-66.6666666666667,4,1,1,60,0,0
45477,-100,4,2,1,40,0,0
50275,-100,4,1,1,40,0,0
50948,-100,4,2,1,40,0,0
54904,-100,4,1,1,40,0,0
56251,-100,4,1,1,50,0,0
68371,-66.6666666666667,4,1,1,60,0,0
74432,-57.1428571428571,4,1,1,60,0,0
79145,-50,4,1,1,60,0,0

[Colours]
Combo1 : 249,68,118
Combo2 : 126,188,250

[HitObjects]
43,140,2045,5,6,0:2:0:0:
475,245,3391,5,0,0:2:0:0:
20,302,4738,5,2,0:2:0:0:
488,369,6085,5,0,0:2:0:0:
241,227,6926,5,0,0:2:0:0:
341,232,7263,1,0,0:2:0:0:
405,153,7431,5,2,0:2:0:0:
33,197,8778,5,0,0:2:0:0:
486,314,10125,5,2,0:2:0:0:
29,361,11472,5,0,0:2:0:0:
190,314,11892,5,0,0:2:0:0:
184,289,11977,1,0,0:2:0:0:
256,232,12145,1,0,0:2:0:0:
191,160,12313,6,0,L|183:70,1,70,2|0,0:2|0:2,0:2:0:0:
271,56,12650,2,0,L|267:3,1,35,2|0,0:2|0:2,0:2:0:0:
331,92,12818,5,6,0:2:0:0:
364,212,13155,1,0,0:2:0:0:
491,185,13492,1,2,0:2:0:0:
467,63,13828,1,0,0:2:0:0:
364,212,14165,5,2,0:2:0:0:
303,243,14333,1,0,0:2:0:0:
304,252,14418,2,0,L|296:356,1,105,0|0,0:2|0:2,0:2:0:0:
228,370,14838,5,2,0:2:0:0:
202,285,15091,1,0,0:2:0:0:
107,282,15343,1,0,0:2:0:0:
74,223,15512,5,2,0:2:0:0:
50,101,15848,1,0,0:2:0:0:
177,74,16185,1,2,0:2:0:0:
204,195,16522,1,0,0:2:0:0:
346,176,16858,5,2,0:2:0:0:
307,118,17027,1,0,0:2:0:0:
303,107,17111,2,0,L|294:22,1,70,0|0,0:2|0:2,0:2:0:0:
291,28,17364,1,0,0:2:0:0:
360,12,17532,5,2,0:2:0:0:
374,82,17700,1,0,0:2:0:0:
374,82,18037,2,0,L|423:73,1,35,0|0,0:2|0:2,0:2:0:0:
472,63,18205,5,6,0:2:0:0:
463,127,18374,1,0,0:2:0:0:
466,137,18458,1,0,0:2:0:0:
470,200,18626,1,0,0:2:0:0:
472,210,18710,1,0,0:2:0:0:
418,267,18879,6,0,L|404:355,1,70,2|0,0:2|0:2,0:2:0:0:
396,342,19131,1,0,0:2:0:0:
335,308,19299,1,0,0:2:0:0:
331,296,19384,1,0,0:2:0:0:
253,266,19552,6,0,L|265:181,1,70,6|0,0:2|0:2,0:2:0:0:
271,188,19804,1,0,0:2:0:0:
208,146,19973,1,0,0:2:0:0:
202,133,20057,1,0,0:2:0:0:
117,140,20225,5,2,0:2:0:0:
72,225,20478,1,0,0:2:0:0:
131,297,20730,1,0,0:2:0:0:
201,292,20899,5,6,0:2:0:0:
308,369,21235,1,0,0:2:0:0:
403,281,21572,1,2,0:2:0:0:
294,202,21909,1,0,0:2:0:0:
292,192,21993,1,0,0:2:0:0:
290,182,22077,1,0,0:2:0:0:
230,144,22245,5,2,0:2:0:0:
232,132,22330,1,0,0:2:0:0:
173,90,22498,1,0,0:2:0:0:
108,115,22666,1,0,0:2:0:0:
103,125,22750,1,0,0:2:0:0:
229,24,22919,5,0,0:2:0:0:
297,89,23087,1,0,0:2:0:0:
306,94,23171,1,0,0:2:0:0:
396,102,23340,1,0,0:2:0:0:
409,101,23424,1,0,0:2:0:0:
420,99,23508,1,0,0:2:0:0:
283,283,23930,5,6,0:2:0:0:
203,235,24098,1,0,0:2:0:0:
183,226,24182,1,0,0:2:0:0:
160,227,24266,1,8,0:2:0:0:
278,208,24435,1,0,0:2:0:0:
297,194,24519,1,0,0:2:0:0:
308,174,24603,1,0,0:2:0:0:
208,150,24771,5,0,0:2:0:0:
181,127,24855,1,2,0:2:0:0:
151,109,24940,1,10,0:2:0:0:
118,97,25024,1,2,0:2:0:0:
84,91,25108,1,2,0:2:0:0:
49,91,25192,1,2,0:2:0:0:
15,97,25276,1,2,0:2:0:0:
208,54,25445,5,0,0:2:0:0:
241,43,25529,1,0,0:2:0:0:
264,24,25613,1,10,0:2:0:0:
370,115,25781,5,0,0:2:0:0:
339,110,25865,1,0,0:2:0:0:
308,96,25950,1,2,0:2:0:0:
215,59,26118,5,0,0:2:0:0:
248,48,26202,1,0,0:2:0:0:
271,29,26286,1,10,0:2:0:0:
372,123,26455,5,0,0:2:0:0:
341,118,26539,1,0,0:2:0:0:
310,104,26623,1,2,0:2:0:0:
314,130,26707,1,0,0:2:0:0:
312,153,26791,1,0,0:2:0:0:
224,172,26960,5,10,0:2:0:0:
239,189,27044,1,0,0:2:0:0:
247,207,27128,1,0,0:2:0:0:
329,236,27296,1,2,0:2:0:0:
256,284,27465,1,2,0:2:0:0:
279,294,27549,1,0,0:2:0:0:
297,312,27633,1,8,0:2:0:0:
178,302,27801,1,2,0:2:0:0:
120,235,27970,5,2,0:2:0:0:
58,161,28138,2,0,L|40:36,1,105.000004005432,2|8,0:2|0:2,0:2:0:0:
121,12,28475,1,0,0:2:0:0:
175,89,28643,5,0,0:2:0:0:
187,83,28727,1,0,0:2:0:0:
200,81,28811,1,0,0:2:0:0:
217,85,28896,1,2,0:2:0:0:
238,97,28980,1,10,0:2:0:0:
273,108,29064,1,2,0:2:0:0:
315,104,29148,1,2,0:2:0:0:
340,79,29232,1,2,0:2:0:0:
348,34,29316,6,0,B|381:15|381:15|434:31,1,78.7500030040742,2|0,0:2|0:2,0:2:0:0:
429,34,29485,1,0,0:2:0:0:
453,144,29653,6,0,B|437:141|426:115|426:115|412:140|380:151,1,78.7500030040742,10|0,0:2|0:2,0:2:0:0:
390,144,29821,1,0,0:2:0:0:
397,247,29990,6,0,P|422:228|485:239,1,78.7500030040742,2|0,0:2|0:2,0:2:0:0:
477,235,30158,1,0,0:2:0:0:
479,339,30326,6,0,P|445:332|397:324,1,78.7500030040742,10|0,0:2|0:2,0:2:0:0:
396,332,30495,1,0,0:2:0:0:
296,348,30663,5,2,0:2:0:0:
288,331,30747,1,0,0:2:0:0:
206,305,30916,1,2,0:2:0:0:
211,289,31000,1,8,0:2:0:0:
289,245,31168,1,2,0:2:0:0:
278,224,31252,1,0,0:2:0:0:
268,205,31336,1,2,0:2:0:0:
180,208,31505,1,0,0:2:0:0:
126,140,31673,1,10,0:2:0:0:
43,174,31842,1,2,0:2:0:0:
8,158,31926,1,2,0:2:0:0:
8,158,32178,5,0,0:2:0:0:
55,247,32347,1,10,0:2:0:0:
55,333,32515,1,0,0:2:0:0:
42,340,32599,1,0,0:2:0:0:
31,348,32683,1,2,0:2:0:0:
55,247,32852,1,0,0:2:0:0:
142,277,33020,2,0,P|171:297|207:327,2,52.5000020027161,10|0|0,0:2|0:2|0:2,0:2:0:0:
262,276,33357,5,2,0:2:0:0:
262,276,33441,1,0,0:2:0:0:
262,276,33525,1,0,0:2:0:0:
340,241,33693,1,10,0:2:0:0:
340,241,33777,1,0,0:2:0:0:
340,241,33862,1,0,0:2:0:0:
385,161,34030,5,2,0:2:0:0:
374,152,34114,1,8,0:2:0:0:
359,146,34198,1,0,0:2:0:0:
336,145,34282,1,0,0:2:0:0:
307,158,34367,1,10,0:2:0:0:
276,171,34451,1,0,0:2:0:0:
236,167,34535,1,0,0:2:0:0:
198,147,34619,1,0,0:2:0:0:
185,110,34703,1,6,0:2:0:0:
44,174,35040,5,8,0:2:0:0:
54,185,35124,1,0,0:2:0:0:
61,271,35292,1,0,0:2:0:0:
55,281,35377,1,0,0:2:0:0:
141,229,35545,1,2,0:2:0:0:
157,240,35629,1,2,0:2:0:0:
167,259,35713,1,10,0:2:0:0:
190,236,35798,1,2,0:2:0:0:
219,222,35882,1,2,0:2:0:0:
257,223,35966,1,2,0:2:0:0:
296,246,36050,5,2,0:2:0:0:
380,308,36218,1,0,0:2:0:0:
442,243,36387,1,10,0:2:0:0:
369,185,36555,1,0,0:2:0:0:
380,308,36723,5,2,0:2:0:0:
512,301,36892,1,0,0:2:0:0:
509,179,37060,1,10,0:2:0:0:
369,185,37228,1,0,0:2:0:0:
380,308,37397,5,2,0:2:0:0:
338,310,37481,1,2,0:2:0:0:
298,314,37565,1,0,0:2:0:0:
132,308,37733,5,10,0:2:0:0:
174,310,37818,1,2,0:2:0:0:
214,314,37902,1,0,0:2:0:0:
253,239,38070,5,2,0:2:0:0:
259,205,38154,1,0,0:2:0:0:
266,166,38238,1,2,0:2:0:0:
273,127,38323,1,8,0:2:0:0:
164,131,38491,5,0,0:2:0:0:
167,114,38575,1,10,0:2:0:0:
170,94,38659,1,0,0:2:0:0:
174,75,38743,5,2,0:2:0:0:
51,93,38912,5,0,0:2:0:0:
55,105,38996,1,0,0:2:0:0:
61,115,39080,2,0,L|82:163,2,52.5000020027161,10|0|0,0:2|0:2|0:2,0:2:0:0:
155,208,39417,5,0,0:2:0:0:
168,206,39501,1,0,0:2:0:0:
186,210,39585,1,0,0:2:0:0:
204,227,39669,1,2,0:2:0:0:
230,250,39754,1,10,0:2:0:0:
269,256,39838,1,2,0:2:0:0:
311,247,39922,1,2,0:2:0:0:
342,223,40006,1,10,0:2:0:0:
355,181,40090,6,0,B|406:154|406:154|440:157,1,78.7500030040742,4|0,0:2|0:2,0:2:0:0:
436,161,40259,1,2,0:2:0:0:
512,252,40427,6,0,B|487:246|473:225|473:225|449:233|427:228,1,78.7500030040742,8|0,0:2|0:2,0:2:0:0:
434,236,40595,1,2,0:2:0:0:
359,328,40764,6,0,P|383:312|443:311,1,78.7500030040742,0|0,0:2|0:2,0:2:0:0:
439,317,40932,1,2,0:2:0:0:
284,364,41100,6,0,L|193:343,1,78.7500030040742,8|0,0:2|0:2,0:2:0:0:
198,353,41269,1,2,0:2:0:0:
214,203,41437,6,0,B|163:176|163:176|129:179,1,78.7500030040742,4|0,0:2|0:2,0:2:0:0:
133,183,41605,1,2,0:2:0:0:
46,235,41774,6,0,B|71:241|85:262|85:262|109:254|131:259,1,78.7500030040742,8|0,0:2|0:2,0:2:0:0:
124,251,41942,1,2,0:2:0:0:
119,336,42110,6,0,P|95:352|35:353,1,78.7500030040742,0|0,0:2|0:2,0:2:0:0:
39,347,42279,1,2,0:2:0:0:
198,353,42447,6,0,L|289:374,1,78.7500030040742,8|0,0:2|0:2,0:2:0:0:
284,364,42615,1,2,0:2:0:0:
363,297,42784,6,0,L|378:247,1,52.5000020027161,4|0,0:2|0:2,0:2:0:0:
376,309,42952,2,0,L|362:360,1,52.5000020027161,0|0,0:2|0:2,0:2:0:0:
371,307,43120,2,0,L|321:293,1,52.5000020027161,8|0,0:2|0:2,0:2:0:0:
383,294,43289,2,0,L|434:309,1,52.5000020027161,0|8,0:2|0:2,0:2:0:0:
448,251,43457,6,0,L|434:302,1,52.5000020027161,0|8,0:2|0:2,0:2:0:0:
427,382,43625,2,0,L|442:332,1,52.5000020027161,0|0,0:2|0:2,0:2:0:0:
512,329,43794,2,0,L|461:314,1,52.5000020027161,8|0,0:2|0:2,0:2:0:0:
386,308,43962,2,0,L|436:322,1,52.5000020027161,0|0,0:2|0:2,0:2:0:0:
499,257,44130,6,0,L|432:240,3,52.5000020027161,2|0|0|0,0:2|0:2|0:2|0:2,0:2:0:0:
438,179,44467,2,0,L|488:166,3,52.5000020027161,8|0|0|0,0:2|0:2|0:2|0:2,0:2:0:0:
500,98,44804,5,2,0:2:0:0:
481,91,44888,1,0,0:2:0:0:
463,85,44972,1,0,0:2:0:0:
445,79,45056,1,0,0:2:0:0:
425,72,45140,5,10,0:2:0:0:
438,64,45225,1,0,0:2:0:0:
449,59,45309,1,0,0:2:0:0:
459,53,45393,1,0,0:2:0:0:
469,47,45477,5,6,0:2:0:0:
222,156,46150,5,2,0:2:0:0:
224,224,46319,1,0,0:2:0:0:
292,224,46487,1,2,0:2:0:0:
293,156,46655,1,2,0:2:0:0:
222,156,47497,5,2,0:2:0:0:
224,224,47666,1,0,0:2:0:0:
292,224,47834,1,2,0:2:0:0:
92,75,48171,5,2,0:2:0:0:
293,156,48844,5,2,0:2:0:0:
292,224,49012,1,0,0:2:0:0:
224,224,49181,1,2,0:2:0:0:
222,156,49349,1,0,0:2:0:0:
293,156,49517,1,2,0:2:0:0:
53,347,50359,5,0,0:2:0:0:
143,335,50696,1,0,0:2:0:0:
135,246,50864,1,2,0:2:0:0:
292,224,51538,5,2,0:2:0:0:
293,156,51706,1,0,0:2:0:0:
222,156,51874,1,2,0:2:0:0:
224,224,52043,1,2,0:2:0:0:
292,224,52884,5,2,0:2:0:0:
293,156,53053,1,0,0:2:0:0:
222,156,53221,1,2,0:2:0:0:
471,258,53558,5,2,0:2:0:0:
222,156,54231,5,2,0:2:0:0:
224,224,54399,1,0,0:2:0:0:
292,224,54568,1,2,0:2:0:0:
293,156,54736,1,0,0:2:0:0:
222,156,54904,6,0,L|163:152,7,35,2|0|0|0|0|0|0|0,0:2|0:2|0:2|0:2|0:2|0:2|0:2|0:2,0:2:0:0:
177,145,55578,1,2,0:2:0:0:
156,142,55662,1,0,0:2:0:0:
133,139,55746,1,0,0:2:0:0:
112,137,55830,1,0,0:2:0:0:
90,135,55914,2,0,L|47:131,1,35,2|0,0:2|0:2,0:2:0:0:
43,118,56083,2,0,L|95:123,1,35,2|0,0:2|0:2,0:2:0:0:
23,104,56251,6,0,L|28:261,1,140,6|8,0:2|0:2,0:2:0:0:
222,156,56924,5,2,0:2:0:0:
224,224,57093,1,0,0:2:0:0:
292,224,57261,1,10,0:2:0:0:
293,156,57429,1,2,0:2:0:0:
147,157,57766,5,0,0:2:0:0:
146,228,57934,1,10,0:2:0:0:
78,230,58103,1,0,0:2:0:0:
222,156,58271,5,2,0:2:0:0:
224,224,58440,1,0,0:2:0:0:
292,224,58608,1,10,0:2:0:0:
489,104,58945,6,0,L|484:243,1,140,2|8,0:2|0:2,0:2:0:0:
222,156,59618,5,2,0:2:0:0:
224,224,59786,1,0,0:2:0:0:
292,224,59955,1,10,0:2:0:0:
293,156,60123,1,0,0:2:0:0:
364,146,60291,5,2,0:2:0:0:
391,211,60460,1,0,0:2:0:0:
365,274,60628,1,10,0:2:0:0:
385,337,60796,1,0,0:2:0:0:
330,370,60965,5,2,0:2:0:0:
447,366,61133,1,0,0:2:0:0:
447,366,61470,1,0,0:2:0:0:
484,243,61638,6,0,L|489:104,1,140,6|8,0:2|0:2,0:2:0:0:
293,156,62311,5,2,0:2:0:0:
292,224,62480,1,0,0:2:0:0:
224,224,62648,1,10,0:2:0:0:
222,156,62816,1,2,0:2:0:0:
131,253,62985,6,0,L|127:114,1,140,6|8,0:2|0:2,0:2:0:0:
293,156,63658,5,2,0:2:0:0:
292,224,63826,1,0,0:2:0:0:
224,224,63995,1,10,0:2:0:0:
380,253,64331,6,0,L|385:114,1,140,6|8,0:2|0:2,0:2:0:0:
293,156,65005,5,2,0:2:0:0:
292,224,65173,1,0,0:2:0:0:
224,224,65341,1,10,0:2:0:0:
222,156,65510,1,0,0:2:0:0:
146,105,65678,6,0,L|103:99,1,35,2|0,0:2|0:2,0:2:0:0:
105,88,65847,2,0,L|151:97,1,35,0|0,0:2|0:2,0:2:0:0:
281,84,66015,6,0,L|237:74,1,35,0|0,0:2|0:2,0:2:0:0:
193,47,66183,2,0,L|238:56,1,35,2|0,0:2|0:2,0:2:0:0:
420,113,66352,6,0,L|374:102,1,35,2|0,0:2|0:2,0:2:0:0:
332,33,66520,2,0,L|381:46,1,35,0|0,0:2|0:2,0:2:0:0:
492,195,66688,6,0,L|451:185,1,35,0|0,0:2|0:2,0:2:0:0:
380,115,66857,2,0,L|420:124,1,35,2|0,0:2|0:2,0:2:0:0:
418,251,67025,5,6,0:2:0:0:
388,233,67109,1,0,0:2:0:0:
353,234,67193,1,0,0:2:0:0:
325,253,67277,1,0,0:2:0:0:
311,285,67362,1,2,0:2:0:0:
316,319,67446,1,0,0:2:0:0:
339,345,67530,2,0,P|309:330|294:330,1,35,0|0,0:2|0:2,0:2:0:0:
62,252,67698,5,2,0:2:0:0:
99,229,67782,1,0,0:2:0:0:
143,230,67867,1,2,0:2:0:0:
178,254,67951,1,0,0:2:0:0:
195,294,68035,1,2,0:2:0:0:
189,337,68119,1,0,0:2:0:0:
160,369,68203,2,0,P|178:361|203:358,1,35,2|0,0:2|0:2,0:2:0:0:
255,220,68372,6,0,L|264:102,1,105.000004005432,6|0,0:2|0:2,0:2:0:0:
271,104,68624,1,8,0:2:0:0:
318,39,68792,1,0,0:2:0:0:
315,26,68877,1,8,0:2:0:0:
397,26,69045,6,0,L|412:141,1,105.000004005432,2|0,0:2|0:2,0:2:0:0:
471,177,69297,2,0,L|449:301,1,105.000004005432,10|0,0:2|0:2,0:2:0:0:
489,343,69550,1,10,0:2:0:0:
363,377,69718,5,2,0:2:0:0:
367,355,69803,1,0,0:2:0:0:
370,335,69887,1,0,0:2:0:0:
372,315,69971,1,8,0:2:0:0:
288,284,70139,1,0,0:2:0:0:
283,264,70223,1,8,0:2:0:0:
189,367,70392,6,0,B|199:332|199:332|174:252,1,105.000004005432,2|0,0:2|0:2,0:2:0:0:
116,223,70644,2,0,B|134:153|134:153|165:115,1,105.000004005432,10|0,0:2|0:2,0:2:0:0:
118,64,70897,1,10,0:2:0:0:
211,14,71065,5,2,0:2:0:0:
262,81,71233,1,0,0:2:0:0:
257,99,71318,1,8,0:2:0:0:
337,41,71486,1,0,0:2:0:0:
353,36,71570,1,8,0:2:0:0:
368,32,71654,1,0,0:2:0:0:
384,29,71738,6,0,B|391:50|423:65|423:65|391:79|384:114,1,105.000004005432,2|0,0:2|0:2,0:2:0:0:
457,140,71991,2,0,B|455:162|423:176|423:176|454:190|462:212,1,105.000004005432,10|0,0:2|0:2,0:2:0:0:
395,253,72243,1,10,0:2:0:0:
294,277,72412,5,2,0:2:0:0:
257,265,72496,1,0,0:2:0:0:
222,254,72580,1,0,0:2:0:0:
189,245,72664,1,8,0:2:0:0:
104,284,72833,1,0,0:2:0:0:
90,261,72917,1,8,0:2:0:0:
77,238,73001,1,0,0:2:0:0:
64,216,73085,5,2,0:2:0:0:
151,177,73254,1,0,0:2:0:0:
114,159,73338,2,0,B|93:141|93:141|70:57,1,105.000004005432,10|0,0:2|0:2,0:2:0:0:
174,98,73590,2,0,L|158:39,1,52.5000020027161,10|0,0:2|0:2,0:2:0:0:
231,19,73759,5,2,0:2:0:0:
297,90,73927,1,0,0:2:0:0:
292,112,74011,1,8,0:2:0:0:
369,45,74179,1,0,0:2:0:0:
387,33,74264,1,8,0:2:0:0:
433,106,74432,6,0,L|410:240,1,122.500001168251,2|0,0:2|0:2,0:2:0:0:
339,239,74684,2,0,L|316:373,1,122.500001168251,10|0,0:2|0:2,0:2:0:0:
252,381,74937,1,10,0:2:0:0:
76,322,75105,6,0,B|92:236|92:236|99:188,1,122.500001168251,2|0,0:2|0:2,0:2:0:0:
168,186,75358,2,0,L|191:52,1,122.500001168251,10|0,0:2|0:2,0:2:0:0:
252,33,75610,1,10,0:2:0:0:
433,106,75779,6,0,L|410:240,1,122.500001168251,2|0,0:2|0:2,0:2:0:0:
339,239,76031,2,0,L|316:373,1,122.500001168251,10|0,0:2|0:2,0:2:0:0:
252,381,76284,1,10,0:2:0:0:
198,295,76452,5,2,0:2:0:0:
235,216,76620,1,0,0:2:0:0:
245,200,76704,1,8,0:2:0:0:
185,137,76873,1,0,0:2:0:0:
176,119,76957,1,8,0:2:0:0:
80,76,77125,5,2,0:2:0:0:
62,94,77210,2,0,L|77:178,1,61.2500005841255,0|0,0:2|0:2,0:2:0:0:
117,207,77378,2,0,L|94:339,1,122.500001168251,10|0,0:2|0:2,0:2:0:0:
155,371,77630,1,10,0:2:0:0:
242,327,77799,6,0,L|323:315,1,61.2500005841255,2|0,0:2|0:2,0:2:0:0:
369,329,77967,1,0,0:2:0:0:
379,342,78051,2,0,L|312:355,1,61.2500005841255,2|8,0:2|0:2,0:2:0:0:
460,357,78220,1,0,0:2:0:0:
452,343,78304,2,0,L|385:356,1,61.2500005841255,2|0,0:2|0:2,0:2:0:0:
509,257,78472,6,0,L|435:248,1,61.2500005841255,2|8,0:2|0:2,0:2:0:0:
398,202,78640,1,0,0:2:0:0:
366,219,78725,2,0,L|291:209,1,61.2500005841255,2|8,0:2|0:2,0:2:0:0:
228,208,78893,1,0,0:2:0:0:
211,175,78977,2,0,L|122:161,1,61.2500005841255,2|0,0:2|0:2,0:2:0:0:
105,101,79145,5,6,0:2:0:0:
177,50,79314,1,0,0:2:0:0:
213,37,79398,1,8,0:2:0:0:
278,96,79566,1,0,0:2:0:0:
311,118,79650,1,8,0:2:0:0:
374,6,79819,6,0,B|401:40|401:40|424:174,1,140,2|0,0:2|0:2,0:2:0:0:
501,192,80071,2,0,B|464:219|464:219|432:333,1,140,10|0,0:2|0:2,0:2:0:0:
361,372,80324,1,10,0:2:0:0:
258,293,80492,5,2,0:2:0:0:
269,255,80576,1,0,0:2:0:0:
281,214,80660,1,0,0:2:0:0:
294,179,80745,1,8,0:2:0:0:
205,134,80913,1,0,0:2:0:0:
192,99,80997,1,8,0:2:0:0:
86,48,81166,6,0,L|77:205,1,140,2|0,0:2|0:2,0:2:0:0:
160,197,81418,2,0,L|176:357,1,140,10|0,0:2|0:2,0:2:0:0:
100,384,81671,1,10,0:2:0:0:
252,384,81839,5,2,0:2:0:0:
302,303,82007,1,0,0:2:0:0:
343,295,82091,1,8,0:2:0:0:
381,368,82260,1,0,0:2:0:0:
419,367,82344,1,8,0:2:0:0:
460,367,82428,1,0,0:2:0:0:
501,371,82512,6,0,B|484:343|458:323|458:323|486:289|483:245,1,140,2|0,0:2|0:2,0:2:0:0:
410,209,82765,2,0,B|421:178|453:161|453:161|429:129|428:83,1,140,10|0,0:2|0:2,0:2:0:0:
511,47,83017,1,10,0:2:0:0:
368,3,83186,5,2,0:2:0:0:
293,78,83354,1,0,0:2:0:0:
309,113,83438,1,8,0:2:0:0:
225,160,83606,1,0,0:2:0:0:
212,198,83691,1,8,0:2:0:0:
159,102,83859,5,2,0:2:0:0:
73,157,84027,1,0,0:2:0:0:
93,190,84111,2,0,B|108:226|108:226|118:348,1,140,10|0,0:2|0:2,0:2:0:0:
40,363,84364,1,10,0:2:0:0:
196,337,84532,5,6,0:2:0:0:
232,340,84617,1,0,0:2:0:0:
270,330,84701,1,0,0:2:0:0:
296,300,84785,1,0,0:2:0:0:
333,280,84869,1,8,0:2:0:0:
377,276,84953,1,0,0:2:0:0:
414,295,85037,1,0,0:2:0:0:
429,334,85122,1,0,0:2:0:0:
413,374,85206,6,0,L|438:236,1,140,2|0,0:2|0:2,0:2:0:0:
362,185,85458,2,0,L|343:24,1,140,10|0,0:2|0:2,0:2:0:0:
427,1,85711,1,10,0:2:0:0:
265,94,85879,5,6,0:2:0:0:
234,110,85963,1,0,0:2:0:0:
200,111,86047,1,0,0:2:0:0:
168,96,86132,1,0,0:2:0:0:
148,68,86216,1,8,0:2:0:0:
45,49,86384,5,0,0:2:0:0:
69,81,86468,2,0,L|84:168,1,70,8|2,0:2|0:2,0:2:0:0:
146,199,86637,1,8,0:2:0:0:
111,223,86721,2,0,L|99:302,1,70,0|2,0:2|0:2,0:2:0:0:
8,313,86889,1,8,0:2:0:0:
24,345,86973,1,0,0:2:0:0:
42,380,87057,1,2,0:2:0:0:
161,347,87226,5,6,0:2:0:0:
191,330,87310,1,0,0:2:0:0:
225,329,87394,1,0,0:2:0:0:
257,344,87478,1,0,0:2:0:0:
277,372,87562,1,8,0:2:0:0:
390,381,87731,5,0,0:2:0:0:
376,344,87815,2,0,L|391:257,1,70,8|0,0:2|0:2,0:2:0:0:
313,213,87983,1,8,0:2:0:0:
322,180,88067,1,0,0:2:0:0:
332,145,88152,1,0,0:2:0:0:
343,113,88236,2,0,L|364:46,1,70,8|0,0:2|0:2,0:2:0:0:
279,7,88404,1,0,0:2:0:0:
215,81,88573,5,2,0:2:0:0:
204,113,88657,1,0,0:2:0:0:
177,134,88741,1,0,0:2:0:0:
142,134,88825,1,0,0:2:0:0:
115,113,88909,1,8,0:2:0:0:
105,80,88993,1,0,0:2:0:0:
116,48,89078,2,0,P|103:97|73:130,1,70,0|0,0:2|0:2,0:2:0:0:
175,302,89246,5,2,0:2:0:0:
161,260,89330,1,0,0:2:0:0:
127,234,89414,1,0,0:2:0:0:
83,234,89498,1,0,0:2:0:0:
50,260,89583,1,8,0:2:0:0:
37,302,89667,1,0,0:2:0:0:
51,342,89751,2,0,P|39:300|20:272,1,70,0|0,0:2|0:2,0:2:0:0:
11,187,89919,5,6,0:2:0:0:
