osu file format v14

[General]
AudioFilename: audio.mp3
AudioLeadIn: 0
PreviewTime: 73386
Countdown: 1
SampleSet: None
StackLeniency: 0.7
Mode: 0
LetterboxInBreaks: 0
WidescreenStoryboard: 1

[Editor]
DistanceSpacing: 1.5
BeatDivisor: 4
GridSize: 4
TimelineZoom: 1.9

[Metadata]
Title:Identic Conflict
TitleUnicode:Identic Conflict
Artist:bbn
ArtistUnicode:bbn
Creator:-Urushihara-
Version:[CS3.8]
Source:
Tags:
BeatmapID:1857706
BeatmapSetID:875707

[Difficulty]
HPDrainRate:4
CircleSize:3.8
OverallDifficulty:9
ApproachRate:9
SliderMultiplier:1.4
SliderTickRate:1

[Events]
//Background and Video events
0,0,"bg.jpg",0,0
//Break Periods
2,68025,72955
2,206564,210146
2,232519,242000
//Storyboard Layer 0 (Background)
//Storyboard Layer 1 (Fail)
//Storyboard Layer 2 (Pass)
//Storyboard Layer 3 (Foreground)
//Storyboard Sound Samples

[TimingPoints]
2769,337.078651685393,4,1,0,60,1,0
4117,-100,4,1,0,40,0,0
7656,-100,4,1,0,30,0,0
8499,-100,4,1,0,5,0,0
9510,-100,4,1,0,60,0,0
9847,-100,4,1,0,5,0,0
10858,-100,4,1,0,60,0,0
11195,-100,4,1,0,5,0,0
12207,-100,4,1,0,60,0,0
12375,-100,4,1,0,10,0,0
13049,-100,4,1,0,60,0,0
18948,-66.6666666666667,4,1,0,80,0,0
19370,-100,4,1,0,60,0,0
20297,-66.6666666666667,4,1,0,80,0,0
20718,-100,4,1,0,60,0,0
21645,-66.6666666666667,4,1,0,60,0,0
22151,-100,4,1,0,60,0,0
24510,-100,4,1,0,10,0,0
24679,-100,4,1,0,60,0,0
25774,-100,4,1,0,40,0,0
27038,-100,4,1,0,60,0,0
32431,-100,4,1,0,40,0,0
33695,-100,4,1,0,60,0,0
35971,-100,4,1,0,30,0,0
36476,-100,4,1,0,60,0,0
44903,-200,4,1,0,60,0,0
45409,-100,4,1,0,60,0,0
46252,-133.333333333333,4,1,0,60,0,0
48190,-66.6666666666667,4,1,0,60,0,0
50297,-66.6666666666667,4,1,0,60,0,0
50549,-66.6666666666667,4,1,0,60,0,0
54004,-66.6666666666667,4,1,0,60,0,0
56280,-66.6666666666667,4,1,0,30,0,0
57038,-66.6666666666667,4,1,0,60,0,0
64285,-66.6666666666667,4,1,0,30,0,0
65128,-66.6666666666667,4,1,0,60,0,0
73555,-66.6666666666667,4,1,0,45,0,0
82993,-66.6666666666667,4,1,0,20,0,0
84342,-66.6666666666667,4,1,0,50,0,0
95212,-66.6666666666667,4,1,0,50,0,1
96139,-66.6666666666667,4,1,0,50,0,0
96476,-50,4,1,0,50,0,1
116701,-100,4,1,0,50,0,0
128499,-50,4,1,0,50,0,0
129173,-50,4,1,0,50,0,0
139285,-50,4,1,0,20,0,0
139960,-50,4,1,0,50,0,0
144679,-50,4,1,0,20,0,0
145353,-50,4,1,0,50,0,0
161533,-40,4,1,0,50,0,0
161870,-100,4,1,0,50,0,0
163218,-100,4,1,0,50,0,0
184791,-133.333333333333,4,1,0,50,0,0
210746,-66.6666666666667,4,1,0,50,0,0

[HitObjects]
184,252,2769,5,0,0:0:0:0:
348,84,4117,1,0,0:0:0:0:
124,176,5465,1,0,0:0:0:0:
360,220,6813,1,0,0:0:0:0:
104,216,7656,5,0,0:0:0:0:
156,132,7993,1,0,0:0:0:0:
175,112,8162,2,0,P|248:64|316:48,1,140
360,320,9510,6,0,P|316:288|280:192,1,140
476,56,10858,2,0,L|312:88,1,140
140,312,12207,6,0,P|112:264|108:248,1,70
112,232,12460,1,0,0:0:0:0:
123,199,12544,1,0,0:0:0:0:
145,171,12628,1,0,0:0:0:0:
173,152,12712,1,0,0:0:0:0:
207,142,12797,1,0,0:0:0:0:
242,143,12881,6,0,P|304:128|328:112,1,70
444,40,13386,5,0,0:0:0:0:
444,40,13555,2,0,P|452:92|436:180,1,140
360,348,14229,2,0,L|272:232,1,140
164,96,14903,6,2,P|216:112|316:104,1,140
32,32,15577,2,0,L|16:200,1,140
0,288,16083,1,0,0:0:0:0:
272,216,16252,6,0,P|208:204|172:132,1,140
368,112,16926,2,0,L|416:248,1,140
460,360,17431,1,0,0:0:0:0:
208,272,17600,6,0,L|160:128,1,140
328,44,18274,2,0,P|240:52|212:8,1,140
214,17,18780,1,0,0:0:0:0:
388,144,18948,6,0,L|360:360,1,210.000008010865
361,352,19622,1,0,0:0:0:0:
288,132,19791,1,0,0:0:0:0:
288,132,19960,2,0,L|200:164,1,70
144,344,20297,6,0,L|76:132,1,210.000008010865
79,144,20971,1,0,0:0:0:0:
272,184,21139,1,0,0:0:0:0:
272,184,21308,2,0,L|300:100,1,70
396,288,21645,6,0,L|184:328,1,210.000008010865
189,326,22319,1,0,0:0:0:0:
268,204,22488,1,0,0:0:0:0:
268,204,22656,2,0,L|224:124,1,70
148,68,22993,6,0,P|244:68|284:12,1,140
256,192,23499,12,0,24510,0:0:0:0:
188,200,24679,5,0,0:0:0:0:
188,200,24847,1,0,0:0:0:0:
214,228,24931,1,0,0:0:0:0:
248,244,25015,1,0,0:0:0:0:
286,247,25099,1,0,0:0:0:0:
323,235,25184,1,0,0:0:0:0:
352,211,25268,1,0,0:0:0:0:
371,178,25352,1,0,0:0:0:0:
376,140,25436,1,0,0:0:0:0:
367,103,25521,1,0,0:0:0:0:
344,71,25605,1,0,0:0:0:0:
312,51,25690,1,0,0:0:0:0:
312,51,25774,5,0,0:0:0:0:
268,51,25858,1,0,0:0:0:0:
312,86,25942,1,0,0:0:0:0:
268,86,26027,1,0,0:0:0:0:
312,121,26111,1,0,0:0:0:0:
267,121,26195,1,0,0:0:0:0:
312,156,26280,1,0,0:0:0:0:
268,156,26364,1,0,0:0:0:0:
312,191,26448,1,0,0:0:0:0:
268,191,26532,1,0,0:0:0:0:
312,226,26617,1,0,0:0:0:0:
268,226,26701,1,0,0:0:0:0:
312,261,26785,1,0,0:0:0:0:
268,261,26870,1,0,0:0:0:0:
312,296,26954,1,0,0:0:0:0:
267,296,27038,5,0,0:0:0:0:
236,312,27122,1,0,0:0:0:0:
202,319,27206,1,0,0:0:0:0:
167,318,27290,1,0,0:0:0:0:
133,307,27375,1,0,0:0:0:0:
104,288,27459,1,0,0:0:0:0:
81,263,27543,1,0,0:0:0:0:
65,232,27627,1,0,0:0:0:0:
57,198,27712,1,0,0:0:0:0:
59,163,27796,1,0,0:0:0:0:
70,129,27880,1,0,0:0:0:0:
89,100,27964,1,0,0:0:0:0:
116,76,28049,2,0,P|148:56|172:48,2,35
164,176,28386,5,0,0:0:0:0:
183,204,28470,1,0,0:0:0:0:
213,222,28554,1,0,0:0:0:0:
247,227,28638,1,0,0:0:0:0:
280,218,28723,1,0,0:0:0:0:
307,195,28807,1,0,0:0:0:0:
324,164,28892,6,0,L|400:40,1,140
176,180,29398,2,0,L|240:248,1,70
244,252,29735,1,0,0:0:0:0:
268,277,29819,1,0,0:0:0:0:
298,294,29903,1,0,0:0:0:0:
332,303,29987,1,0,0:0:0:0:
367,302,30072,1,0,0:0:0:0:
400,291,30156,1,0,0:0:0:0:
429,272,30240,1,0,0:0:0:0:
452,246,30324,1,0,0:0:0:0:
466,214,30409,1,0,0:0:0:0:
472,180,30493,1,0,0:0:0:0:
468,145,30577,1,0,0:0:0:0:
454,113,30661,1,0,0:0:0:0:
432,88,30746,2,0,P|412:56|408:48,2,35
340,196,31083,5,0,0:0:0:0:
312,217,31167,1,0,0:0:0:0:
279,228,31251,1,0,0:0:0:0:
244,226,31335,1,0,0:0:0:0:
213,212,31420,1,0,0:0:0:0:
188,187,31504,1,0,0:0:0:0:
174,155,31588,1,0,0:0:0:0:
173,120,31672,1,0,0:0:0:0:
173,86,31757,1,0,0:0:0:0:
156,56,31841,1,0,0:0:0:0:
126,38,31925,1,0,0:0:0:0:
91,38,32010,1,0,0:0:0:0:
61,55,32094,1,0,0:0:0:0:
43,85,32178,1,0,0:0:0:0:
44,120,32263,2,0,L|44:176,1,35
68,200,32431,5,0,0:0:0:0:
74,243,32515,1,0,0:0:0:0:
103,196,32599,1,0,0:0:0:0:
108,239,32684,1,0,0:0:0:0:
138,191,32768,1,0,0:0:0:0:
143,236,32852,1,0,0:0:0:0:
173,187,32937,1,0,0:0:0:0:
178,231,33021,1,0,0:0:0:0:
207,183,33105,1,0,0:0:0:0:
213,226,33189,1,0,0:0:0:0:
242,178,33274,1,0,0:0:0:0:
247,222,33358,1,0,0:0:0:0:
277,174,33442,1,0,0:0:0:0:
282,218,33527,1,0,0:0:0:0:
312,172,33611,1,0,0:0:0:0:
346,167,33695,5,0,0:0:0:0:
379,177,33779,1,0,0:0:0:0:
405,200,33863,1,0,0:0:0:0:
419,232,33948,1,0,0:0:0:0:
419,266,34032,1,0,0:0:0:0:
405,298,34116,1,0,0:0:0:0:
378,320,34200,1,0,0:0:0:0:
345,330,34285,1,0,0:0:0:0:
310,325,34369,1,0,0:0:0:0:
276,312,34453,1,0,0:0:0:0:
251,288,34538,1,0,0:0:0:0:
231,260,34622,1,0,0:0:0:0:
223,227,34706,1,0,0:0:0:0:
229,192,34791,1,0,0:0:0:0:
248,164,34875,2,0,P|268:128|268:124,2,35
356,200,35128,5,0,0:0:0:0:
373,169,35212,1,0,0:0:0:0:
390,139,35296,1,0,0:0:0:0:
408,109,35380,1,0,0:0:0:0:
344,24,35465,6,0,L|276:152,1,140
192,240,35971,2,0,L|156:280,2,35
160,208,36224,2,0,L|106:210,2,35
147,165,36476,6,0,L|97:143,3,35
82,131,36813,1,0,0:0:0:0:
87,96,36897,1,0,0:0:0:0:
102,65,36981,1,0,0:0:0:0:
126,39,37065,1,0,0:0:0:0:
156,22,37150,1,0,0:0:0:0:
190,14,37234,1,0,0:0:0:0:
225,17,37318,1,0,0:0:0:0:
257,29,37402,5,0,0:0:0:0:
285,51,37487,1,0,0:0:0:0:
304,80,37571,1,0,0:0:0:0:
315,113,37655,1,0,0:0:0:0:
315,148,37739,1,0,0:0:0:0:
305,181,37824,1,0,0:0:0:0:
286,210,37908,1,0,0:0:0:0:
259,233,37993,2,0,P|224:264|223:269,1,35
156,331,38162,5,0,0:0:0:0:
138,306,38246,1,0,0:0:0:0:
127,278,38330,1,0,0:0:0:0:
123,248,38414,1,0,0:0:0:0:
126,217,38499,1,0,0:0:0:0:
136,189,38583,1,0,0:0:0:0:
152,163,38667,1,0,0:0:0:0:
174,142,38751,1,0,0:0:0:0:
200,127,38836,1,0,0:0:0:0:
229,118,38920,1,0,0:0:0:0:
259,117,39004,1,0,0:0:0:0:
289,122,39088,1,0,0:0:0:0:
317,134,39173,1,0,0:0:0:0:
341,152,39257,1,0,0:0:0:0:
361,180,39342,2,0,P|381:226|390:238,3,35
393,253,39679,5,0,0:0:0:0:
363,271,39763,1,0,0:0:0:0:
329,278,39847,1,0,0:0:0:0:
294,273,39931,1,0,0:0:0:0:
264,257,40016,1,0,0:0:0:0:
240,231,40100,1,0,0:0:0:0:
227,199,40184,1,0,0:0:0:0:
226,164,40268,1,0,0:0:0:0:
236,131,40353,1,0,0:0:0:0:
257,103,40437,1,0,0:0:0:0:
287,84,40521,1,0,0:0:0:0:
320,76,40605,1,0,0:0:0:0:
355,81,40690,1,0,0:0:0:0:
405,198,40858,5,0,0:0:0:0:
413,231,40942,1,0,0:0:0:0:
422,265,41026,1,0,0:0:0:0:
301,272,41195,5,0,0:0:0:0:
309,305,41279,1,0,0:0:0:0:
318,339,41363,1,0,0:0:0:0:
183,222,41533,5,0,0:0:0:0:
190,256,41617,1,0,0:0:0:0:
198,290,41701,1,0,0:0:0:0:
96,113,41870,5,0,0:0:0:0:
74,140,41954,1,0,0:0:0:0:
52,167,42038,1,0,0:0:0:0:
47,338,42207,5,0,0:0:0:0:
68,310,42291,1,0,0:0:0:0:
90,283,42375,1,0,0:0:0:0:
274,115,42544,5,0,0:0:0:0:
255,144,42628,1,0,0:0:0:0:
236,174,42712,1,0,0:0:0:0:
400,286,42881,5,0,0:0:0:0:
419,257,42965,1,0,0:0:0:0:
439,228,43049,1,0,0:0:0:0:
244,19,43218,5,0,0:0:0:0:
231,51,43302,1,0,0:0:0:0:
218,83,43386,1,0,0:0:0:0:
298,165,43555,5,0,0:0:0:0:
311,197,43639,1,0,0:0:0:0:
314,231,43723,1,0,0:0:0:0:
307,265,43807,1,0,0:0:0:0:
289,295,43892,1,0,0:0:0:0:
263,319,43976,1,0,0:0:0:0:
231,333,44060,1,0,0:0:0:0:
196,336,44144,1,0,0:0:0:0:
162,329,44229,1,0,0:0:0:0:
132,312,44313,1,0,0:0:0:0:
108,286,44397,1,0,0:0:0:0:
94,254,44481,1,0,0:0:0:0:
90,220,44566,1,0,0:0:0:0:
96,186,44650,1,0,0:0:0:0:
113,155,44734,1,0,0:0:0:0:
138,131,44819,1,0,0:0:0:0:
171,117,44903,6,0,P|221:98|271:57,1,105
357,226,45577,2,0,L|323:144,1,70
287,315,45915,2,0,P|340:337|372:333,1,70
236,211,46252,6,0,L|164:226,1,52.5000020027161
40,241,46589,1,0,0:0:0:0:
40,241,46673,1,0,0:0:0:0:
40,241,46757,1,0,0:0:0:0:
182,53,46926,1,0,0:0:0:0:
270,260,47094,5,0,0:0:0:0:
282,250,47178,1,0,0:0:0:0:
293,239,47262,1,0,0:0:0:0:
304,228,47346,1,0,0:0:0:0:
314,215,47431,1,0,0:0:0:0:
323,203,47515,1,0,0:0:0:0:
331,189,47599,1,0,0:0:0:0:
339,175,47683,1,0,0:0:0:0:
345,161,47768,1,0,0:0:0:0:
350,146,47852,1,0,0:0:0:0:
353,132,47937,2,0,P|364:85|369:58,1,52.5000020027161
38,95,48274,6,0,L|80:201,1,105.000004005432
320,273,48611,2,0,L|278:163,1,105.000004005432
234,13,48948,1,0,0:0:0:0:
234,13,49033,1,0,0:0:0:0:
234,13,49117,1,0,0:0:0:0:
457,237,49285,1,0,0:0:0:0:
457,237,49370,1,0,0:0:0:0:
457,237,49454,6,0,P|470:204|459:132,1,105.000004005432
338,11,49791,1,0,0:0:0:0:
241,219,49960,5,0,0:0:0:0:
218,213,50044,1,0,0:0:0:0:
198,203,50128,1,0,0:0:0:0:
179,189,50212,1,0,0:0:0:0:
165,173,50297,2,0,P|141:149|131:65,1,105.000004005432
313,0,50634,6,0,L|336:112,1,105.000004005432
357,284,50971,1,0,0:0:0:0:
170,89,51139,1,0,0:0:0:0:
454,128,51308,2,0,L|429:6,1,105.000004005432
216,222,51645,2,0,L|247:339,1,105.000004005432
267,98,51982,5,0,0:0:0:0:
230,85,52066,1,0,0:0:0:0:
192,80,52150,1,0,0:0:0:0:
154,82,52234,1,0,0:0:0:0:
116,91,52319,2,0,P|74:108|-5:107,1,105.000004005432
242,240,52656,5,0,0:0:0:0:
256,275,52740,1,0,0:0:0:0:
281,304,52824,1,0,0:0:0:0:
315,322,52908,1,0,0:0:0:0:
353,328,52993,1,0,0:0:0:0:
390,322,53077,1,0,0:0:0:0:
424,303,53161,1,0,0:0:0:0:
449,274,53245,1,0,0:0:0:0:
463,238,53330,2,0,L|448:133,1,105.000004005432
433,0,53667,5,0,0:0:0:0:
335,281,53836,1,0,0:0:0:0:
45,122,54004,6,0,L|184:115,1,105.000004005432
480,152,54342,2,0,L|252:165,1,210.000008010865
94,168,54847,1,0,0:0:0:0:
286,40,55016,1,0,0:0:0:0:
170,305,55184,1,0,0:0:0:0:
299,162,55353,5,0,0:0:0:0:
326,154,55437,1,0,0:0:0:0:
354,159,55521,1,0,0:0:0:0:
376,176,55605,1,0,0:0:0:0:
389,201,55690,1,0,0:0:0:0:
388,230,55774,1,0,0:0:0:0:
375,255,55858,1,0,0:0:0:0:
352,272,55942,1,0,0:0:0:0:
324,276,56027,1,0,0:0:0:0:
297,267,56111,1,0,0:0:0:0:
277,248,56195,1,0,0:0:0:0:
268,220,56280,5,0,0:0:0:0:
268,206,56364,1,0,0:0:0:0:
267,193,56448,1,0,0:0:0:0:
262,181,56532,1,0,0:0:0:0:
254,171,56617,1,0,0:0:0:0:
245,162,56701,1,0,0:0:0:0:
233,155,56785,1,0,0:0:0:0:
221,152,56869,1,0,0:0:0:0:
207,151,56954,1,0,0:0:0:0:
192,156,57038,6,0,P|128:168|8:60,1,210.000008010865
280,28,57544,2,0,L|380:112,1,105.000004005432
488,200,57881,1,0,0:0:0:0:
187,53,58049,5,0,0:0:0:0:
182,105,58133,1,0,0:0:0:0:
192,156,58217,1,0,0:0:0:0:
217,202,58301,1,0,0:0:0:0:
254,239,58386,6,0,P|296:288|316:332,1,105.000004005432
89,259,58724,2,0,L|43:146,1,105.000004005432
304,12,59061,2,0,L|348:120,1,105.000004005432
444,296,59398,2,0,P|324:292|232:216,1,210.000008010865
140,120,59903,1,0,0:0:0:0:
246,35,60072,5,0,0:0:0:0:
280,17,60157,1,0,0:0:0:0:
316,29,60241,1,0,0:0:0:0:
334,63,60325,1,0,0:0:0:0:
324,100,60409,1,0,0:0:0:0:
132,196,60578,5,0,0:0:0:0:
124,240,60662,1,0,0:0:0:0:
152,244,60747,1,0,0:0:0:0:
144,288,60831,1,0,0:0:0:0:
188,282,60915,1,0,0:0:0:0:
180,326,60999,1,0,0:0:0:0:
234,305,61084,1,0,0:0:0:0:
226,349,61168,1,0,0:0:0:0:
286,311,61252,1,0,0:0:0:0:
278,355,61336,1,0,0:0:0:0:
337,299,61420,6,0,P|428:256|480:144,1,210.000008010865
448,12,61926,1,0,0:0:0:0:
292,108,62094,2,0,L|292:232,1,105.000004005432
128,364,62431,6,0,L|88:136,1,210.000008010865
104,140,62853,1,0,0:0:0:0:
140,102,62937,1,0,0:0:0:0:
187,81,63021,1,0,0:0:0:0:
240,79,63105,1,0,0:0:0:0:
400,136,63274,5,0,0:0:0:0:
400,187,63358,1,0,0:0:0:0:
372,230,63442,1,0,0:0:0:0:
323,248,63526,1,0,0:0:0:0:
273,235,63611,1,0,0:0:0:0:
240,196,63695,1,0,0:0:0:0:
248,144,63780,2,0,P|288:72|432:52,1,210.000008010865
444,224,64285,5,0,0:0:0:0:
431,251,64369,1,0,0:0:0:0:
414,275,64453,1,0,0:0:0:0:
392,295,64537,1,0,0:0:0:0:
366,310,64622,1,0,0:0:0:0:
337,320,64706,1,0,0:0:0:0:
308,323,64790,1,0,0:0:0:0:
278,321,64874,1,0,0:0:0:0:
249,312,64959,1,0,0:0:0:0:
223,297,65043,1,0,0:0:0:0:
199,279,65128,2,0,P|150:233|121:137,1,157.500006008148
168,48,65465,5,0,0:1:0:0:
195,27,65549,2,0,L|246:-2,2,52.5000020027161,0|0|0,0:1|0:1|0:1,0:1:0:0:
217,158,65802,5,0,0:0:0:0:
243,202,65886,1,0,0:0:0:0:
288,228,65970,1,0,0:0:0:0:
340,227,66055,2,0,P|395:210|397:210,2,52.5000020027161
412,100,66308,5,0,0:0:0:0:
360,94,66392,1,0,0:0:0:0:
309,108,66476,1,0,0:0:0:0:
268,139,66560,1,0,0:0:0:0:
241,184,66645,1,0,0:0:0:0:
233,236,66729,1,0,0:0:0:0:
245,287,66813,1,0,0:0:0:0:
231,335,66897,5,0,0:0:0:0:
183,351,66981,1,0,0:0:0:0:
144,320,67065,1,0,0:0:0:0:
147,269,67151,1,0,0:0:0:0:
172,224,67235,1,0,0:0:0:0:
213,192,67319,1,0,0:0:0:0:
264,178,67403,1,0,0:0:0:0:
315,184,67488,5,0,0:0:0:0:
366,177,67572,1,0,0:0:0:0:
410,149,67656,1,0,0:0:0:0:
439,106,67740,1,0,0:0:0:0:
448,54,67825,1,0,0:0:0:0:
196,252,73555,5,0,0:0:0:0:
305,104,73724,1,0,0:0:0:0:
285,308,73892,1,0,0:0:0:0:
228,49,74061,1,0,0:0:0:0:
396,185,74229,2,0,L|412:69,1,105.000004005432
232,232,74566,5,0,0:0:0:0:
232,232,74735,2,0,P|236:292|376:312,1,210.000008010865
472,262,75240,1,0,0:0:0:0:
365,51,75409,1,0,0:0:0:0:
232,232,75577,1,0,0:0:0:0:
100,16,75746,1,0,0:0:0:0:
100,16,75915,6,0,P|33:95|44:220,1,210.000008010865
116,358,76420,1,0,0:0:0:0:
138,118,76589,1,0,0:0:0:0:
33,197,76757,1,0,0:0:0:0:
236,128,76926,2,0,L|366:85,1,105.000004005432
472,37,77263,5,0,0:0:0:0:
357,279,77431,1,0,0:0:0:0:
321,28,77600,5,0,0:0:0:0:
451,322,77768,1,0,0:0:0:0:
206,114,77937,1,0,0:0:0:0:
494,226,78106,1,0,0:0:0:0:
188,228,78274,5,0,0:0:0:0:
426,60,78443,1,0,0:0:0:0:
328,316,78611,1,0,0:0:0:0:
333,27,78780,1,0,0:0:0:0:
188,228,78948,6,0,P|146:197|133:146,1,105.000004005432
132,23,79285,1,0,0:0:0:0:
294,149,79454,1,0,0:0:0:0:
76,302,79622,5,0,0:0:0:0:
226,47,79791,1,0,0:0:0:0:
337,283,79960,1,0,0:0:0:0:
84,149,80128,6,0,L|326:149,1,210.000008010865
430,145,80634,1,0,0:0:0:0:
199,291,80802,1,0,0:0:0:0:
325,23,80971,1,0,0:0:0:0:
424,252,81139,1,0,0:0:0:0:
237,184,81308,6,0,P|165:137|125:16,1,210.000008010865
277,34,81813,1,0,0:0:0:0:
103,261,81982,1,0,0:0:0:0:
360,122,82151,1,0,0:0:0:0:
55,102,82319,1,0,0:0:0:0:
362,275,82488,5,0,0:0:0:0:
226,23,82656,1,0,0:0:0:0:
124,235,82825,1,0,0:0:0:0:
336,153,82993,5,0,0:0:0:0:
320,132,83077,1,0,0:0:0:0:
322,107,83161,1,0,0:0:0:0:
340,89,83245,1,0,0:0:0:0:
366,87,83330,1,0,0:0:0:0:
386,104,83414,1,0,0:0:0:0:
390,129,83498,1,0,0:0:0:0:
376,150,83582,1,0,0:0:0:0:
351,157,83667,1,0,0:0:0:0:
328,152,83751,1,0,0:0:0:0:
306,149,83835,1,0,0:0:0:0:
284,148,83919,1,0,0:0:0:0:
261,148,84004,1,0,0:0:0:0:
239,149,84088,1,0,0:0:0:0:
216,152,84172,1,0,0:0:0:0:
194,156,84256,1,0,0:0:0:0:
121,71,84342,6,0,L|198:266,1,210.000008010865
237,360,84847,1,0,0:0:0:0:
59,208,85016,1,0,0:0:0:0:
340,300,85184,1,0,0:0:0:0:
75,333,85353,1,0,0:0:0:0:
254,198,85521,6,0,B|331:132|331:132|425:46,1,210.000008010865
271,9,86027,1,0,0:0:0:0:
424,265,86195,1,0,0:0:0:0:
128,105,86364,1,0,0:0:0:0:
486,167,86533,1,0,0:0:0:0:
269,237,86701,6,0,P|186:264|95:183,1,210.000008010865
79,70,87207,1,0,0:0:0:0:
4,319,87375,1,0,0:0:0:0:
231,137,87544,1,0,0:0:0:0:
169,342,87712,5,0,0:0:0:0:
70,154,87881,1,0,0:0:0:0:
285,267,88049,1,0,0:0:0:0:
428,96,88218,2,0,P|493:9|515:-21,1,105.000004005432
508,188,88555,5,0,0:0:0:0:
276,43,88724,1,0,0:0:0:0:
296,319,88892,1,0,0:0:0:0:
510,144,89061,5,0,0:0:0:0:
222,67,89229,1,0,0:0:0:0:
250,338,89398,1,0,0:0:0:0:
494,95,89566,1,0,0:0:0:0:
209,173,89735,6,0,L|90:356,1,210.000008010865
101,122,90240,1,0,0:0:0:0:
250,338,90409,1,0,0:0:0:0:
285,120,90577,1,0,0:0:0:0:
146,318,90746,1,0,0:0:0:0:
412,145,90915,1,0,0:0:0:0:
43,33,91083,6,0,P|118:44|268:66,1,210.000008010865
293,26,91589,1,0,0:0:0:0:
162,228,91757,1,0,0:0:0:0:
383,102,91926,1,0,0:0:0:0:
314,276,92094,5,0,0:0:0:0:
276,311,92178,1,0,0:0:0:0:
227,331,92262,1,0,0:0:0:0:
175,330,92346,1,0,0:0:0:0:
70,264,92431,6,0,L|297:215,1,210.000008010865
426,184,92937,1,0,0:0:0:0:
235,90,93106,1,0,0:0:0:0:
328,337,93274,1,0,0:0:0:0:
377,4,93443,1,0,0:0:0:0:
274,178,93611,2,0,P|210:190|141:156,1,105.000004005432
148,164,93864,5,0,0:0:0:0:
121,120,93948,1,0,0:0:0:0:
135,71,94032,1,0,0:0:0:0:
180,47,94116,1,0,0:0:0:0:
228,63,94201,1,0,0:0:0:0:
249,110,94285,1,0,0:0:0:0:
230,157,94369,1,0,0:0:0:0:
203,202,94454,1,0,0:0:0:0:
199,254,94538,5,0,0:0:0:0:
219,302,94622,1,0,0:0:0:0:
258,336,94707,1,0,0:0:0:0:
308,349,94791,1,0,0:0:0:0:
359,339,94875,1,0,0:0:0:0:
400,307,94959,1,0,0:0:0:0:
422,260,95044,1,0,0:0:0:0:
421,208,95128,1,0,0:0:0:0:
403,175,95212,5,0,0:0:0:0:
369,204,95296,1,0,0:0:0:0:
350,171,95381,1,0,0:0:0:0:
317,201,95464,1,0,0:0:0:0:
298,168,95549,1,0,0:0:0:0:
264,197,95633,1,0,0:0:0:0:
245,164,95718,1,0,0:0:0:0:
212,194,95801,1,0,0:0:0:0:
193,161,95886,1,0,0:0:0:0:
160,191,95970,1,0,0:0:0:0:
141,158,96054,1,0,0:0:0:0:
102,171,96140,5,0,0:0:0:0:
67,150,96224,1,0,0:0:0:0:
60,110,96308,1,0,0:0:0:0:
86,79,96393,1,0,0:0:0:0:
127,79,96476,6,0,P|226:85|407:22,1,280
286,188,96982,1,0,0:0:0:0:
286,188,97066,1,0,0:0:0:0:
286,188,97151,2,0,P|253:282|323:330,1,140
512,363,97488,2,0,L|393:289,1,140
170,151,97825,6,0,P|236:86|302:69,1,140
43,279,98162,2,0,L|181:299,1,140
375,326,98499,1,0,0:0:0:0:
375,326,98583,1,0,0:0:0:0:
375,326,98667,1,0,0:0:0:0:
233,103,98836,1,0,0:0:0:0:
504,27,99004,1,0,0:0:0:0:
430,197,99173,6,0,L|369:334,1,140
181,384,99510,2,0,L|132:242,1,140
96,106,99847,1,0,0:0:0:0:
96,106,99931,1,0,0:0:0:0:
96,106,100016,1,0,0:0:0:0:
312,269,100184,1,0,0:0:0:0:
234,22,100353,1,0,0:0:0:0:
72,221,100521,6,0,L|95:361,1,140
337,95,100858,2,0,L|239:195,1,140
115,310,101195,1,0,0:0:0:0:
115,310,101280,1,0,0:0:0:0:
115,310,101364,1,0,0:0:0:0:
210,87,101533,5,0,0:0:0:0:
313,242,101702,2,0,P|346:302|350:372,1,140
466,140,102038,2,0,L|492:-15,1,140
489,2,102375,1,0,0:0:0:0:
321,173,102544,1,0,0:0:0:0:
321,173,102628,1,0,0:0:0:0:
321,173,102712,1,0,0:0:0:0:
143,47,102881,5,0,0:0:0:0:
321,173,103049,2,0,L|357:313,1,140
71,327,103386,2,0,L|35:180,1,140
0,56,103724,1,0,0:0:0:0:
219,266,103892,1,0,0:0:0:0:
219,266,103976,1,0,0:0:0:0:
219,266,104061,1,0,0:0:0:0:
322,49,104229,1,0,0:0:0:0:
366,285,104398,1,0,0:0:0:0:
366,285,104566,6,0,L|254:156,1,140
73,20,104903,2,0,L|262:20,1,140
402,26,105240,1,0,0:0:0:0:
402,26,105325,1,0,0:0:0:0:
402,26,105409,1,0,0:0:0:0:
200,258,105577,1,0,0:0:0:0:
469,10,105746,1,0,0:0:0:0:
143,165,105915,6,0,L|347:165,1,140
427,309,106252,2,0,L|270:309,1,140
97,306,106589,1,0,0:0:0:0:
97,306,106673,1,0,0:0:0:0:
97,306,106757,1,0,0:0:0:0:
275,124,106926,1,0,0:0:0:0:
276,310,107094,1,0,0:0:0:0:
127,144,107263,6,0,L|125:2,1,140
384,137,107600,2,0,P|324:205|228:230,1,140
252,61,107937,1,0,0:0:0:0:
252,61,108021,1,0,0:0:0:0:
252,61,108106,1,0,0:0:0:0:
478,217,108274,1,0,0:0:0:0:
221,319,108443,1,0,0:0:0:0:
356,138,108611,6,0,L|449:17,1,140
478,217,108948,1,0,0:0:0:0:
265,62,109117,1,0,0:0:0:0:
325,282,109285,1,0,0:0:0:0:
325,282,109370,1,0,0:0:0:0:
325,282,109454,1,0,0:0:0:0:
412,60,109622,1,0,0:0:0:0:
168,31,109791,1,0,0:0:0:0:
353,195,109960,6,0,L|480:285,1,140
293,34,110297,2,0,L|142:34,1,140
15,30,110634,1,0,0:0:0:0:
15,30,110718,1,0,0:0:0:0:
15,30,110802,1,0,0:0:0:0:
214,308,110971,1,0,0:0:0:0:
400,100,111139,1,0,0:0:0:0:
132,44,111308,6,0,L|166:217,1,140
414,330,111645,2,0,L|376:188,1,140
346,55,111982,1,0,0:0:0:0:
346,55,112066,1,0,0:0:0:0:
346,55,112151,1,0,0:0:0:0:
160,259,112319,1,0,0:0:0:0:
494,57,112488,1,0,0:0:0:0:
294,253,112656,6,0,L|255:106,1,140
8,17,112993,2,0,L|47:176,1,140
85,369,113330,1,0,0:0:0:0:
85,369,113415,1,0,0:0:0:0:
85,369,113499,1,0,0:0:0:0:
342,98,113667,1,0,0:0:0:0:
223,313,113836,1,0,0:0:0:0:
402,165,114004,6,0,P|444:91|348:-1,1,210
293,129,114342,1,0,0:0:0:0:
293,129,114426,2,0,P|291:200|297:215,2,70
250,317,114679,5,0,0:0:0:0:
186,289,114763,1,0,0:0:0:0:
150,230,114847,1,0,0:0:0:0:
154,161,114931,2,0,P|157:89|153:75,2,70
246,16,115184,5,0,0:0:0:0:
246,16,115268,2,0,L|311:75,1,70
321,84,115437,1,0,0:0:0:0:
349,110,115521,1,0,0:0:0:0:
357,149,115605,1,0,0:0:0:0:
340,184,115689,1,0,0:0:0:0:
305,203,115774,1,0,0:0:0:0:
266,197,115858,1,0,0:0:0:0:
238,169,115942,1,0,0:0:0:0:
233,131,116026,5,0,0:0:0:0:
228,104,116111,1,0,0:0:0:0:
213,83,116195,1,0,0:0:0:0:
190,70,116279,1,0,0:0:0:0:
164,69,116364,1,0,0:0:0:0:
140,78,116448,1,0,0:0:0:0:
123,97,116532,1,0,0:0:0:0:
115,122,116616,1,0,0:0:0:0:
39,188,116701,6,0,L|274:148,1,210
415,172,117375,2,0,P|390:107|310:66,1,140
282,52,117825,2,0,L|197:42,3,46.6666666666667
326,132,118274,5,0,0:0:0:0:
314,207,118386,1,0,0:0:0:0:
254,253,118498,1,0,0:0:0:0:
178,247,118611,1,0,0:0:0:0:
72,320,118724,5,0,0:0:0:0:
53,261,118836,1,0,0:0:0:0:
66,201,118948,1,0,0:0:0:0:
109,156,119061,1,0,0:0:0:0:
195,50,119173,5,0,0:0:0:0:
220,99,119285,1,0,0:0:0:0:
246,149,119397,1,0,0:0:0:0:
272,199,119510,1,0,0:0:0:0:
297,249,119622,1,0,0:0:0:0:
323,298,119734,1,0,0:0:0:0:
414,375,119847,5,0,0:0:0:0:
439,336,119959,1,0,0:0:0:0:
445,290,120071,1,0,0:0:0:0:
428,247,120184,1,0,0:0:0:0:
338,170,120297,1,0,0:0:0:0:
310,132,120409,1,0,0:0:0:0:
302,87,120521,1,0,0:0:0:0:
313,42,120634,1,0,0:0:0:0:
444,86,120746,5,0,0:0:0:0:
398,97,120858,1,0,0:0:0:0:
353,109,120970,1,0,0:0:0:0:
308,120,121083,1,0,0:0:0:0:
263,132,121195,1,0,0:0:0:0:
217,143,121307,1,0,0:0:0:0:
172,155,121420,1,0,0:0:0:0:
65,193,121533,5,0,0:0:0:0:
100,259,121645,1,0,0:0:0:0:
173,281,121757,1,0,0:0:0:0:
239,245,121870,1,0,0:0:0:0:
294,137,121982,5,0,0:0:0:0:
350,89,122094,1,0,0:0:0:0:
419,116,122206,1,0,0:0:0:0:
428,189,122319,1,0,0:0:0:0:
378,302,122431,5,0,0:0:0:0:
321,313,122543,1,0,0:0:0:0:
293,262,122655,1,0,0:0:0:0:
334,221,122768,1,0,0:0:0:0:
374,113,122881,5,0,0:0:0:0:
328,73,122993,1,0,0:0:0:0:
270,87,123105,1,0,0:0:0:0:
247,142,123218,1,0,0:0:0:0:
180,252,123330,5,0,0:0:0:0:
167,207,123442,1,0,0:0:0:0:
154,162,123554,1,0,0:0:0:0:
141,117,123667,1,0,0:0:0:0:
128,72,123779,1,0,0:0:0:0:
115,27,123891,1,0,0:0:0:0:
63,120,124004,5,0,0:0:0:0:
80,177,124116,1,0,0:0:0:0:
136,198,124228,1,0,0:0:0:0:
187,166,124341,1,0,0:0:0:0:
282,89,124454,5,0,0:0:0:0:
324,73,124566,1,0,0:0:0:0:
367,90,124678,1,0,0:0:0:0:
388,130,124791,1,0,0:0:0:0:
290,194,124903,5,0,0:0:0:0:
325,224,125015,1,0,0:0:0:0:
360,255,125127,1,0,0:0:0:0:
395,286,125240,1,0,0:0:0:0:
430,317,125352,1,0,0:0:0:0:
465,347,125464,1,0,0:0:0:0:
288,344,125577,5,0,0:0:0:0:
233,315,125689,1,0,0:0:0:0:
201,263,125801,1,0,0:0:0:0:
202,201,125915,1,0,0:0:0:0:
113,100,126027,5,0,0:0:0:0:
83,154,126139,1,0,0:0:0:0:
69,214,126251,1,0,0:0:0:0:
69,277,126364,1,0,0:0:0:0:
125,376,126476,5,0,0:0:0:0:
171,371,126588,1,0,0:0:0:0:
217,366,126700,1,0,0:0:0:0:
264,362,126813,1,0,0:0:0:0:
310,357,126925,1,0,0:0:0:0:
357,353,127037,1,0,0:0:0:0:
464,319,127151,5,0,0:0:0:0:
495,251,127263,1,0,0:0:0:0:
453,191,127375,1,0,0:0:0:0:
379,198,127488,1,0,0:0:0:0:
267,241,127600,5,0,0:0:0:0:
210,266,127712,1,0,0:0:0:0:
149,262,127824,1,0,0:0:0:0:
95,231,127937,1,0,0:0:0:0:
19,138,128050,5,0,0:0:0:0:
8,78,128162,1,0,0:0:0:0:
43,29,128274,1,0,0:0:0:0:
103,19,128387,1,0,0:0:0:0:
222,78,128499,5,0,0:0:0:0:
267,89,128611,1,0,0:0:0:0:
312,100,128724,1,0,0:0:0:0:
358,111,128836,2,0,P|437:129|550:123,1,186.666666666667
254,30,129173,5,0,0:0:0:0:
232,87,129285,1,0,0:0:0:0:
241,148,129397,1,0,0:0:0:0:
280,196,129510,1,0,0:0:0:0:
337,296,129622,5,0,0:0:0:0:
296,337,129734,1,0,0:0:0:0:
240,347,129846,1,0,0:0:0:0:
188,323,129959,1,0,0:0:0:0:
160,273,130071,1,0,0:0:0:0:
178,124,130184,5,0,0:0:0:0:
237,159,130296,1,0,0:0:0:0:
264,222,130408,1,0,0:0:0:0:
248,289,130521,1,0,0:0:0:0:
197,335,130633,1,0,0:0:0:0:
128,341,130745,1,0,0:0:0:0:
78,242,130858,5,0,0:0:0:0:
102,191,130970,1,0,0:0:0:0:
143,154,131082,1,0,0:0:0:0:
195,135,131195,1,0,0:0:0:0:
251,138,131307,1,0,0:0:0:0:
301,161,131419,1,0,0:0:0:0:
370,258,131533,5,0,0:0:0:0:
411,237,131645,1,0,0:0:0:0:
440,201,131757,1,0,0:0:0:0:
451,156,131870,1,0,0:0:0:0:
442,111,131982,1,0,0:0:0:0:
415,73,132094,1,0,0:0:0:0:
303,16,132207,5,0,0:0:0:0:
294,52,132319,1,0,0:0:0:0:
296,89,132431,1,0,0:0:0:0:
309,123,132544,1,0,0:0:0:0:
332,152,132656,1,0,0:0:0:0:
363,173,132768,1,0,0:0:0:0:
424,89,132881,5,0,0:0:0:0:
378,79,132993,1,0,0:0:0:0:
331,77,133105,1,0,0:0:0:0:
285,83,133218,1,0,0:0:0:0:
240,96,133330,1,0,0:0:0:0:
199,117,133442,1,0,0:0:0:0:
155,235,133555,5,0,0:0:0:0:
169,275,133667,1,0,0:0:0:0:
161,318,133780,1,0,0:0:0:0:
133,350,133892,1,0,0:0:0:0:
92,364,134004,1,0,0:0:0:0:
50,356,134117,1,0,0:0:0:0:
17,327,134229,6,0,L|-21:124,1,186.666666666667
199,237,134566,5,0,0:0:0:0:
215,193,134678,1,0,0:0:0:0:
211,147,134790,1,0,0:0:0:0:
187,107,134903,1,0,0:0:0:0:
149,82,135015,1,0,0:0:0:0:
103,76,135127,1,0,0:0:0:0:
127,195,135240,5,0,0:0:0:0:
216,217,135352,1,0,0:0:0:0:
308,203,135464,1,0,0:0:0:0:
387,154,135577,2,0,L|532:22,1,186.666666666667
353,50,135915,5,0,0:0:0:0:
316,45,136027,1,0,0:0:0:0:
282,57,136139,1,0,0:0:0:0:
255,82,136252,1,0,0:0:0:0:
242,117,136364,1,0,0:0:0:0:
246,154,136476,1,0,0:0:0:0:
351,220,136589,5,0,0:0:0:0:
346,158,136701,1,0,0:0:0:0:
311,108,136813,1,0,0:0:0:0:
255,82,136926,2,0,P|147:70|74:26,1,186.666666666667
37,127,137263,5,0,0:0:0:0:
40,164,137375,1,0,0:0:0:0:
58,196,137487,1,0,0:0:0:0:
86,221,137600,1,0,0:0:0:0:
121,232,137712,1,0,0:0:0:0:
159,232,137824,1,0,0:0:0:0:
249,176,137937,5,0,0:0:0:0:
310,182,138049,1,0,0:0:0:0:
367,207,138161,1,0,0:0:0:0:
412,249,138274,6,0,L|490:326,1,70
323,352,138443,2,0,L|245:315,3,70
279,300,138780,2,0,L|257:216,3,70,0|0|0|0,0:3|0:3|0:3|0:3,0:3:0:0:
253,202,139117,5,0,0:0:0:0:
249,176,139201,1,0,0:0:0:0:
241,152,139285,1,0,0:0:0:0:
227,133,139370,1,0,0:0:0:0:
207,104,139454,1,0,0:0:0:0:
182,79,139538,1,0,0:0:0:0:
154,58,139622,1,0,0:0:0:0:
122,43,139707,1,0,0:0:0:0:
88,41,139791,1,0,0:0:0:0:
128,320,139960,6,0,L|96:160,1,140
384,320,140297,2,0,L|416:160,1,140
64,288,140634,6,0,L|32:128,1,140
459,291,140971,2,0,L|491:131,1,140
494,116,141224,1,0,0:0:0:0:
463,76,141308,1,0,0:0:0:0:
254,216,141476,1,0,0:0:0:0:
494,116,141645,6,0,L|384:269,1,140
9,108,141982,6,0,L|119:261,1,140
255,384,142319,2,0,L|255:231,1,140
257,210,142572,1,0,0:0:0:0:
258,163,142656,1,0,0:0:0:0:
258,0,142825,1,0,0:0:0:0:
512,167,142993,6,0,L|354:123,1,140
0,169,143330,2,0,L|157:125,1,140
414,272,143667,6,0,L|273:352,1,140
265,356,143920,1,0,0:0:0:0:
233,365,144004,1,0,0:0:0:0:
65,301,144173,5,0,0:0:0:0:
154,71,144342,1,0,0:0:0:0:
154,71,144426,1,0,0:0:0:0:
154,71,144510,1,0,0:0:0:0:
308,125,144679,5,0,0:0:0:0:
329,158,144763,1,0,0:0:0:0:
339,197,144847,1,0,0:0:0:0:
338,237,144931,1,0,0:0:0:0:
326,275,145016,1,0,0:0:0:0:
303,307,145100,1,0,0:0:0:0:
272,332,145184,1,0,0:0:0:0:
90,35,145353,6,0,L|113:184,1,140
422,35,145690,2,0,L|399:184,1,140
72,367,146027,6,0,L|37:224,1,140
440,367,146364,2,0,L|475:224,1,140
437,30,146617,2,0,P|417:107|417:107,1,70
376,259,146870,1,0,0:0:0:0:
123,26,147038,6,0,L|183:152,1,140
80,376,147375,2,0,L|4:211,1,140
345,68,147712,6,0,L|411:226,1,140
354,370,147965,2,0,L|318:286,1,70
263,143,148218,1,0,0:0:0:0:
441,0,148386,6,0,L|251:78,1,140
10,295,148724,2,0,L|176:243,1,140
512,284,149061,6,0,L|367:335,1,140
357,343,149313,1,0,0:0:0:0:
287,343,149397,1,0,0:0:0:0:
224,314,149481,1,0,0:0:0:0:
178,262,149565,1,0,0:0:0:0:
271,171,149735,5,0,0:0:0:0:
316,118,149819,1,0,0:0:0:0:
334,51,149903,1,0,0:0:0:0:
167,109,150072,5,0,0:0:0:0:
156,165,150156,1,0,0:0:0:0:
172,221,150240,1,0,0:0:0:0:
211,263,150324,1,0,0:0:0:0:
266,283,150409,1,0,0:0:0:0:
323,276,150493,1,0,0:0:0:0:
371,244,150577,1,0,0:0:0:0:
419,62,150746,6,0,P|350:56|290:89,1,140
17,190,151083,2,0,P|150:214|202:194,1,140
471,221,151420,6,0,L|338:175,1,140
119,363,151757,2,0,L|253:324,1,140
401,306,152010,1,0,0:0:0:0:
364,277,152094,1,0,0:0:0:0:
323,255,152178,1,0,0:0:0:0:
279,240,152262,1,0,0:0:0:0:
68,37,152431,6,0,P|106:164|135:213,1,140
414,221,152768,2,0,P|388:120|356:80,1,140
94,324,153106,6,0,L|226:220,1,140
314,189,153358,1,0,0:0:0:0:
318,235,153442,1,0,0:0:0:0:
303,279,153526,1,0,0:0:0:0:
272,313,153610,1,0,0:0:0:0:
446,259,153780,6,0,L|463:90,1,140
108,256,154117,2,0,L|81:78,1,140
459,1,154454,6,0,L|365:105,1,140
365,105,154707,1,0,0:0:0:0:
372,150,154791,1,0,0:0:0:0:
367,197,154875,1,0,0:0:0:0:
350,240,154959,1,0,0:0:0:0:
289,337,155128,1,0,0:0:0:0:
249,335,155212,1,0,0:0:0:0:
214,316,155296,1,0,0:0:0:0:
191,284,155380,1,0,0:0:0:0:
185,244,155465,1,0,0:0:0:0:
197,207,155549,1,0,0:0:0:0:
225,178,155633,1,0,0:0:0:0:
262,165,155717,5,0,0:0:0:0:
294,150,155802,1,0,0:0:0:0:
318,126,155886,1,0,0:0:0:0:
332,93,155970,1,0,0:0:0:0:
333,59,156055,1,0,0:0:0:0:
134,42,156139,6,0,L|93:175,1,140
467,246,156476,2,0,L|320:143,1,140
48,343,156813,6,0,L|242:343,1,140
260,27,157151,6,0,L|153:169,1,140
168,178,157403,1,0,0:0:0:0:
174,207,157488,6,0,P|181:246|218:282,1,70
295,334,157656,1,0,0:0:0:0:
497,86,157825,6,0,L|355:176,1,140
51,334,158162,2,0,L|212:251,1,140
494,344,158499,2,0,L|326:245,1,140
347,259,158752,1,0,0:0:0:0:
245,194,158836,6,0,L|181:154,2,70
91,32,159173,6,0,L|56:168,1,140
271,354,159510,2,0,L|306:218,1,140
48,72,159847,6,0,L|8:208,1,140
352,295,160184,2,0,L|384:156,1,140
408,48,160521,1,0,0:0:0:0:
408,48,160606,1,0,0:0:0:0:
293,133,160774,6,0,L|249:187,1,70
226,221,160943,1,0,0:0:0:0:
203,254,161027,1,0,0:0:0:0:
441,306,161195,6,0,L|384:264,1,70
356,240,161364,1,0,0:0:0:0:
267,147,161533,6,0,P|195:65|292:133,1,350
267,147,162207,5,0,0:0:0:0:
358,171,162544,1,0,0:0:0:0:
386,76,162881,1,0,0:0:0:0:
285,270,163218,5,0,0:0:0:0:
285,270,163387,5,0,0:0:0:0:
242,284,163471,1,0,0:0:0:0:
197,281,163555,1,0,0:0:0:0:
156,261,163639,1,0,0:0:0:0:
126,227,163724,1,0,0:0:0:0:
111,184,163808,1,0,0:0:0:0:
114,139,163892,1,0,0:0:0:0:
134,98,163976,1,0,0:0:0:0:
167,68,164061,1,0,0:0:0:0:
210,53,164145,1,0,0:0:0:0:
255,55,164229,1,0,0:0:0:0:
255,55,164313,5,0,0:0:0:0:
299,55,164397,1,0,0:0:0:0:
255,90,164481,1,0,0:0:0:0:
299,90,164566,1,0,0:0:0:0:
255,125,164650,1,0,0:0:0:0:
300,125,164734,1,0,0:0:0:0:
255,160,164819,1,0,0:0:0:0:
299,160,164903,1,0,0:0:0:0:
255,195,164987,1,0,0:0:0:0:
299,195,165071,1,0,0:0:0:0:
255,230,165156,1,0,0:0:0:0:
299,230,165240,1,0,0:0:0:0:
255,265,165324,1,0,0:0:0:0:
299,265,165409,1,0,0:0:0:0:
256,308,165493,5,0,0:0:0:0:
287,324,165577,1,0,0:0:0:0:
321,331,165661,1,0,0:0:0:0:
356,330,165745,1,0,0:0:0:0:
390,319,165830,1,0,0:0:0:0:
419,300,165914,1,0,0:0:0:0:
442,275,165998,1,0,0:0:0:0:
458,244,166082,1,0,0:0:0:0:
466,210,166167,1,0,0:0:0:0:
464,175,166251,1,0,0:0:0:0:
453,141,166335,1,0,0:0:0:0:
434,112,166419,1,0,0:0:0:0:
407,88,166504,2,0,P|375:68|351:60,2,35
356,180,166757,5,0,0:0:0:0:
322,202,166841,1,0,0:0:0:0:
284,213,166925,1,0,0:0:0:0:
244,214,167009,1,0,0:0:0:0:
206,203,167094,1,0,0:0:0:0:
173,181,167178,1,0,0:0:0:0:
147,151,167262,1,0,0:0:0:0:
130,115,167346,1,0,0:0:0:0:
48,68,167431,6,0,L|208:84,1,140
304,92,167937,2,0,L|368:104,3,35
364,112,168274,5,0,0:0:0:0:
380,142,168358,1,0,0:0:0:0:
384,177,168442,1,0,0:0:0:0:
374,210,168526,1,0,0:0:0:0:
352,237,168611,1,0,0:0:0:0:
322,254,168695,1,0,0:0:0:0:
287,258,168779,1,0,0:0:0:0:
254,249,168863,1,0,0:0:0:0:
227,227,168948,1,0,0:0:0:0:
211,196,169032,1,0,0:0:0:0:
214,161,169116,5,0,0:0:0:0:
233,133,169200,1,0,0:0:0:0:
265,119,169285,1,0,0:0:0:0:
299,124,169369,1,0,0:0:0:0:
326,145,169453,1,0,0:0:0:0:
339,177,169537,1,0,0:0:0:0:
357,207,169622,1,0,0:0:0:0:
386,225,169706,1,0,0:0:0:0:
421,230,169791,2,0,L|472:228,2,35
364,307,170044,5,0,0:0:0:0:
334,296,170128,1,0,0:0:0:0:
308,278,170212,1,0,0:0:0:0:
287,253,170296,1,0,0:0:0:0:
274,224,170381,1,0,0:0:0:0:
268,193,170465,1,0,0:0:0:0:
271,162,170549,1,0,0:0:0:0:
282,132,170633,1,0,0:0:0:0:
301,106,170718,1,0,0:0:0:0:
325,86,170802,1,0,0:0:0:0:
354,73,170886,1,0,0:0:0:0:
385,67,170971,2,0,P|431:50|447:39,3,35
352,72,171308,5,0,0:0:0:0:
348,108,171392,1,0,0:0:0:0:
320,86,171476,1,0,0:0:0:0:
316,122,171561,1,0,0:0:0:0:
285,92,171645,1,0,0:0:0:0:
281,128,171729,1,0,0:0:0:0:
250,91,171813,1,0,0:0:0:0:
246,127,171898,1,0,0:0:0:0:
217,81,171982,1,0,0:0:0:0:
213,117,172066,1,0,0:0:0:0:
186,64,172151,1,0,0:0:0:0:
182,100,172235,1,0,0:0:0:0:
152,72,172319,1,0,0:0:0:0:
152,72,172403,2,0,L|115:53,2,35
177,200,172656,5,0,0:0:0:0:
192,230,172740,1,0,0:0:0:0:
196,265,172824,1,0,0:0:0:0:
187,299,172908,1,0,0:0:0:0:
167,327,172993,1,0,0:0:0:0:
137,345,173077,1,0,0:0:0:0:
103,352,173161,1,0,0:0:0:0:
69,346,173245,1,0,0:0:0:0:
39,328,173330,1,0,0:0:0:0:
18,300,173414,1,0,0:0:0:0:
8,267,173498,1,0,0:0:0:0:
11,232,173582,1,0,0:0:0:0:
24,198,173667,1,0,0:0:0:0:
40,167,173751,1,0,0:0:0:0:
66,143,173835,1,0,0:0:0:0:
98,131,173919,1,0,0:0:0:0:
128,246,174004,6,0,L|157:80,1,140
265,44,174510,2,0,L|316:28,3,35
334,66,174847,2,0,L|384:76,3,35
410,111,175184,6,0,L|443:152,1,35
455,180,175353,1,0,0:0:0:0:
456,214,175437,1,0,0:0:0:0:
441,245,175521,1,0,0:0:0:0:
412,265,175605,1,0,0:0:0:0:
378,269,175690,1,0,0:0:0:0:
346,256,175774,1,0,0:0:0:0:
324,230,175858,1,0,0:0:0:0:
317,196,175942,1,0,0:0:0:0:
328,162,176027,1,0,0:0:0:0:
335,129,176111,1,0,0:0:0:0:
322,97,176195,1,0,0:0:0:0:
294,77,176279,1,0,0:0:0:0:
259,77,176364,1,0,0:0:0:0:
230,95,176448,1,0,0:0:0:0:
216,127,176533,1,0,0:0:0:0:
206,160,176617,1,0,0:0:0:0:
239,168,176701,5,0,0:0:0:0:
273,176,176785,1,0,0:0:0:0:
307,185,176869,1,0,0:0:0:0:
341,193,176954,1,0,0:0:0:0:
375,201,177038,1,0,0:0:0:0:
409,210,177122,1,0,0:0:0:0:
444,220,177207,2,0,L|500:232,2,35
416,328,177460,5,0,0:0:0:0:
382,317,177544,1,0,0:0:0:0:
349,307,177628,1,0,0:0:0:0:
315,297,177712,1,0,0:0:0:0:
282,287,177797,1,0,0:0:0:0:
248,277,177881,1,0,0:0:0:0:
215,266,177965,2,0,L|164:248,2,35
208,364,178218,5,0,0:0:0:0:
242,356,178302,1,0,0:0:0:0:
273,340,178386,1,0,0:0:0:0:
299,317,178470,1,0,0:0:0:0:
319,289,178555,1,0,0:0:0:0:
331,256,178639,1,0,0:0:0:0:
334,221,178723,1,0,0:0:0:0:
328,187,178807,1,0,0:0:0:0:
315,155,178892,1,0,0:0:0:0:
293,127,178976,1,0,0:0:0:0:
265,106,179061,2,0,L|232:80,2,35
56,240,179398,5,0,0:0:0:0:
114,277,179482,1,0,0:0:0:0:
183,280,179566,1,0,0:0:0:0:
424,156,179735,5,0,0:0:0:0:
360,127,179819,1,0,0:0:0:0:
291,119,179903,1,0,0:0:0:0:
72,48,180072,5,0,0:0:0:0:
91,96,180156,1,0,0:0:0:0:
111,145,180240,1,0,0:0:0:0:
312,328,180409,5,0,0:0:0:0:
292,279,180493,1,0,0:0:0:0:
272,230,180577,1,0,0:0:0:0:
388,36,180746,5,0,0:0:0:0:
404,86,180830,1,0,0:0:0:0:
420,136,180914,1,0,0:0:0:0:
472,344,181083,5,0,0:0:0:0:
403,339,181167,1,0,0:0:0:0:
347,298,181251,1,0,0:0:0:0:
148,80,181420,1,0,0:0:0:0:
205,86,181504,1,0,0:0:0:0:
258,110,181588,1,0,0:0:0:0:
300,150,181673,2,0,L|344:196,3,35
420,264,182094,5,0,0:0:0:0:
415,298,182178,1,0,0:0:0:0:
397,328,182262,1,0,0:0:0:0:
368,347,182346,1,0,0:0:0:0:
334,352,182431,1,0,0:0:0:0:
301,342,182515,1,0,0:0:0:0:
275,318,182599,1,0,0:0:0:0:
261,287,182683,1,0,0:0:0:0:
262,252,182769,1,0,0:0:0:0:
268,208,182853,1,0,0:0:0:0:
252,166,182937,1,0,0:0:0:0:
219,136,183021,1,0,0:0:0:0:
175,127,183106,1,0,0:0:0:0:
133,140,183190,1,0,0:0:0:0:
102,171,183274,1,0,0:0:0:0:
90,214,183358,1,0,0:0:0:0:
8,192,183443,6,0,L|148:260,1,140
336,252,183948,2,0,L|260:216,1,70
128,148,184285,1,0,0:0:0:0:
128,148,184454,1,0,0:0:0:0:
288,72,184622,2,0,L|328:48,1,35
336,150,184791,6,0,L|272:186,1,52.5000020027161
67,271,185128,1,0,0:0:0:0:
421,294,185297,1,0,0:0:0:0:
181,97,185634,5,0,0:0:0:0:
352,364,185802,1,0,0:0:0:0:
512,153,185971,1,0,0:0:0:0:
339,207,186139,2,0,L|278:234,1,52.5000020027161
75,171,186476,2,0,L|99:234,1,52.5000020027161
296,351,186982,5,0,0:0:0:0:
287,31,187151,1,0,0:0:0:0:
183,244,187319,1,0,0:0:0:0:
378,100,187488,2,0,L|394:156,1,52.5000020027161
427,290,187825,1,0,0:0:0:0:
204,102,187993,1,0,0:0:0:0:
309,319,188330,5,0,0:0:0:0:
96,130,188499,1,0,0:0:0:0:
344,71,188667,1,0,0:0:0:0:
150,300,188836,5,0,0:0:0:0:
290,136,189004,1,0,0:0:0:0:
329,340,189173,1,0,0:0:0:0:
174,137,189342,1,0,0:0:0:0:
453,224,189510,1,0,0:0:0:0:
236,336,189679,1,0,0:0:0:0:
331,68,189847,5,0,0:0:0:0:
100,208,190016,1,0,0:0:0:0:
403,214,190184,2,0,L|359:174,1,52.5000020027161
204,47,190521,1,0,0:0:0:0:
297,311,190690,1,0,0:0:0:0:
369,76,191027,5,0,0:0:0:0:
103,93,191195,1,0,0:0:0:0:
308,152,191364,1,0,0:0:0:0:
143,260,191533,2,0,L|167:308,1,52.5000020027161
296,341,191870,1,0,0:0:0:0:
135,138,192038,1,0,0:0:0:0:
260,210,192375,5,0,0:0:0:0:
76,50,192544,1,0,0:0:0:0:
28,271,192712,1,0,0:0:0:0:
229,54,192881,2,0,L|253:114,1,52.5000020027161
315,310,193218,1,0,0:0:0:0:
146,138,193386,1,0,0:0:0:0:
218,358,193724,5,0,0:0:0:0:
375,137,193892,1,0,0:0:0:0:
493,265,194061,1,0,0:0:0:0:
241,190,194229,2,0,L|249:258,1,52.5000020027161
359,350,194566,5,0,0:0:0:0:
126,147,194735,1,0,0:0:0:0:
360,241,194903,1,0,0:0:0:0:
150,308,195072,1,0,0:0:0:0:
340,80,195240,1,0,0:0:0:0:
105,84,195409,5,0,0:0:0:0:
105,84,195493,1,0,0:0:0:0:
105,84,195577,2,0,L|168:46,1,52.5000020027161
313,0,195915,1,0,0:0:0:0:
236,205,196083,1,0,0:0:0:0:
406,293,196420,5,0,0:0:0:0:
165,107,196589,1,0,0:0:0:0:
244,278,196757,1,0,0:0:0:0:
388,82,196926,2,0,L|424:138,1,52.5000020027161
498,286,197263,1,0,0:0:0:0:
299,71,197431,1,0,0:0:0:0:
87,149,197768,5,0,0:0:0:0:
289,248,197937,1,0,0:0:0:0:
289,13,198106,1,0,0:0:0:0:
117,152,198274,5,0,0:0:0:0:
383,255,198443,1,0,0:0:0:0:
161,302,198611,1,0,0:0:0:0:
386,68,198780,1,0,0:0:0:0:
425,306,199117,5,0,0:0:0:0:
224,97,199285,1,0,0:0:0:0:
234,320,199454,1,0,0:0:0:0:
359,169,199622,2,0,L|396:132,1,52.5000020027161
478,18,199960,5,0,0:0:0:0:
395,258,200128,1,0,0:0:0:0:
306,38,200297,5,0,0:0:0:0:
263,302,200465,1,0,0:0:0:0:
495,189,200634,1,0,0:0:0:0:
193,138,200802,5,0,3:0:0:0:
193,138,200886,1,0,3:0:0:0:
193,138,200971,2,0,L|232:81,1,52.5000020027161,0|0,3:0|3:0,3:0:0:0:
346,9,201308,1,0,0:0:0:0:
294,239,201476,1,0,0:0:0:0:
436,193,201813,5,0,0:0:0:0:
219,48,201982,1,0,0:0:0:0:
168,250,202151,1,0,0:0:0:0:
42,82,202235,1,0,0:0:0:0:
42,82,202319,2,0,L|34:147,1,52.5000020027161
168,250,202656,6,0,L|154:203,2,26.2500010013581
259,158,202993,1,0,0:0:0:0:
259,131,203077,1,0,0:0:0:0:
258,98,203162,2,0,L|260:68,2,26.2500010013581
386,55,203415,2,0,L|408:24,2,26.2500010013581
389,151,203668,5,0,0:0:0:0:
395,171,203752,1,0,0:0:0:0:
400,193,203836,1,0,0:0:0:0:
404,214,203920,1,0,0:0:0:0:
412,234,204005,1,0,0:0:0:0:
423,253,204089,1,0,0:0:0:0:
436,272,204173,2,0,L|456:300,2,26.2500010013581
220,224,204426,5,0,0:0:0:0:
237,229,204510,1,0,0:0:0:0:
256,228,204594,1,0,0:0:0:0:
273,220,204678,1,0,0:0:0:0:
286,207,204763,1,0,0:0:0:0:
294,190,204847,1,0,0:0:0:0:
296,172,204931,2,0,L|296:144,1,26.2500010013581
256,192,205184,12,0,206364,0:0:0:0:
156,155,210746,5,0,0:0:0:0:
361,170,210915,1,0,0:0:0:0:
175,252,211083,1,0,0:0:0:0:
326,80,211252,1,0,0:0:0:0:
270,304,211420,1,0,0:0:0:0:
230,85,211589,1,0,0:0:0:0:
336,220,211757,5,0,0:0:0:0:
336,220,211926,2,0,P|391:242|512:169,1,210.000008010865
491,40,212431,1,0,0:0:0:0:
228,193,212600,1,0,0:0:0:0:
412,357,212768,1,0,0:0:0:0:
248,158,212937,5,0,0:0:0:0:
248,158,213106,2,0,P|148:137|95:49,1,210.000008010865
252,0,213611,1,0,0:0:0:0:
137,273,213780,1,0,0:0:0:0:
340,99,213948,1,0,0:0:0:0:
95,140,214117,1,0,0:0:0:0:
316,195,214285,5,0,2:0:0:0:
317,195,214454,2,0,P|368:188|412:160,1,105.000004005432,0|0,2:0|2:0,2:0:0:0:
494,67,214791,5,0,0:0:0:0:
173,171,214960,1,0,0:0:0:0:
402,309,215128,1,0,0:0:0:0:
289,0,215297,1,0,0:0:0:0:
507,255,215465,5,0,0:0:0:0:
183,59,215634,1,0,0:0:0:0:
250,306,215802,1,0,0:0:0:0:
437,41,215971,1,0,0:0:0:0:
366,271,216139,6,0,P|443:352|472:362,1,105.000004005432
417,151,216476,1,0,0:0:0:0:
227,324,216645,1,0,0:0:0:0:
280,124,216813,1,0,0:0:0:0:
352,308,216982,1,0,0:0:0:0:
181,205,217151,5,0,0:0:0:0:
181,205,217319,2,0,P|119:154|111:-6,1,210.000008010865
271,52,217825,1,0,0:0:0:0:
88,276,217993,1,0,0:0:0:0:
166,125,218162,1,0,0:0:0:0:
307,274,218330,5,0,0:0:0:0:
307,274,218499,2,0,P|400:311|530:282,1,210.000008010865
426,158,219004,1,0,0:0:0:0:
361,359,219173,1,0,0:0:0:0:
366,94,219342,1,0,0:0:0:0:
219,261,219510,1,0,0:0:0:0:
224,108,219679,5,0,0:0:0:0:
224,108,219847,2,0,P|181:34|176:-7,1,105.000004005432
317,302,220184,5,0,0:0:0:0:
434,69,220353,1,0,0:0:0:0:
102,193,220521,1,0,0:0:0:0:
254,20,220690,5,0,0:0:0:0:
468,313,220858,1,0,0:0:0:0:
82,333,221027,1,0,0:0:0:0:
288,6,221195,5,0,0:0:0:0:
501,356,221364,1,0,0:0:0:0:
144,184,221533,6,0,P|221:188|285:176,1,105.000004005432
482,244,221870,2,0,P|401:230|343:241,1,105.000004005432
223,285,222207,1,0,0:0:0:0:
223,285,222375,1,0,0:0:0:0:
359,116,222544,5,0,0:0:0:0:
359,116,222712,2,0,P|395:79|300:9,1,210.000008010865
99,191,223218,2,0,L|194:126,1,105.000004005432
316,37,223555,1,0,0:0:0:0:
262,230,223724,5,0,0:0:0:0:
262,230,223892,2,0,P|230:292|82:296,1,210.000008010865
149,151,224398,1,0,0:0:0:0:
425,213,224566,1,0,0:0:0:0:
359,378,224735,2,0,P|299:330|277:269,1,105.000004005432
276,129,225072,1,0,0:0:0:0:
492,297,225240,1,0,0:0:0:0:
385,75,225409,5,0,0:0:0:0:
148,269,225578,1,0,0:0:0:0:
266,32,225746,1,0,0:0:0:0:
371,265,225915,1,0,0:0:0:0:
148,32,226083,1,0,0:0:0:0:
257,275,226252,1,0,0:0:0:0:
381,34,226420,1,0,0:0:0:0:
141,271,226589,1,0,0:0:0:0:
258,33,226757,1,0,0:0:0:0:
327,299,226926,6,0,P|409:235|433:208,1,105.000004005432
454,76,227263,2,0,P|367:102|345:149,1,105.000004005432
141,126,227600,2,0,L|200:222,1,105.000004005432
266,349,227937,1,0,0:0:0:0:
259,97,228106,1,0,0:0:0:0:
92,276,228274,5,0,0:0:0:0:
92,276,228358,1,0,0:0:0:0:
92,276,228443,1,0,0:0:0:0:
181,28,228611,1,0,0:0:0:0:
270,270,228780,1,0,0:0:0:0:
376,105,228948,2,0,P|430:45|486:16,1,105.000004005432
470,265,229285,6,0,P|407:265|333:262,1,105.000004005432
206,175,229622,1,0,0:0:0:0:
206,175,229707,1,0,0:0:0:0:
206,175,229791,1,0,0:0:0:0:
432,350,229960,1,0,0:0:0:0:
270,77,230128,1,0,0:0:0:0:
157,307,230297,1,0,0:0:0:0:
383,185,230465,1,0,0:0:0:0:
162,75,230634,5,0,0:0:0:0:
270,322,230802,1,0,0:0:0:0:
59,221,230971,1,0,0:0:0:0:
268,52,231139,1,0,0:0:0:0:
157,307,231308,1,0,0:0:0:0:
383,108,231476,5,0,0:0:0:0:
175,2,231645,1,0,0:0:0:0:
299,295,231813,1,0,0:0:0:0:
98,86,231982,1,0,0:0:0:0:
406,23,232151,2,0,L|472:12,2,52.5000020027161
88,256,242600,5,0,0:0:0:0:
88,229,242684,1,0,0:0:0:0:
94,204,242768,1,0,0:0:0:0:
105,180,242852,1,0,0:0:0:0:
122,160,242937,1,0,0:0:0:0:
143,144,243021,1,0,0:0:0:0:
164,133,243106,2,0,P|216:105|240:53,1,105.000004005432
