osu file format v14

[General]
AudioFilename: audio89.888.mp3
AudioLeadIn: 0
PreviewTime: 81642
Countdown: 1
SampleSet: Normal
StackLeniency: 0.7
Mode: 0
LetterboxInBreaks: 0
WidescreenStoryboard: 1

[Editor]
DistanceSpacing: 1.5
BeatDivisor: 4
GridSize: 4
TimelineZoom: 1.9

[Metadata]
Title:Identic Conflict
TitleUnicode:Identic Conflict
Artist:bbn
ArtistUnicode:bbn
Creator:-Urushihara-
Version:[CS3.8 160BPM]
Source:
Tags:
BeatmapID:1857705
BeatmapSetID:875707

[Difficulty]
HPDrainRate:4
CircleSize:3.8
OverallDifficulty:9
ApproachRate:9
SliderMultiplier:1.4
SliderTickRate:1

[Events]
//Background and Video events
0,0,"bg.jpg",0,0
//Break Periods
2,75695,81162
2,229819,233786
2,258694,269224
//Storyboard Layer 0 (Background)
//Storyboard Layer 1 (Fail)
//Storyboard Layer 2 (Pass)
//Storyboard Layer 3 (Foreground)
//Storyboard Sound Samples

[TimingPoints]
3121,374.998500006,4,1,0,60,1,0
4620,-100,4,1,0,40,0,0
8557,-100,4,1,0,30,0,0
9495,-100,4,1,0,5,0,0
10620,-100,4,1,0,60,0,0
10995,-100,4,1,0,5,0,0
12119,-100,4,1,0,60,0,0
12494,-100,4,1,0,5,0,0
13620,-100,4,1,0,60,0,0
13807,-100,4,1,0,10,0,0
14557,-100,4,1,0,60,0,0
21120,-66.6666666666667,4,1,0,80,0,0
21589,-100,4,1,0,60,0,0
22620,-66.6666666666667,4,1,0,80,0,0
23089,-100,4,1,0,60,0,0
24120,-66.6666666666667,4,1,0,60,0,0
24683,-100,4,1,0,60,0,0
27307,-100,4,1,0,10,0,0
27495,-100,4,1,0,60,0,0
28713,-100,4,1,0,40,0,0
30120,-100,4,1,0,60,0,0
36119,-100,4,1,0,40,0,0
37526,-100,4,1,0,60,0,0
40058,-100,4,1,0,30,0,0
40619,-100,4,1,0,60,0,0
49994,-200,4,1,0,60,0,0
50557,-100,4,1,0,60,0,0
51495,-133.333333333333,4,1,0,60,0,0
53651,-66.6666666666667,4,1,0,60,0,0
55995,-66.6666666666667,4,1,0,60,0,0
56276,-66.6666666666667,4,1,0,60,0,0
60119,-66.6666666666667,4,1,0,60,0,0
62651,-66.6666666666667,4,1,0,30,0,0
63495,-66.6666666666667,4,1,0,60,0,0
71557,-66.6666666666667,4,1,0,30,0,0
72495,-66.6666666666667,4,1,0,60,0,0
81870,-66.6666666666667,4,1,0,45,0,0
92369,-66.6666666666667,4,1,0,20,0,0
93870,-66.6666666666667,4,1,0,50,0,0
105963,-66.6666666666667,4,1,0,50,0,1
106994,-66.6666666666667,4,1,0,50,0,0
107369,-50,4,1,0,50,0,1
129869,-100,4,1,0,50,0,0
142995,-50,4,1,0,50,0,0
143744,-50,4,1,0,50,0,0
154994,-50,4,1,0,20,0,0
155745,-50,4,1,0,50,0,0
160995,-50,4,1,0,20,0,0
161745,-50,4,1,0,50,0,0
179745,-40,4,1,0,50,0,0
180120,-100,4,1,0,50,0,0
181619,-100,4,1,0,50,0,0
205619,-133.333333333333,4,1,0,50,0,0
234494,-66.6666666666667,4,1,0,50,0,0

[HitObjects]
179,250,3121,5,0,0:0:0:0:
348,84,4620,1,0,0:0:0:0:
124,176,6120,1,0,0:0:0:0:
360,220,7619,1,0,0:0:0:0:
104,216,8557,5,0,0:0:0:0:
156,132,8932,1,0,0:0:0:0:
175,112,9120,2,0,P|248:64|316:48,1,140
360,320,10620,6,0,P|316:288|280:192,1,140
476,56,12119,2,0,L|312:88,1,140
140,312,13620,6,0,P|112:264|108:248,1,70
112,232,13902,1,0,0:0:0:0:
123,199,13995,1,0,0:0:0:0:
145,171,14089,1,0,0:0:0:0:
173,152,14182,1,0,0:0:0:0:
207,142,14277,1,0,0:0:0:0:
242,143,14370,6,0,P|304:128|328:112,1,70
444,40,14932,5,0,0:0:0:0:
444,40,15120,2,0,P|452:92|436:180,1,140
360,348,15870,2,0,L|272:232,1,140
164,96,16620,6,2,P|216:112|316:104,1,140
32,32,17369,2,0,L|16:200,1,140
0,288,17932,1,0,0:0:0:0:
272,216,18120,6,0,P|208:204|172:132,1,140
368,112,18870,2,0,L|416:248,1,140
460,360,19432,1,0,0:0:0:0:
208,272,19620,6,0,L|160:128,1,140
328,44,20370,2,0,P|240:52|212:8,1,140
214,17,20933,1,0,0:0:0:0:
388,144,21120,6,0,L|360:360,1,210.000008010865
361,352,21869,1,0,0:0:0:0:
288,132,22057,1,0,0:0:0:0:
288,132,22245,2,0,L|200:164,1,70
144,344,22620,6,0,L|76:132,1,210.000008010865
79,144,23370,1,0,0:0:0:0:
272,184,23557,1,0,0:0:0:0:
272,184,23745,2,0,L|300:100,1,70
396,288,24120,6,0,L|184:328,1,210.000008010865
189,326,24870,1,0,0:0:0:0:
268,204,25058,1,0,0:0:0:0:
268,204,25245,2,0,L|224:124,1,70
148,68,25620,6,0,P|244:68|284:12,1,140
256,192,26183,12,0,27307,0:0:0:0:
188,200,27495,5,0,0:0:0:0:
188,200,27682,1,0,0:0:0:0:
214,228,27776,1,0,0:0:0:0:
248,244,27869,1,0,0:0:0:0:
286,247,27963,1,0,0:0:0:0:
323,235,28057,1,0,0:0:0:0:
352,211,28151,1,0,0:0:0:0:
371,178,28244,1,0,0:0:0:0:
376,140,28337,1,0,0:0:0:0:
367,103,28432,1,0,0:0:0:0:
344,71,28525,1,0,0:0:0:0:
312,51,28620,1,0,0:0:0:0:
312,51,28713,5,0,0:0:0:0:
268,51,28807,1,0,0:0:0:0:
312,86,28900,1,0,0:0:0:0:
268,86,28995,1,0,0:0:0:0:
312,121,29088,1,0,0:0:0:0:
267,121,29182,1,0,0:0:0:0:
312,156,29276,1,0,0:0:0:0:
268,156,29370,1,0,0:0:0:0:
312,191,29463,1,0,0:0:0:0:
268,191,29557,1,0,0:0:0:0:
312,226,29651,1,0,0:0:0:0:
268,226,29745,1,0,0:0:0:0:
312,261,29838,1,0,0:0:0:0:
268,261,29933,1,0,0:0:0:0:
312,296,30026,1,0,0:0:0:0:
267,296,30120,5,0,0:0:0:0:
236,312,30213,1,0,0:0:0:0:
202,319,30307,1,0,0:0:0:0:
167,318,30400,1,0,0:0:0:0:
133,307,30495,1,0,0:0:0:0:
104,288,30588,1,0,0:0:0:0:
81,263,30681,1,0,0:0:0:0:
65,232,30775,1,0,0:0:0:0:
57,198,30869,1,0,0:0:0:0:
59,163,30963,1,0,0:0:0:0:
70,129,31056,1,0,0:0:0:0:
89,100,31150,1,0,0:0:0:0:
116,76,31244,2,0,P|148:56|172:48,2,35
164,176,31619,5,0,0:0:0:0:
183,204,31713,1,0,0:0:0:0:
213,222,31806,1,0,0:0:0:0:
247,227,31900,1,0,0:0:0:0:
280,218,31994,1,0,0:0:0:0:
307,195,32088,1,0,0:0:0:0:
324,164,32182,6,0,L|400:40,1,140
176,180,32745,2,0,L|240:248,1,70
244,252,33120,1,0,0:0:0:0:
268,277,33214,1,0,0:0:0:0:
298,294,33307,1,0,0:0:0:0:
332,303,33400,1,0,0:0:0:0:
367,302,33495,1,0,0:0:0:0:
400,291,33588,1,0,0:0:0:0:
429,272,33682,1,0,0:0:0:0:
452,246,33775,1,0,0:0:0:0:
466,214,33870,1,0,0:0:0:0:
472,180,33963,1,0,0:0:0:0:
468,145,34057,1,0,0:0:0:0:
454,113,34150,1,0,0:0:0:0:
432,88,34245,2,0,P|412:56|408:48,2,35
340,196,34620,5,0,0:0:0:0:
312,217,34713,1,0,0:0:0:0:
279,228,34807,1,0,0:0:0:0:
244,226,34900,1,0,0:0:0:0:
213,212,34995,1,0,0:0:0:0:
188,187,35088,1,0,0:0:0:0:
174,155,35182,1,0,0:0:0:0:
173,120,35275,1,0,0:0:0:0:
173,86,35370,1,0,0:0:0:0:
156,56,35463,1,0,0:0:0:0:
126,38,35556,1,0,0:0:0:0:
91,38,35651,1,0,0:0:0:0:
61,55,35744,1,0,0:0:0:0:
43,85,35838,1,0,0:0:0:0:
44,120,35932,2,0,L|44:176,1,35
68,200,36119,5,0,0:0:0:0:
74,243,36213,1,0,0:0:0:0:
103,196,36306,1,0,0:0:0:0:
108,239,36401,1,0,0:0:0:0:
138,191,36494,1,0,0:0:0:0:
143,236,36588,1,0,0:0:0:0:
173,187,36682,1,0,0:0:0:0:
178,231,36776,1,0,0:0:0:0:
207,183,36869,1,0,0:0:0:0:
213,226,36963,1,0,0:0:0:0:
242,178,37057,1,0,0:0:0:0:
247,222,37151,1,0,0:0:0:0:
277,174,37244,1,0,0:0:0:0:
282,218,37339,1,0,0:0:0:0:
312,172,37432,1,0,0:0:0:0:
346,167,37526,5,0,0:0:0:0:
379,177,37619,1,0,0:0:0:0:
405,200,37712,1,0,0:0:0:0:
419,232,37807,1,0,0:0:0:0:
419,266,37900,1,0,0:0:0:0:
405,298,37994,1,0,0:0:0:0:
378,320,38087,1,0,0:0:0:0:
345,330,38182,1,0,0:0:0:0:
310,325,38275,1,0,0:0:0:0:
276,312,38369,1,0,0:0:0:0:
251,288,38463,1,0,0:0:0:0:
231,260,38557,1,0,0:0:0:0:
223,227,38650,1,0,0:0:0:0:
229,192,38745,1,0,0:0:0:0:
248,164,38838,2,0,P|268:128|268:124,2,35
356,200,39120,5,0,0:0:0:0:
373,169,39213,1,0,0:0:0:0:
390,139,39307,1,0,0:0:0:0:
408,109,39400,1,0,0:0:0:0:
344,24,39495,6,0,L|276:152,1,140
192,240,40058,2,0,L|156:280,2,35
160,208,40339,2,0,L|106:210,2,35
147,165,40619,6,0,L|97:143,3,35
82,131,40994,1,0,0:0:0:0:
87,96,41088,1,0,0:0:0:0:
102,65,41181,1,0,0:0:0:0:
126,39,41275,1,0,0:0:0:0:
156,22,41369,1,0,0:0:0:0:
190,14,41463,1,0,0:0:0:0:
225,17,41556,1,0,0:0:0:0:
257,29,41650,5,0,0:0:0:0:
285,51,41744,1,0,0:0:0:0:
304,80,41838,1,0,0:0:0:0:
315,113,41931,1,0,0:0:0:0:
315,148,42024,1,0,0:0:0:0:
305,181,42119,1,0,0:0:0:0:
286,210,42212,1,0,0:0:0:0:
259,233,42307,2,0,P|224:264|223:269,1,35
156,331,42495,5,0,0:0:0:0:
138,306,42589,1,0,0:0:0:0:
127,278,42682,1,0,0:0:0:0:
123,248,42775,1,0,0:0:0:0:
126,217,42870,1,0,0:0:0:0:
136,189,42963,1,0,0:0:0:0:
152,163,43057,1,0,0:0:0:0:
174,142,43150,1,0,0:0:0:0:
200,127,43245,1,0,0:0:0:0:
229,118,43338,1,0,0:0:0:0:
259,117,43432,1,0,0:0:0:0:
289,122,43525,1,0,0:0:0:0:
317,134,43620,1,0,0:0:0:0:
341,152,43713,1,0,0:0:0:0:
361,180,43808,2,0,P|381:226|390:238,3,35
393,253,44183,5,0,0:0:0:0:
363,271,44276,1,0,0:0:0:0:
329,278,44370,1,0,0:0:0:0:
294,273,44463,1,0,0:0:0:0:
264,257,44558,1,0,0:0:0:0:
240,231,44651,1,0,0:0:0:0:
227,199,44745,1,0,0:0:0:0:
226,164,44838,1,0,0:0:0:0:
236,131,44933,1,0,0:0:0:0:
257,103,45026,1,0,0:0:0:0:
287,84,45119,1,0,0:0:0:0:
320,76,45213,1,0,0:0:0:0:
355,81,45307,1,0,0:0:0:0:
405,198,45494,5,0,0:0:0:0:
413,231,45588,1,0,0:0:0:0:
422,265,45681,1,0,0:0:0:0:
301,272,45869,5,0,0:0:0:0:
309,305,45963,1,0,0:0:0:0:
318,339,46056,1,0,0:0:0:0:
183,222,46245,5,0,0:0:0:0:
190,256,46339,1,0,0:0:0:0:
198,290,46432,1,0,0:0:0:0:
96,113,46620,5,0,0:0:0:0:
74,140,46714,1,0,0:0:0:0:
52,167,46807,1,0,0:0:0:0:
47,338,46995,5,0,0:0:0:0:
68,310,47089,1,0,0:0:0:0:
90,283,47182,1,0,0:0:0:0:
274,115,47370,5,0,0:0:0:0:
255,144,47463,1,0,0:0:0:0:
236,174,47557,1,0,0:0:0:0:
400,286,47745,5,0,0:0:0:0:
419,257,47838,1,0,0:0:0:0:
439,228,47932,1,0,0:0:0:0:
244,19,48120,5,0,0:0:0:0:
231,51,48213,1,0,0:0:0:0:
218,83,48307,1,0,0:0:0:0:
298,165,48495,5,0,0:0:0:0:
311,197,48588,1,0,0:0:0:0:
314,231,48682,1,0,0:0:0:0:
307,265,48775,1,0,0:0:0:0:
289,295,48870,1,0,0:0:0:0:
263,319,48963,1,0,0:0:0:0:
231,333,49057,1,0,0:0:0:0:
196,336,49150,1,0,0:0:0:0:
162,329,49245,1,0,0:0:0:0:
132,312,49338,1,0,0:0:0:0:
108,286,49431,1,0,0:0:0:0:
94,254,49525,1,0,0:0:0:0:
90,220,49619,1,0,0:0:0:0:
96,186,49713,1,0,0:0:0:0:
113,155,49806,1,0,0:0:0:0:
138,131,49901,1,0,0:0:0:0:
171,117,49994,6,0,P|221:98|271:57,1,105
357,226,50744,2,0,L|323:144,1,70
287,315,51120,2,0,P|340:337|372:333,1,70
236,211,51495,6,0,L|164:226,1,52.5000020027161
40,241,51870,1,0,0:0:0:0:
40,241,51964,1,0,0:0:0:0:
40,241,52057,1,0,0:0:0:0:
182,53,52245,1,0,0:0:0:0:
270,260,52432,5,0,0:0:0:0:
282,250,52525,1,0,0:0:0:0:
293,239,52619,1,0,0:0:0:0:
304,228,52712,1,0,0:0:0:0:
314,215,52807,1,0,0:0:0:0:
323,203,52900,1,0,0:0:0:0:
331,189,52994,1,0,0:0:0:0:
339,175,53087,1,0,0:0:0:0:
345,161,53182,1,0,0:0:0:0:
350,146,53275,1,0,0:0:0:0:
353,132,53370,2,0,P|364:85|369:58,1,52.5000020027161
38,95,53745,6,0,L|80:201,1,105.000004005432
320,273,54120,2,0,L|278:163,1,105.000004005432
234,13,54494,1,0,0:0:0:0:
234,13,54589,1,0,0:0:0:0:
234,13,54682,1,0,0:0:0:0:
457,237,54869,1,0,0:0:0:0:
457,237,54964,1,0,0:0:0:0:
457,237,55057,6,0,P|470:204|459:132,1,105.000004005432
338,11,55432,1,0,0:0:0:0:
241,219,55620,5,0,0:0:0:0:
218,213,55714,1,0,0:0:0:0:
198,203,55807,1,0,0:0:0:0:
179,189,55901,1,0,0:0:0:0:
165,173,55995,2,0,P|141:149|131:65,1,105.000004005432
313,0,56370,6,0,L|336:112,1,105.000004005432
357,284,56745,1,0,0:0:0:0:
170,89,56932,1,0,0:0:0:0:
454,128,57120,2,0,L|429:6,1,105.000004005432
216,222,57495,2,0,L|247:339,1,105.000004005432
267,98,57870,5,0,0:0:0:0:
230,85,57963,1,0,0:0:0:0:
192,80,58057,1,0,0:0:0:0:
154,82,58150,1,0,0:0:0:0:
116,91,58245,2,0,P|74:108|-5:107,1,105.000004005432
242,240,58620,5,0,0:0:0:0:
256,275,58713,1,0,0:0:0:0:
281,304,58806,1,0,0:0:0:0:
315,322,58900,1,0,0:0:0:0:
353,328,58994,1,0,0:0:0:0:
390,322,59088,1,0,0:0:0:0:
424,303,59181,1,0,0:0:0:0:
449,274,59275,1,0,0:0:0:0:
463,238,59369,2,0,L|448:133,1,105.000004005432
433,0,59744,5,0,0:0:0:0:
335,281,59932,1,0,0:0:0:0:
45,122,60119,6,0,L|184:115,1,105.000004005432
480,152,60495,2,0,L|252:165,1,210.000008010865
94,168,61057,1,0,0:0:0:0:
286,40,61245,1,0,0:0:0:0:
170,305,61432,1,0,0:0:0:0:
299,162,61620,5,0,0:0:0:0:
326,154,61713,1,0,0:0:0:0:
354,159,61807,1,0,0:0:0:0:
376,176,61900,1,0,0:0:0:0:
389,201,61995,1,0,0:0:0:0:
388,230,62088,1,0,0:0:0:0:
375,255,62182,1,0,0:0:0:0:
352,272,62275,1,0,0:0:0:0:
324,276,62370,1,0,0:0:0:0:
297,267,62463,1,0,0:0:0:0:
277,248,62557,1,0,0:0:0:0:
268,220,62651,5,0,0:0:0:0:
268,206,62745,1,0,0:0:0:0:
267,193,62838,1,0,0:0:0:0:
262,181,62932,1,0,0:0:0:0:
254,171,63026,1,0,0:0:0:0:
245,162,63120,1,0,0:0:0:0:
233,155,63213,1,0,0:0:0:0:
221,152,63307,1,0,0:0:0:0:
207,151,63401,1,0,0:0:0:0:
192,156,63495,6,0,P|128:168|8:60,1,210.000008010865
280,28,64057,2,0,L|380:112,1,105.000004005432
488,200,64432,1,0,0:0:0:0:
187,53,64619,5,0,0:0:0:0:
182,105,64713,1,0,0:0:0:0:
192,156,64806,1,0,0:0:0:0:
217,202,64900,1,0,0:0:0:0:
254,239,64994,6,0,P|296:288|316:332,1,105.000004005432
89,259,65370,2,0,L|43:146,1,105.000004005432
304,12,65745,2,0,L|348:120,1,105.000004005432
444,296,66120,2,0,P|324:292|232:216,1,210.000008010865
140,120,66682,1,0,0:0:0:0:
246,35,66870,5,0,0:0:0:0:
280,17,66964,1,0,0:0:0:0:
316,29,67058,1,0,0:0:0:0:
334,63,67151,1,0,0:0:0:0:
324,100,67245,1,0,0:0:0:0:
132,196,67433,5,0,0:0:0:0:
124,240,67526,1,0,0:0:0:0:
152,244,67621,1,0,0:0:0:0:
144,288,67714,1,0,0:0:0:0:
188,282,67808,1,0,0:0:0:0:
180,326,67901,1,0,0:0:0:0:
234,305,67996,1,0,0:0:0:0:
226,349,68089,1,0,0:0:0:0:
286,311,68183,1,0,0:0:0:0:
278,355,68276,1,0,0:0:0:0:
337,299,68369,6,0,P|428:256|480:144,1,210.000008010865
448,12,68932,1,0,0:0:0:0:
292,108,69119,2,0,L|292:232,1,105.000004005432
128,364,69494,6,0,L|88:136,1,210.000008010865
104,140,69964,1,0,0:0:0:0:
140,102,70057,1,0,0:0:0:0:
187,81,70151,1,0,0:0:0:0:
240,79,70244,1,0,0:0:0:0:
400,136,70432,5,0,0:0:0:0:
400,187,70525,1,0,0:0:0:0:
372,230,70619,1,0,0:0:0:0:
323,248,70712,1,0,0:0:0:0:
273,235,70807,1,0,0:0:0:0:
240,196,70900,1,0,0:0:0:0:
248,144,70995,2,0,P|288:72|432:52,1,210.000008010865
444,224,71557,5,0,0:0:0:0:
431,251,71650,1,0,0:0:0:0:
414,275,71744,1,0,0:0:0:0:
392,295,71837,1,0,0:0:0:0:
366,310,71932,1,0,0:0:0:0:
337,320,72025,1,0,0:0:0:0:
308,323,72119,1,0,0:0:0:0:
278,321,72212,1,0,0:0:0:0:
249,312,72307,1,0,0:0:0:0:
223,297,72400,1,0,0:0:0:0:
199,279,72495,2,0,P|150:233|121:137,1,157.500006008148
168,48,72870,5,0,0:1:0:0:
195,27,72963,2,0,L|246:-2,2,52.5000020027161,0|0|0,0:1|0:1|0:1,0:1:0:0:
217,158,73244,5,0,0:0:0:0:
243,202,73338,1,0,0:0:0:0:
288,228,73431,1,0,0:0:0:0:
340,227,73526,2,0,P|395:210|397:210,2,52.5000020027161
412,100,73807,5,0,0:0:0:0:
360,94,73901,1,0,0:0:0:0:
309,108,73994,1,0,0:0:0:0:
268,139,74088,1,0,0:0:0:0:
241,184,74182,1,0,0:0:0:0:
233,236,74276,1,0,0:0:0:0:
245,287,74369,1,0,0:0:0:0:
231,335,74463,5,0,0:0:0:0:
183,351,74556,1,0,0:0:0:0:
144,320,74650,1,0,0:0:0:0:
147,269,74745,1,0,0:0:0:0:
172,224,74839,1,0,0:0:0:0:
213,192,74932,1,0,0:0:0:0:
264,178,75026,1,0,0:0:0:0:
315,184,75120,5,0,0:0:0:0:
366,177,75214,1,0,0:0:0:0:
410,149,75307,1,0,0:0:0:0:
439,106,75400,1,0,0:0:0:0:
448,54,75495,1,0,0:0:0:0:
196,252,81870,5,0,0:0:0:0:
305,104,82058,1,0,0:0:0:0:
285,308,82245,1,0,0:0:0:0:
228,49,82433,1,0,0:0:0:0:
396,185,82619,2,0,L|412:69,1,105.000004005432
232,232,82994,5,0,0:0:0:0:
232,232,83182,2,0,P|236:292|376:312,1,210.000008010865
472,262,83744,1,0,0:0:0:0:
365,51,83932,1,0,0:0:0:0:
232,232,84119,1,0,0:0:0:0:
100,16,84307,1,0,0:0:0:0:
100,16,84495,6,0,P|33:95|44:220,1,210.000008010865
116,358,85057,1,0,0:0:0:0:
138,118,85245,1,0,0:0:0:0:
33,197,85432,1,0,0:0:0:0:
236,128,85620,2,0,L|366:85,1,105.000004005432
472,37,85995,5,0,0:0:0:0:
357,279,86182,1,0,0:0:0:0:
321,28,86370,5,0,0:0:0:0:
451,322,86557,1,0,0:0:0:0:
206,114,86745,1,0,0:0:0:0:
494,226,86933,1,0,0:0:0:0:
188,228,87119,5,0,0:0:0:0:
426,60,87307,1,0,0:0:0:0:
328,316,87494,1,0,0:0:0:0:
333,27,87682,1,0,0:0:0:0:
188,228,87869,6,0,P|146:197|133:146,1,105.000004005432
132,23,88244,1,0,0:0:0:0:
294,149,88432,1,0,0:0:0:0:
76,302,88619,5,0,0:0:0:0:
226,47,88807,1,0,0:0:0:0:
337,283,88995,1,0,0:0:0:0:
84,149,89182,6,0,L|326:149,1,210.000008010865
430,145,89745,1,0,0:0:0:0:
199,291,89932,1,0,0:0:0:0:
325,23,90120,1,0,0:0:0:0:
424,252,90307,1,0,0:0:0:0:
237,184,90495,6,0,P|165:137|125:16,1,210.000008010865
277,34,91057,1,0,0:0:0:0:
103,261,91245,1,0,0:0:0:0:
360,122,91433,1,0,0:0:0:0:
55,102,91620,1,0,0:0:0:0:
362,275,91808,5,0,0:0:0:0:
226,23,91994,1,0,0:0:0:0:
124,235,92182,1,0,0:0:0:0:
336,153,92369,5,0,0:0:0:0:
320,132,92463,1,0,0:0:0:0:
322,107,92556,1,0,0:0:0:0:
340,89,92650,1,0,0:0:0:0:
366,87,92744,1,0,0:0:0:0:
386,104,92838,1,0,0:0:0:0:
390,129,92931,1,0,0:0:0:0:
376,150,93025,1,0,0:0:0:0:
351,157,93119,1,0,0:0:0:0:
328,152,93213,1,0,0:0:0:0:
306,149,93306,1,0,0:0:0:0:
284,148,93400,1,0,0:0:0:0:
261,148,93494,1,0,0:0:0:0:
239,149,93588,1,0,0:0:0:0:
216,152,93681,1,0,0:0:0:0:
194,156,93774,1,0,0:0:0:0:
121,71,93870,6,0,L|198:266,1,210.000008010865
237,360,94432,1,0,0:0:0:0:
59,208,94620,1,0,0:0:0:0:
340,300,94807,1,0,0:0:0:0:
75,333,94995,1,0,0:0:0:0:
254,198,95182,6,0,B|331:132|331:132|425:46,1,210.000008010865
271,9,95745,1,0,0:0:0:0:
424,265,95932,1,0,0:0:0:0:
128,105,96120,1,0,0:0:0:0:
486,167,96308,1,0,0:0:0:0:
269,237,96494,6,0,P|186:264|95:183,1,210.000008010865
79,70,97057,1,0,0:0:0:0:
4,319,97244,1,0,0:0:0:0:
231,137,97432,1,0,0:0:0:0:
169,342,97619,5,0,0:0:0:0:
70,154,97807,1,0,0:0:0:0:
285,267,97994,1,0,0:0:0:0:
428,96,98182,2,0,P|493:9|515:-21,1,105.000004005432
508,188,98557,5,0,0:0:0:0:
276,43,98745,1,0,0:0:0:0:
296,319,98932,1,0,0:0:0:0:
510,144,99120,5,0,0:0:0:0:
222,67,99307,1,0,0:0:0:0:
250,338,99495,1,0,0:0:0:0:
494,95,99682,1,0,0:0:0:0:
209,173,99870,6,0,L|90:356,1,210.000008010865
101,122,100432,1,0,0:0:0:0:
250,338,100620,1,0,0:0:0:0:
285,120,100807,1,0,0:0:0:0:
146,318,100995,1,0,0:0:0:0:
412,145,101183,1,0,0:0:0:0:
43,33,101369,6,0,P|118:44|268:66,1,210.000008010865
293,26,101932,1,0,0:0:0:0:
162,228,102119,1,0,0:0:0:0:
383,102,102307,1,0,0:0:0:0:
314,276,102494,5,0,0:0:0:0:
276,311,102588,1,0,0:0:0:0:
227,331,102681,1,0,0:0:0:0:
175,330,102775,1,0,0:0:0:0:
70,264,102869,6,0,L|297:215,1,210.000008010865
426,184,103432,1,0,0:0:0:0:
235,90,103620,1,0,0:0:0:0:
328,337,103807,1,0,0:0:0:0:
377,4,103995,1,0,0:0:0:0:
274,178,104182,2,0,P|210:190|141:156,1,105.000004005432
148,164,104463,5,0,0:0:0:0:
121,120,104557,1,0,0:0:0:0:
135,71,104650,1,0,0:0:0:0:
180,47,104744,1,0,0:0:0:0:
228,63,104838,1,0,0:0:0:0:
249,110,104932,1,0,0:0:0:0:
230,157,105025,1,0,0:0:0:0:
203,202,105120,1,0,0:0:0:0:
199,254,105213,5,0,0:0:0:0:
219,302,105307,1,0,0:0:0:0:
258,336,105401,1,0,0:0:0:0:
308,349,105495,1,0,0:0:0:0:
359,339,105588,1,0,0:0:0:0:
400,307,105681,1,0,0:0:0:0:
422,260,105776,1,0,0:0:0:0:
421,208,105869,1,0,0:0:0:0:
403,175,105963,5,0,0:0:0:0:
369,204,106056,1,0,0:0:0:0:
350,171,106151,1,0,0:0:0:0:
317,201,106243,1,0,0:0:0:0:
298,168,106338,1,0,0:0:0:0:
264,197,106431,1,0,0:0:0:0:
245,164,106526,1,0,0:0:0:0:
212,194,106618,1,0,0:0:0:0:
193,161,106713,1,0,0:0:0:0:
160,191,106806,1,0,0:0:0:0:
141,158,106900,1,0,0:0:0:0:
102,171,106995,5,0,0:0:0:0:
67,150,107089,1,0,0:0:0:0:
60,110,107182,1,0,0:0:0:0:
86,79,107277,1,0,0:0:0:0:
127,79,107369,6,0,P|226:85|407:22,1,280
286,188,107932,1,0,0:0:0:0:
286,188,108025,1,0,0:0:0:0:
286,188,108120,2,0,P|253:282|323:330,1,140
512,363,108495,2,0,L|393:289,1,140
170,151,108870,6,0,P|236:86|302:69,1,140
43,279,109245,2,0,L|181:299,1,140
375,326,109620,1,0,0:0:0:0:
375,326,109713,1,0,0:0:0:0:
375,326,109807,1,0,0:0:0:0:
233,103,109995,1,0,0:0:0:0:
504,27,110182,1,0,0:0:0:0:
430,197,110370,6,0,L|369:334,1,140
181,384,110744,2,0,L|132:242,1,140
96,106,111119,1,0,0:0:0:0:
96,106,111213,1,0,0:0:0:0:
96,106,111307,1,0,0:0:0:0:
312,269,111494,1,0,0:0:0:0:
234,22,111682,1,0,0:0:0:0:
72,221,111869,6,0,L|95:361,1,140
337,95,112244,2,0,L|239:195,1,140
115,310,112619,1,0,0:0:0:0:
115,310,112714,1,0,0:0:0:0:
115,310,112807,1,0,0:0:0:0:
210,87,112995,5,0,0:0:0:0:
313,242,113183,2,0,P|346:302|350:372,1,140
466,140,113557,2,0,L|492:-15,1,140
489,2,113932,1,0,0:0:0:0:
321,173,114120,1,0,0:0:0:0:
321,173,114213,1,0,0:0:0:0:
321,173,114307,1,0,0:0:0:0:
143,47,114495,5,0,0:0:0:0:
321,173,114682,2,0,L|357:313,1,140
71,327,115056,2,0,L|35:180,1,140
0,56,115432,1,0,0:0:0:0:
219,266,115619,1,0,0:0:0:0:
219,266,115713,1,0,0:0:0:0:
219,266,115807,1,0,0:0:0:0:
322,49,115994,1,0,0:0:0:0:
366,285,116182,1,0,0:0:0:0:
366,285,116369,6,0,L|254:156,1,140
73,20,116744,2,0,L|262:20,1,140
402,26,117119,1,0,0:0:0:0:
402,26,117214,1,0,0:0:0:0:
402,26,117307,1,0,0:0:0:0:
200,258,117494,1,0,0:0:0:0:
469,10,117682,1,0,0:0:0:0:
143,165,117870,6,0,L|347:165,1,140
427,309,118245,2,0,L|270:309,1,140
97,306,118620,1,0,0:0:0:0:
97,306,118713,1,0,0:0:0:0:
97,306,118807,1,0,0:0:0:0:
275,124,118995,1,0,0:0:0:0:
276,310,119182,1,0,0:0:0:0:
127,144,119370,6,0,L|125:2,1,140
384,137,119745,2,0,P|324:205|228:230,1,140
252,61,120119,1,0,0:0:0:0:
252,61,120213,1,0,0:0:0:0:
252,61,120307,1,0,0:0:0:0:
478,217,120494,1,0,0:0:0:0:
221,319,120682,1,0,0:0:0:0:
356,138,120869,6,0,L|449:17,1,140
478,217,121244,1,0,0:0:0:0:
265,62,121432,1,0,0:0:0:0:
325,282,121619,1,0,0:0:0:0:
325,282,121714,1,0,0:0:0:0:
325,282,121807,1,0,0:0:0:0:
412,60,121994,1,0,0:0:0:0:
168,31,122182,1,0,0:0:0:0:
353,195,122370,6,0,L|480:285,1,140
293,34,122745,2,0,L|142:34,1,140
15,30,123120,1,0,0:0:0:0:
15,30,123213,1,0,0:0:0:0:
15,30,123307,1,0,0:0:0:0:
214,308,123495,1,0,0:0:0:0:
400,100,123682,1,0,0:0:0:0:
132,44,123870,6,0,L|166:217,1,140
414,330,124245,2,0,L|376:188,1,140
346,55,124619,1,0,0:0:0:0:
346,55,124713,1,0,0:0:0:0:
346,55,124807,1,0,0:0:0:0:
160,259,124994,1,0,0:0:0:0:
494,57,125182,1,0,0:0:0:0:
294,253,125369,6,0,L|255:106,1,140
8,17,125744,2,0,L|47:176,1,140
85,369,126119,1,0,0:0:0:0:
85,369,126214,1,0,0:0:0:0:
85,369,126307,1,0,0:0:0:0:
342,98,126494,1,0,0:0:0:0:
223,313,126682,1,0,0:0:0:0:
402,165,126869,6,0,P|444:91|348:-1,1,210
293,129,127245,1,0,0:0:0:0:
293,129,127338,2,0,P|291:200|297:215,2,70
250,317,127620,5,0,0:0:0:0:
186,289,127713,1,0,0:0:0:0:
150,230,127807,1,0,0:0:0:0:
154,161,127900,2,0,P|157:89|153:75,2,70
246,16,128182,5,0,0:0:0:0:
246,16,128275,2,0,L|311:75,1,70
321,84,128463,1,0,0:0:0:0:
349,110,128557,1,0,0:0:0:0:
357,149,128650,1,0,0:0:0:0:
340,184,128743,1,0,0:0:0:0:
305,203,128838,1,0,0:0:0:0:
266,197,128932,1,0,0:0:0:0:
238,169,129025,1,0,0:0:0:0:
233,131,129118,5,0,0:0:0:0:
228,104,129213,1,0,0:0:0:0:
213,83,129306,1,0,0:0:0:0:
190,70,129400,1,0,0:0:0:0:
164,69,129494,1,0,0:0:0:0:
140,78,129588,1,0,0:0:0:0:
123,97,129681,1,0,0:0:0:0:
115,122,129775,1,0,0:0:0:0:
39,188,129869,6,0,L|274:148,1,210
415,172,130619,2,0,P|390:107|310:66,1,140
282,52,131120,2,0,L|197:42,3,46.6666666666667
326,132,131619,5,0,0:0:0:0:
314,207,131744,1,0,0:0:0:0:
254,253,131868,1,0,0:0:0:0:
178,247,131994,1,0,0:0:0:0:
72,320,132120,5,0,0:0:0:0:
53,261,132245,1,0,0:0:0:0:
66,201,132369,1,0,0:0:0:0:
109,156,132495,1,0,0:0:0:0:
195,50,132619,5,0,0:0:0:0:
220,99,132744,1,0,0:0:0:0:
246,149,132869,1,0,0:0:0:0:
272,199,132994,1,0,0:0:0:0:
297,249,133119,1,0,0:0:0:0:
323,298,133244,1,0,0:0:0:0:
414,375,133369,5,0,0:0:0:0:
439,336,133494,1,0,0:0:0:0:
445,290,133618,1,0,0:0:0:0:
428,247,133744,1,0,0:0:0:0:
338,170,133870,1,0,0:0:0:0:
310,132,133994,1,0,0:0:0:0:
302,87,134119,1,0,0:0:0:0:
313,42,134245,1,0,0:0:0:0:
444,86,134369,5,0,0:0:0:0:
398,97,134494,1,0,0:0:0:0:
353,109,134619,1,0,0:0:0:0:
308,120,134744,1,0,0:0:0:0:
263,132,134869,1,0,0:0:0:0:
217,143,134993,1,0,0:0:0:0:
172,155,135119,1,0,0:0:0:0:
65,193,135245,5,0,0:0:0:0:
100,259,135370,1,0,0:0:0:0:
173,281,135494,1,0,0:0:0:0:
239,245,135620,1,0,0:0:0:0:
294,137,135744,5,0,0:0:0:0:
350,89,135869,1,0,0:0:0:0:
419,116,135994,1,0,0:0:0:0:
428,189,136119,1,0,0:0:0:0:
378,302,136244,5,0,0:0:0:0:
321,313,136369,1,0,0:0:0:0:
293,262,136493,1,0,0:0:0:0:
334,221,136619,1,0,0:0:0:0:
374,113,136745,5,0,0:0:0:0:
328,73,136869,1,0,0:0:0:0:
270,87,136994,1,0,0:0:0:0:
247,142,137119,1,0,0:0:0:0:
180,252,137244,5,0,0:0:0:0:
167,207,137369,1,0,0:0:0:0:
154,162,137493,1,0,0:0:0:0:
141,117,137619,1,0,0:0:0:0:
128,72,137744,1,0,0:0:0:0:
115,27,137868,1,0,0:0:0:0:
63,120,137994,5,0,0:0:0:0:
80,177,138118,1,0,0:0:0:0:
136,198,138243,1,0,0:0:0:0:
187,166,138369,1,0,0:0:0:0:
282,89,138495,5,0,0:0:0:0:
324,73,138619,1,0,0:0:0:0:
367,90,138744,1,0,0:0:0:0:
388,130,138869,1,0,0:0:0:0:
290,194,138994,5,0,0:0:0:0:
325,224,139119,1,0,0:0:0:0:
360,255,139243,1,0,0:0:0:0:
395,286,139369,1,0,0:0:0:0:
430,317,139494,1,0,0:0:0:0:
465,347,139618,1,0,0:0:0:0:
288,344,139744,5,0,0:0:0:0:
233,315,139868,1,0,0:0:0:0:
201,263,139993,1,0,0:0:0:0:
202,201,140120,1,0,0:0:0:0:
113,100,140244,5,0,0:0:0:0:
83,154,140369,1,0,0:0:0:0:
69,214,140494,1,0,0:0:0:0:
69,277,140619,1,0,0:0:0:0:
125,376,140744,5,0,0:0:0:0:
171,371,140869,1,0,0:0:0:0:
217,366,140993,1,0,0:0:0:0:
264,362,141119,1,0,0:0:0:0:
310,357,141243,1,0,0:0:0:0:
357,353,141368,1,0,0:0:0:0:
464,319,141495,5,0,0:0:0:0:
495,251,141620,1,0,0:0:0:0:
453,191,141744,1,0,0:0:0:0:
379,198,141870,1,0,0:0:0:0:
267,241,141994,5,0,0:0:0:0:
210,266,142119,1,0,0:0:0:0:
149,262,142244,1,0,0:0:0:0:
95,231,142369,1,0,0:0:0:0:
19,138,142495,5,0,0:0:0:0:
8,78,142620,1,0,0:0:0:0:
43,29,142744,1,0,0:0:0:0:
103,19,142870,1,0,0:0:0:0:
222,78,142995,5,0,0:0:0:0:
267,89,143119,1,0,0:0:0:0:
312,100,143245,1,0,0:0:0:0:
358,111,143369,2,0,P|437:129|550:123,1,186.666666666667
254,30,143744,5,0,0:0:0:0:
232,87,143869,1,0,0:0:0:0:
241,148,143994,1,0,0:0:0:0:
280,196,144119,1,0,0:0:0:0:
337,296,144244,5,0,0:0:0:0:
296,337,144368,1,0,0:0:0:0:
240,347,144493,1,0,0:0:0:0:
188,323,144619,1,0,0:0:0:0:
160,273,144743,1,0,0:0:0:0:
178,124,144869,5,0,0:0:0:0:
237,159,144994,1,0,0:0:0:0:
264,222,145118,1,0,0:0:0:0:
248,289,145244,1,0,0:0:0:0:
197,335,145369,1,0,0:0:0:0:
128,341,145493,1,0,0:0:0:0:
78,242,145619,5,0,0:0:0:0:
102,191,145744,1,0,0:0:0:0:
143,154,145868,1,0,0:0:0:0:
195,135,145994,1,0,0:0:0:0:
251,138,146118,1,0,0:0:0:0:
301,161,146243,1,0,0:0:0:0:
370,258,146370,5,0,0:0:0:0:
411,237,146494,1,0,0:0:0:0:
440,201,146619,1,0,0:0:0:0:
451,156,146745,1,0,0:0:0:0:
442,111,146869,1,0,0:0:0:0:
415,73,146994,1,0,0:0:0:0:
303,16,147120,5,0,0:0:0:0:
294,52,147244,1,0,0:0:0:0:
296,89,147369,1,0,0:0:0:0:
309,123,147495,1,0,0:0:0:0:
332,152,147619,1,0,0:0:0:0:
363,173,147744,1,0,0:0:0:0:
424,89,147870,5,0,0:0:0:0:
378,79,147994,1,0,0:0:0:0:
331,77,148119,1,0,0:0:0:0:
285,83,148244,1,0,0:0:0:0:
240,96,148369,1,0,0:0:0:0:
199,117,148494,1,0,0:0:0:0:
155,235,148619,5,0,0:0:0:0:
169,275,148744,1,0,0:0:0:0:
161,318,148870,1,0,0:0:0:0:
133,350,148994,1,0,0:0:0:0:
92,364,149119,1,0,0:0:0:0:
50,356,149245,1,0,0:0:0:0:
17,327,149369,6,0,L|-21:124,1,186.666666666667
199,237,149744,5,0,0:0:0:0:
215,193,149869,1,0,0:0:0:0:
211,147,149993,1,0,0:0:0:0:
187,107,150119,1,0,0:0:0:0:
149,82,150244,1,0,0:0:0:0:
103,76,150368,1,0,0:0:0:0:
127,195,150494,5,0,0:0:0:0:
216,217,150618,1,0,0:0:0:0:
308,203,150743,1,0,0:0:0:0:
387,154,150869,2,0,L|532:22,1,186.666666666667
353,50,151245,5,0,0:0:0:0:
316,45,151369,1,0,0:0:0:0:
282,57,151494,1,0,0:0:0:0:
255,82,151620,1,0,0:0:0:0:
242,117,151744,1,0,0:0:0:0:
246,154,151869,1,0,0:0:0:0:
351,220,151995,5,0,0:0:0:0:
346,158,152119,1,0,0:0:0:0:
311,108,152244,1,0,0:0:0:0:
255,82,152370,2,0,P|147:70|74:26,1,186.666666666667
37,127,152744,5,0,0:0:0:0:
40,164,152869,1,0,0:0:0:0:
58,196,152994,1,0,0:0:0:0:
86,221,153119,1,0,0:0:0:0:
121,232,153244,1,0,0:0:0:0:
159,232,153369,1,0,0:0:0:0:
249,176,153494,5,0,0:0:0:0:
310,182,153619,1,0,0:0:0:0:
367,207,153743,1,0,0:0:0:0:
412,249,153869,6,0,L|490:326,1,70
323,352,154057,2,0,L|245:315,3,70
279,300,154432,2,0,L|257:216,3,70,0|0|0|0,0:3|0:3|0:3|0:3,0:3:0:0:
253,202,154807,5,0,0:0:0:0:
249,176,154900,1,0,0:0:0:0:
241,152,154994,1,0,0:0:0:0:
227,133,155089,1,0,0:0:0:0:
207,104,155182,1,0,0:0:0:0:
182,79,155275,1,0,0:0:0:0:
154,58,155369,1,0,0:0:0:0:
122,43,155463,1,0,0:0:0:0:
88,41,155557,1,0,0:0:0:0:
128,320,155745,6,0,L|96:160,1,140
384,320,156120,2,0,L|416:160,1,140
64,288,156495,6,0,L|32:128,1,140
459,291,156870,2,0,L|491:131,1,140
494,116,157151,1,0,0:0:0:0:
463,76,157245,1,0,0:0:0:0:
254,216,157431,1,0,0:0:0:0:
494,116,157619,6,0,L|384:269,1,140
9,108,157994,6,0,L|119:261,1,140
255,384,158369,2,0,L|255:231,1,140
257,210,158651,1,0,0:0:0:0:
258,163,158744,1,0,0:0:0:0:
258,0,158932,1,0,0:0:0:0:
512,167,159119,6,0,L|354:123,1,140
0,169,159494,2,0,L|157:125,1,140
414,272,159869,6,0,L|273:352,1,140
265,356,160150,1,0,0:0:0:0:
233,365,160244,1,0,0:0:0:0:
65,301,160432,5,0,0:0:0:0:
154,71,160620,1,0,0:0:0:0:
154,71,160713,1,0,0:0:0:0:
154,71,160807,1,0,0:0:0:0:
308,125,160995,5,0,0:0:0:0:
329,158,161088,1,0,0:0:0:0:
339,197,161182,1,0,0:0:0:0:
338,237,161275,1,0,0:0:0:0:
326,275,161370,1,0,0:0:0:0:
303,307,161463,1,0,0:0:0:0:
272,332,161557,1,0,0:0:0:0:
90,35,161745,6,0,L|113:184,1,140
422,35,162119,2,0,L|399:184,1,140
72,367,162494,6,0,L|37:224,1,140
440,367,162869,2,0,L|475:224,1,140
437,30,163151,2,0,P|417:107|417:107,1,70
376,259,163432,1,0,0:0:0:0:
123,26,163619,6,0,L|183:152,1,140
80,376,163994,2,0,L|4:211,1,140
345,68,164369,6,0,L|411:226,1,140
354,370,164650,2,0,L|318:286,1,70
263,143,164932,1,0,0:0:0:0:
441,0,165119,6,0,L|251:78,1,140
10,295,165495,2,0,L|176:243,1,140
512,284,165870,6,0,L|367:335,1,140
357,343,166150,1,0,0:0:0:0:
287,343,166243,1,0,0:0:0:0:
224,314,166337,1,0,0:0:0:0:
178,262,166430,1,0,0:0:0:0:
271,171,166620,5,0,0:0:0:0:
316,118,166713,1,0,0:0:0:0:
334,51,166806,1,0,0:0:0:0:
167,109,166994,5,0,0:0:0:0:
156,165,167088,1,0,0:0:0:0:
172,221,167181,1,0,0:0:0:0:
211,263,167275,1,0,0:0:0:0:
266,283,167369,1,0,0:0:0:0:
323,276,167463,1,0,0:0:0:0:
371,244,167556,1,0,0:0:0:0:
419,62,167744,6,0,P|350:56|290:89,1,140
17,190,168119,2,0,P|150:214|202:194,1,140
471,221,168494,6,0,L|338:175,1,140
119,363,168869,2,0,L|253:324,1,140
401,306,169150,1,0,0:0:0:0:
364,277,169244,1,0,0:0:0:0:
323,255,169337,1,0,0:0:0:0:
279,240,169431,1,0,0:0:0:0:
68,37,169619,6,0,P|106:164|135:213,1,140
414,221,169994,2,0,P|388:120|356:80,1,140
94,324,170370,6,0,L|226:220,1,140
314,189,170650,1,0,0:0:0:0:
318,235,170744,1,0,0:0:0:0:
303,279,170837,1,0,0:0:0:0:
272,313,170930,1,0,0:0:0:0:
446,259,171120,6,0,L|463:90,1,140
108,256,171494,2,0,L|81:78,1,140
459,1,171869,6,0,L|365:105,1,140
365,105,172151,1,0,0:0:0:0:
372,150,172244,1,0,0:0:0:0:
367,197,172338,1,0,0:0:0:0:
350,240,172431,1,0,0:0:0:0:
289,337,172619,1,0,0:0:0:0:
249,335,172713,1,0,0:0:0:0:
214,316,172806,1,0,0:0:0:0:
191,284,172900,1,0,0:0:0:0:
185,244,172994,1,0,0:0:0:0:
197,207,173088,1,0,0:0:0:0:
225,178,173181,1,0,0:0:0:0:
262,165,173274,5,0,0:0:0:0:
294,150,173369,1,0,0:0:0:0:
318,126,173462,1,0,0:0:0:0:
332,93,173556,1,0,0:0:0:0:
333,59,173650,1,0,0:0:0:0:
134,42,173744,6,0,L|93:175,1,140
467,246,174119,2,0,L|320:143,1,140
48,343,174494,6,0,L|242:343,1,140
260,27,174870,6,0,L|153:169,1,140
168,178,175150,1,0,0:0:0:0:
174,207,175245,6,0,P|181:246|218:282,1,70
295,334,175432,1,0,0:0:0:0:
497,86,175620,6,0,L|355:176,1,140
51,334,175995,2,0,L|212:251,1,140
494,344,176369,2,0,L|326:245,1,140
347,259,176651,1,0,0:0:0:0:
245,194,176744,6,0,L|181:154,2,70
91,32,177119,6,0,L|56:168,1,140
271,354,177494,2,0,L|306:218,1,140
48,72,177869,6,0,L|8:208,1,140
352,295,178244,2,0,L|384:156,1,140
408,48,178619,1,0,0:0:0:0:
408,48,178713,1,0,0:0:0:0:
293,133,178900,6,0,L|249:187,1,70
226,221,179088,1,0,0:0:0:0:
203,254,179182,1,0,0:0:0:0:
441,306,179369,6,0,L|384:264,1,70
356,240,179557,1,0,0:0:0:0:
267,147,179745,6,0,P|195:65|292:133,1,350
267,147,180495,5,0,0:0:0:0:
358,171,180869,1,0,0:0:0:0:
386,76,181244,1,0,0:0:0:0:
285,270,181619,5,0,0:0:0:0:
285,270,181807,5,0,0:0:0:0:
242,284,181901,1,0,0:0:0:0:
197,281,181994,1,0,0:0:0:0:
156,261,182088,1,0,0:0:0:0:
126,227,182182,1,0,0:0:0:0:
111,184,182276,1,0,0:0:0:0:
114,139,182369,1,0,0:0:0:0:
134,98,182463,1,0,0:0:0:0:
167,68,182557,1,0,0:0:0:0:
210,53,182651,1,0,0:0:0:0:
255,55,182744,1,0,0:0:0:0:
255,55,182837,5,0,0:0:0:0:
299,55,182931,1,0,0:0:0:0:
255,90,183024,1,0,0:0:0:0:
299,90,183119,1,0,0:0:0:0:
255,125,183212,1,0,0:0:0:0:
300,125,183306,1,0,0:0:0:0:
255,160,183400,1,0,0:0:0:0:
299,160,183494,1,0,0:0:0:0:
255,195,183587,1,0,0:0:0:0:
299,195,183681,1,0,0:0:0:0:
255,230,183775,1,0,0:0:0:0:
299,230,183869,1,0,0:0:0:0:
255,265,183962,1,0,0:0:0:0:
299,265,184057,1,0,0:0:0:0:
256,308,184150,5,0,0:0:0:0:
287,324,184244,1,0,0:0:0:0:
321,331,184337,1,0,0:0:0:0:
356,330,184431,1,0,0:0:0:0:
390,319,184525,1,0,0:0:0:0:
419,300,184619,1,0,0:0:0:0:
442,275,184712,1,0,0:0:0:0:
458,244,184805,1,0,0:0:0:0:
466,210,184900,1,0,0:0:0:0:
464,175,184993,1,0,0:0:0:0:
453,141,185087,1,0,0:0:0:0:
434,112,185180,1,0,0:0:0:0:
407,88,185275,2,0,P|375:68|351:60,2,35
356,180,185556,5,0,0:0:0:0:
322,202,185650,1,0,0:0:0:0:
284,213,185743,1,0,0:0:0:0:
244,214,185837,1,0,0:0:0:0:
206,203,185931,1,0,0:0:0:0:
173,181,186025,1,0,0:0:0:0:
147,151,186118,1,0,0:0:0:0:
130,115,186212,1,0,0:0:0:0:
48,68,186306,6,0,L|208:84,1,140
304,92,186869,2,0,L|368:104,3,35
364,112,187244,5,0,0:0:0:0:
380,142,187338,1,0,0:0:0:0:
384,177,187431,1,0,0:0:0:0:
374,210,187524,1,0,0:0:0:0:
352,237,187619,1,0,0:0:0:0:
322,254,187712,1,0,0:0:0:0:
287,258,187806,1,0,0:0:0:0:
254,249,187899,1,0,0:0:0:0:
227,227,187994,1,0,0:0:0:0:
211,196,188087,1,0,0:0:0:0:
214,161,188181,5,0,0:0:0:0:
233,133,188274,1,0,0:0:0:0:
265,119,188369,1,0,0:0:0:0:
299,124,188462,1,0,0:0:0:0:
326,145,188556,1,0,0:0:0:0:
339,177,188649,1,0,0:0:0:0:
357,207,188744,1,0,0:0:0:0:
386,225,188837,1,0,0:0:0:0:
421,230,188932,2,0,L|472:228,2,35
364,307,189213,5,0,0:0:0:0:
334,296,189307,1,0,0:0:0:0:
308,278,189400,1,0,0:0:0:0:
287,253,189494,1,0,0:0:0:0:
274,224,189588,1,0,0:0:0:0:
268,193,189682,1,0,0:0:0:0:
271,162,189775,1,0,0:0:0:0:
282,132,189868,1,0,0:0:0:0:
301,106,189963,1,0,0:0:0:0:
325,86,190056,1,0,0:0:0:0:
354,73,190150,1,0,0:0:0:0:
385,67,190244,2,0,P|431:50|447:39,3,35
352,72,190619,5,0,0:0:0:0:
348,108,190713,1,0,0:0:0:0:
320,86,190806,1,0,0:0:0:0:
316,122,190901,1,0,0:0:0:0:
285,92,190994,1,0,0:0:0:0:
281,128,191088,1,0,0:0:0:0:
250,91,191181,1,0,0:0:0:0:
246,127,191276,1,0,0:0:0:0:
217,81,191369,1,0,0:0:0:0:
213,117,191463,1,0,0:0:0:0:
186,64,191557,1,0,0:0:0:0:
182,100,191651,1,0,0:0:0:0:
152,72,191744,1,0,0:0:0:0:
152,72,191838,2,0,L|115:53,2,35
177,200,192119,5,0,0:0:0:0:
192,230,192212,1,0,0:0:0:0:
196,265,192306,1,0,0:0:0:0:
187,299,192399,1,0,0:0:0:0:
167,327,192494,1,0,0:0:0:0:
137,345,192587,1,0,0:0:0:0:
103,352,192681,1,0,0:0:0:0:
69,346,192774,1,0,0:0:0:0:
39,328,192869,1,0,0:0:0:0:
18,300,192962,1,0,0:0:0:0:
8,267,193056,1,0,0:0:0:0:
11,232,193149,1,0,0:0:0:0:
24,198,193244,1,0,0:0:0:0:
40,167,193337,1,0,0:0:0:0:
66,143,193431,1,0,0:0:0:0:
98,131,193524,1,0,0:0:0:0:
128,246,193619,6,0,L|157:80,1,140
265,44,194182,2,0,L|316:28,3,35
334,66,194557,2,0,L|384:76,3,35
410,111,194931,6,0,L|443:152,1,35
455,180,195119,1,0,0:0:0:0:
456,214,195213,1,0,0:0:0:0:
441,245,195306,1,0,0:0:0:0:
412,265,195400,1,0,0:0:0:0:
378,269,195494,1,0,0:0:0:0:
346,256,195588,1,0,0:0:0:0:
324,230,195681,1,0,0:0:0:0:
317,196,195775,1,0,0:0:0:0:
328,162,195869,1,0,0:0:0:0:
335,129,195963,1,0,0:0:0:0:
322,97,196056,1,0,0:0:0:0:
294,77,196150,1,0,0:0:0:0:
259,77,196244,1,0,0:0:0:0:
230,95,196338,1,0,0:0:0:0:
216,127,196432,1,0,0:0:0:0:
206,160,196526,1,0,0:0:0:0:
239,168,196619,5,0,0:0:0:0:
273,176,196713,1,0,0:0:0:0:
307,185,196806,1,0,0:0:0:0:
341,193,196901,1,0,0:0:0:0:
375,201,196994,1,0,0:0:0:0:
409,210,197087,1,0,0:0:0:0:
444,220,197182,2,0,L|500:232,2,35
416,328,197463,5,0,0:0:0:0:
382,317,197557,1,0,0:0:0:0:
349,307,197650,1,0,0:0:0:0:
315,297,197744,1,0,0:0:0:0:
282,287,197838,1,0,0:0:0:0:
248,277,197932,1,0,0:0:0:0:
215,266,198025,2,0,L|164:248,2,35
208,364,198307,5,0,0:0:0:0:
242,356,198400,1,0,0:0:0:0:
273,340,198494,1,0,0:0:0:0:
299,317,198587,1,0,0:0:0:0:
319,289,198682,1,0,0:0:0:0:
331,256,198775,1,0,0:0:0:0:
334,221,198869,1,0,0:0:0:0:
328,187,198962,1,0,0:0:0:0:
315,155,199057,1,0,0:0:0:0:
293,127,199150,1,0,0:0:0:0:
265,106,199245,2,0,L|232:80,2,35
56,240,199619,5,0,0:0:0:0:
114,277,199713,1,0,0:0:0:0:
183,280,199806,1,0,0:0:0:0:
424,156,199994,5,0,0:0:0:0:
360,127,200088,1,0,0:0:0:0:
291,119,200181,1,0,0:0:0:0:
72,48,200369,5,0,0:0:0:0:
91,96,200463,1,0,0:0:0:0:
111,145,200556,1,0,0:0:0:0:
312,328,200744,5,0,0:0:0:0:
292,279,200838,1,0,0:0:0:0:
272,230,200931,1,0,0:0:0:0:
388,36,201119,5,0,0:0:0:0:
404,86,201213,1,0,0:0:0:0:
420,136,201306,1,0,0:0:0:0:
472,344,201494,5,0,0:0:0:0:
403,339,201587,1,0,0:0:0:0:
347,298,201681,1,0,0:0:0:0:
148,80,201869,1,0,0:0:0:0:
205,86,201962,1,0,0:0:0:0:
258,110,202056,1,0,0:0:0:0:
300,150,202150,2,0,L|344:196,3,35
420,264,202619,5,0,0:0:0:0:
415,298,202712,1,0,0:0:0:0:
397,328,202806,1,0,0:0:0:0:
368,347,202899,1,0,0:0:0:0:
334,352,202994,1,0,0:0:0:0:
301,342,203087,1,0,0:0:0:0:
275,318,203181,1,0,0:0:0:0:
261,287,203274,1,0,0:0:0:0:
262,252,203370,1,0,0:0:0:0:
268,208,203463,1,0,0:0:0:0:
252,166,203557,1,0,0:0:0:0:
219,136,203650,1,0,0:0:0:0:
175,127,203745,1,0,0:0:0:0:
133,140,203838,1,0,0:0:0:0:
102,171,203932,1,0,0:0:0:0:
90,214,204025,1,0,0:0:0:0:
8,192,204120,6,0,L|148:260,1,140
336,252,204681,2,0,L|260:216,1,70
128,148,205056,1,0,0:0:0:0:
128,148,205244,1,0,0:0:0:0:
288,72,205431,2,0,L|328:48,1,35
336,150,205619,6,0,L|272:186,1,52.5000020027161
67,271,205994,1,0,0:0:0:0:
421,294,206182,1,0,0:0:0:0:
181,97,206557,5,0,0:0:0:0:
352,364,206744,1,0,0:0:0:0:
512,153,206932,1,0,0:0:0:0:
339,207,207119,2,0,L|278:234,1,52.5000020027161
75,171,207494,2,0,L|99:234,1,52.5000020027161
296,351,208057,5,0,0:0:0:0:
287,31,208245,1,0,0:0:0:0:
183,244,208432,1,0,0:0:0:0:
378,100,208620,2,0,L|394:156,1,52.5000020027161
427,290,208994,1,0,0:0:0:0:
204,102,209181,1,0,0:0:0:0:
309,319,209556,5,0,0:0:0:0:
96,130,209744,1,0,0:0:0:0:
344,71,209931,1,0,0:0:0:0:
150,300,210119,5,0,0:0:0:0:
290,136,210306,1,0,0:0:0:0:
329,340,210494,1,0,0:0:0:0:
174,137,210682,1,0,0:0:0:0:
453,224,210869,1,0,0:0:0:0:
236,336,211057,1,0,0:0:0:0:
331,68,211244,5,0,0:0:0:0:
100,208,211432,1,0,0:0:0:0:
403,214,211619,2,0,L|359:174,1,52.5000020027161
204,47,211994,1,0,0:0:0:0:
297,311,212182,1,0,0:0:0:0:
369,76,212557,5,0,0:0:0:0:
103,93,212744,1,0,0:0:0:0:
308,152,212932,1,0,0:0:0:0:
143,260,213120,2,0,L|167:308,1,52.5000020027161
296,341,213495,1,0,0:0:0:0:
135,138,213681,1,0,0:0:0:0:
260,210,214056,5,0,0:0:0:0:
76,50,214244,1,0,0:0:0:0:
28,271,214431,1,0,0:0:0:0:
229,54,214619,2,0,L|253:114,1,52.5000020027161
315,310,214994,1,0,0:0:0:0:
146,138,215181,1,0,0:0:0:0:
218,358,215557,5,0,0:0:0:0:
375,137,215744,1,0,0:0:0:0:
493,265,215932,1,0,0:0:0:0:
241,190,216119,2,0,L|249:258,1,52.5000020027161
359,350,216494,5,0,0:0:0:0:
126,147,216682,1,0,0:0:0:0:
360,241,216869,1,0,0:0:0:0:
150,308,217057,1,0,0:0:0:0:
340,80,217244,1,0,0:0:0:0:
105,84,217432,5,0,0:0:0:0:
105,84,217525,1,0,0:0:0:0:
105,84,217619,2,0,L|168:46,1,52.5000020027161
313,0,217995,1,0,0:0:0:0:
236,205,218181,1,0,0:0:0:0:
406,293,218556,5,0,0:0:0:0:
165,107,218744,1,0,0:0:0:0:
244,278,218931,1,0,0:0:0:0:
388,82,219119,2,0,L|424:138,1,52.5000020027161
498,286,219494,1,0,0:0:0:0:
299,71,219681,1,0,0:0:0:0:
87,149,220056,5,0,0:0:0:0:
289,248,220244,1,0,0:0:0:0:
289,13,220432,1,0,0:0:0:0:
117,152,220619,5,0,0:0:0:0:
383,255,220807,1,0,0:0:0:0:
161,302,220994,1,0,0:0:0:0:
386,68,221182,1,0,0:0:0:0:
425,306,221557,5,0,0:0:0:0:
224,97,221744,1,0,0:0:0:0:
234,320,221932,1,0,0:0:0:0:
359,169,222119,2,0,L|396:132,1,52.5000020027161
478,18,222495,5,0,0:0:0:0:
395,258,222682,1,0,0:0:0:0:
306,38,222870,5,0,0:0:0:0:
263,302,223056,1,0,0:0:0:0:
495,189,223244,1,0,0:0:0:0:
193,138,223431,5,0,43:0:0:0:
193,138,223525,1,0,43:0:0:0:
193,138,223619,2,0,L|232:81,1,52.5000020027161,0|0,3:0|3:0,3:0:0:0:
346,9,223994,1,0,0:0:0:0:
294,239,224181,1,0,0:0:0:0:
436,193,224556,5,0,0:0:0:0:
219,48,224744,1,0,0:0:0:0:
168,250,224932,1,0,0:0:0:0:
42,82,225026,1,0,0:0:0:0:
42,82,225119,2,0,L|34:147,1,52.5000020027161
168,250,225494,6,0,L|154:203,2,26.2500010013581
259,158,225869,1,0,0:0:0:0:
259,131,225962,1,0,0:0:0:0:
258,98,226057,2,0,L|260:68,2,26.2500010013581
386,55,226338,2,0,L|408:24,2,26.2500010013581
389,151,226620,5,0,0:0:0:0:
395,171,226713,1,0,0:0:0:0:
400,193,226807,1,0,0:0:0:0:
404,214,226900,1,0,0:0:0:0:
412,234,226995,1,0,0:0:0:0:
423,253,227088,1,0,0:0:0:0:
436,272,227182,2,0,L|456:300,2,26.2500010013581
220,224,227463,5,0,0:0:0:0:
237,229,227556,1,0,0:0:0:0:
256,228,227650,1,0,0:0:0:0:
273,220,227743,1,0,0:0:0:0:
286,207,227838,1,0,0:0:0:0:
294,190,227931,1,0,0:0:0:0:
296,172,228025,2,0,L|296:144,1,26.2500010013581
256,192,228306,12,0,229619,0:0:0:0:
156,155,234494,5,0,0:0:0:0:
361,170,234682,1,0,0:0:0:0:
175,252,234869,1,0,0:0:0:0:
326,80,235057,1,0,0:0:0:0:
270,304,235244,1,0,0:0:0:0:
230,85,235432,1,0,0:0:0:0:
336,220,235619,5,0,0:0:0:0:
336,220,235807,2,0,P|391:242|512:169,1,210.000008010865
491,40,236369,1,0,0:0:0:0:
228,193,236557,1,0,0:0:0:0:
412,357,236743,1,0,0:0:0:0:
248,158,236931,5,0,0:0:0:0:
248,158,237119,2,0,P|148:137|95:49,1,210.000008010865
252,0,237681,1,0,0:0:0:0:
137,273,237869,1,0,0:0:0:0:
340,99,238056,1,0,0:0:0:0:
95,140,238244,1,0,0:0:0:0:
316,195,238431,5,0,42:0:0:0:
317,195,238619,2,0,P|368:188|412:160,1,105.000004005432,0|0,2:0|2:0,2:0:0:0:
494,67,238994,5,0,0:0:0:0:
173,171,239182,1,0,0:0:0:0:
402,309,239369,1,0,0:0:0:0:
289,0,239557,1,0,0:0:0:0:
507,255,239744,5,0,0:0:0:0:
183,59,239932,1,0,0:0:0:0:
250,306,240119,1,0,0:0:0:0:
437,41,240307,1,0,0:0:0:0:
366,271,240494,6,0,P|443:352|472:362,1,105.000004005432
417,151,240869,1,0,0:0:0:0:
227,324,241057,1,0,0:0:0:0:
280,124,241243,1,0,0:0:0:0:
352,308,241432,1,0,0:0:0:0:
181,205,241620,5,0,0:0:0:0:
181,205,241806,2,0,P|119:154|111:-6,1,210.000008010865
271,52,242369,1,0,0:0:0:0:
88,276,242556,1,0,0:0:0:0:
166,125,242744,1,0,0:0:0:0:
307,274,242931,5,0,0:0:0:0:
307,274,243119,2,0,P|400:311|530:282,1,210.000008010865
426,158,243681,1,0,0:0:0:0:
361,359,243869,1,0,0:0:0:0:
366,94,244057,1,0,0:0:0:0:
219,261,244244,1,0,0:0:0:0:
224,108,244432,5,0,0:0:0:0:
224,108,244619,2,0,P|181:34|176:-7,1,105.000004005432
317,302,244994,5,0,0:0:0:0:
434,69,245182,1,0,0:0:0:0:
102,193,245369,1,0,0:0:0:0:
254,20,245557,5,0,0:0:0:0:
468,313,245744,1,0,0:0:0:0:
82,333,245932,1,0,0:0:0:0:
288,6,246118,5,0,0:0:0:0:
501,356,246306,1,0,0:0:0:0:
144,184,246494,6,0,P|221:188|285:176,1,105.000004005432
482,244,246869,2,0,P|401:230|343:241,1,105.000004005432
223,285,247244,1,0,0:0:0:0:
223,285,247431,1,0,0:0:0:0:
359,116,247619,5,0,0:0:0:0:
359,116,247806,2,0,P|395:79|300:9,1,210.000008010865
99,191,248369,2,0,L|194:126,1,105.000004005432
316,37,248744,1,0,0:0:0:0:
262,230,248932,5,0,0:0:0:0:
262,230,249119,2,0,P|230:292|82:296,1,210.000008010865
149,151,249682,1,0,0:0:0:0:
425,213,249869,1,0,0:0:0:0:
359,378,250057,2,0,P|299:330|277:269,1,105.000004005432
276,129,250432,1,0,0:0:0:0:
492,297,250618,1,0,0:0:0:0:
385,75,250807,5,0,0:0:0:0:
148,269,250995,1,0,0:0:0:0:
266,32,251181,1,0,0:0:0:0:
371,265,251369,1,0,0:0:0:0:
148,32,251556,1,0,0:0:0:0:
257,275,251744,1,0,0:0:0:0:
381,34,251931,1,0,0:0:0:0:
141,271,252119,1,0,0:0:0:0:
258,33,252306,1,0,0:0:0:0:
327,299,252494,6,0,P|409:235|433:208,1,105.000004005432
454,76,252869,2,0,P|367:102|345:149,1,105.000004005432
141,126,253244,2,0,L|200:222,1,105.000004005432
266,349,253619,1,0,0:0:0:0:
259,97,253807,1,0,0:0:0:0:
92,276,253994,5,0,0:0:0:0:
92,276,254087,1,0,0:0:0:0:
92,276,254182,1,0,0:0:0:0:
181,28,254369,1,0,0:0:0:0:
270,270,254557,1,0,0:0:0:0:
376,105,254744,2,0,P|430:45|486:16,1,105.000004005432
470,265,255119,6,0,P|407:265|333:262,1,105.000004005432
206,175,255493,1,0,0:0:0:0:
206,175,255588,1,0,0:0:0:0:
206,175,255681,1,0,0:0:0:0:
432,350,255869,1,0,0:0:0:0:
270,77,256056,1,0,0:0:0:0:
157,307,256244,1,0,0:0:0:0:
383,185,256431,1,0,0:0:0:0:
162,75,256619,5,0,0:0:0:0:
270,322,256806,1,0,0:0:0:0:
59,221,256994,1,0,0:0:0:0:
268,52,257181,1,0,0:0:0:0:
157,307,257369,1,0,0:0:0:0:
383,108,257556,5,0,0:0:0:0:
175,2,257744,1,0,0:0:0:0:
299,295,257931,1,0,0:0:0:0:
98,86,258119,1,0,0:0:0:0:
406,23,258307,2,0,L|472:12,2,52.5000020027161
88,256,269931,5,0,0:0:0:0:
88,229,270025,1,0,0:0:0:0:
94,204,270118,1,0,0:0:0:0:
105,180,270212,1,0,0:0:0:0:
122,160,270306,1,0,0:0:0:0:
143,144,270400,1,0,0:0:0:0:
164,133,270494,2,0,P|216:105|240:53,1,105.000004005432
