osu file format v14

[General]
AudioFilename: audio87.079.mp3
AudioLeadIn: 0
PreviewTime: 84275
Countdown: 1
SampleSet: None
StackLeniency: 0.7
Mode: 0
LetterboxInBreaks: 0
WidescreenStoryboard: 1

[Editor]
DistanceSpacing: 1.5
BeatDivisor: 4
GridSize: 4
TimelineZoom: 1.9

[Metadata]
Title:Identic Conflict
TitleUnicode:Identic Conflict
Artist:bbn
ArtistUnicode:bbn
Creator:-Urushihara-
Version:[CS3.8 155BPM]
Source:
Tags:
BeatmapID:1857711
BeatmapSetID:875707

[Difficulty]
HPDrainRate:4
CircleSize:3.8
OverallDifficulty:9
ApproachRate:9
SliderMultiplier:1.4
SliderTickRate:1

[Events]
//Background and Video events
0,0,"bg.jpg",0,0
//Break Periods
2,78129,83780
2,237225,241328
2,267031,277909
//Storyboard Layer 0 (Background)
//Storyboard Layer 1 (Fail)
//Storyboard Layer 2 (Pass)
//Storyboard Layer 3 (Foreground)
//Storyboard Sound Samples

[TimingPoints]
3220,387.095225812645,4,1,0,60,1,0
4768,-100,4,1,0,40,0,0
8832,-100,4,1,0,30,0,0
9800,-100,4,1,0,5,0,0
10961,-100,4,1,0,60,0,0
11348,-100,4,1,0,5,0,0
12509,-100,4,1,0,60,0,0
12896,-100,4,1,0,5,0,0
14058,-100,4,1,0,60,0,0
14251,-100,4,1,0,10,0,0
15025,-100,4,1,0,60,0,0
21800,-66.6666666666667,4,1,0,80,0,0
22284,-100,4,1,0,60,0,0
23349,-66.6666666666667,4,1,0,80,0,0
23832,-100,4,1,0,60,0,0
24897,-66.6666666666667,4,1,0,60,0,0
25478,-100,4,1,0,60,0,0
28187,-100,4,1,0,10,0,0
28381,-100,4,1,0,60,0,0
29638,-100,4,1,0,40,0,0
31090,-100,4,1,0,60,0,0
37283,-100,4,1,0,40,0,0
38735,-100,4,1,0,60,0,0
41348,-100,4,1,0,30,0,0
41928,-100,4,1,0,60,0,0
51606,-200,4,1,0,60,0,0
52187,-100,4,1,0,60,0,0
53155,-133.333333333333,4,1,0,60,0,0
55381,-66.6666666666667,4,1,0,60,0,0
57800,-66.6666666666667,4,1,0,60,0,0
58090,-66.6666666666667,4,1,0,60,0,0
62057,-66.6666666666667,4,1,0,60,0,0
64671,-66.6666666666667,4,1,0,30,0,0
65541,-66.6666666666667,4,1,0,60,0,0
73864,-66.6666666666667,4,1,0,30,0,0
74832,-66.6666666666667,4,1,0,60,0,0
84509,-66.6666666666667,4,1,0,45,0,0
95348,-66.6666666666667,4,1,0,20,0,0
96897,-66.6666666666667,4,1,0,50,0,0
109380,-66.6666666666667,4,1,0,50,0,1
110444,-66.6666666666667,4,1,0,50,0,0
110831,-50,4,1,0,50,0,1
134057,-100,4,1,0,50,0,0
147606,-50,4,1,0,50,0,0
148380,-50,4,1,0,50,0,0
159992,-50,4,1,0,20,0,0
160768,-50,4,1,0,50,0,0
166187,-50,4,1,0,20,0,0
166961,-50,4,1,0,50,0,0
185542,-40,4,1,0,50,0,0
185929,-100,4,1,0,50,0,0
187477,-100,4,1,0,50,0,0
212251,-133.333333333333,4,1,0,50,0,0
242057,-66.6666666666667,4,1,0,50,0,0

[HitObjects]
184,252,3220,5,0,0:0:0:0:
348,84,4768,1,0,0:0:0:0:
124,176,6316,1,0,0:0:0:0:
360,220,7864,1,0,0:0:0:0:
104,216,8832,5,0,0:0:0:0:
156,132,9219,1,0,0:0:0:0:
175,112,9413,2,0,P|248:64|316:48,1,140
360,320,10961,6,0,P|316:288|280:192,1,140
476,56,12509,2,0,L|312:88,1,140
140,312,14058,6,0,P|112:264|108:248,1,70
112,232,14349,1,0,0:0:0:0:
123,199,14445,1,0,0:0:0:0:
145,171,14542,1,0,0:0:0:0:
173,152,14638,1,0,0:0:0:0:
207,142,14736,1,0,0:0:0:0:
242,143,14832,6,0,P|304:128|328:112,1,70
444,40,15412,5,0,0:0:0:0:
444,40,15606,2,0,P|452:92|436:180,1,140
360,348,16380,2,0,L|272:232,1,140
164,96,17154,6,2,P|216:112|316:104,1,140
32,32,17928,2,0,L|16:200,1,140
0,288,18509,1,0,0:0:0:0:
272,216,18704,6,0,P|208:204|172:132,1,140
368,112,19478,2,0,L|416:248,1,140
460,360,20057,1,0,0:0:0:0:
208,272,20252,6,0,L|160:128,1,140
328,44,21026,2,0,P|240:52|212:8,1,140
214,17,21607,1,0,0:0:0:0:
388,144,21800,6,0,L|360:360,1,210.000008010865
361,352,22574,1,0,0:0:0:0:
288,132,22768,1,0,0:0:0:0:
288,132,22962,2,0,L|200:164,1,70
144,344,23349,6,0,L|76:132,1,210.000008010865
79,144,24123,1,0,0:0:0:0:
272,184,24316,1,0,0:0:0:0:
272,184,24510,2,0,L|300:100,1,70
396,288,24897,6,0,L|184:328,1,210.000008010865
189,326,25671,1,0,0:0:0:0:
268,204,25865,1,0,0:0:0:0:
268,204,26058,2,0,L|224:124,1,70
148,68,26445,6,0,P|244:68|284:12,1,140
256,192,27026,12,0,28187,0:0:0:0:
188,200,28381,5,0,0:0:0:0:
188,200,28574,1,0,0:0:0:0:
214,228,28670,1,0,0:0:0:0:
248,244,28767,1,0,0:0:0:0:
286,247,28863,1,0,0:0:0:0:
323,235,28961,1,0,0:0:0:0:
352,211,29057,1,0,0:0:0:0:
371,178,29154,1,0,0:0:0:0:
376,140,29250,1,0,0:0:0:0:
367,103,29348,1,0,0:0:0:0:
344,71,29444,1,0,0:0:0:0:
312,51,29542,1,0,0:0:0:0:
312,51,29638,5,0,0:0:0:0:
268,51,29735,1,0,0:0:0:0:
312,86,29831,1,0,0:0:0:0:
268,86,29929,1,0,0:0:0:0:
312,121,30025,1,0,0:0:0:0:
267,121,30122,1,0,0:0:0:0:
312,156,30219,1,0,0:0:0:0:
268,156,30316,1,0,0:0:0:0:
312,191,30412,1,0,0:0:0:0:
268,191,30509,1,0,0:0:0:0:
312,226,30606,1,0,0:0:0:0:
268,226,30703,1,0,0:0:0:0:
312,261,30799,1,0,0:0:0:0:
268,261,30897,1,0,0:0:0:0:
312,296,30994,1,0,0:0:0:0:
267,296,31090,5,0,0:0:0:0:
236,312,31186,1,0,0:0:0:0:
202,319,31283,1,0,0:0:0:0:
167,318,31379,1,0,0:0:0:0:
133,307,31477,1,0,0:0:0:0:
104,288,31573,1,0,0:0:0:0:
81,263,31670,1,0,0:0:0:0:
65,232,31766,1,0,0:0:0:0:
57,198,31864,1,0,0:0:0:0:
59,163,31960,1,0,0:0:0:0:
70,129,32057,1,0,0:0:0:0:
89,100,32153,1,0,0:0:0:0:
116,76,32251,2,0,P|148:56|172:48,2,35
164,176,32638,5,0,0:0:0:0:
183,204,32734,1,0,0:0:0:0:
213,222,32831,1,0,0:0:0:0:
247,227,32927,1,0,0:0:0:0:
280,218,33025,1,0,0:0:0:0:
307,195,33121,1,0,0:0:0:0:
324,164,33219,6,0,L|400:40,1,140
176,180,33800,2,0,L|240:248,1,70
244,252,34187,1,0,0:0:0:0:
268,277,34284,1,0,0:0:0:0:
298,294,34380,1,0,0:0:0:0:
332,303,34477,1,0,0:0:0:0:
367,302,34574,1,0,0:0:0:0:
400,291,34671,1,0,0:0:0:0:
429,272,34767,1,0,0:0:0:0:
452,246,34864,1,0,0:0:0:0:
466,214,34961,1,0,0:0:0:0:
472,180,35058,1,0,0:0:0:0:
468,145,35154,1,0,0:0:0:0:
454,113,35251,1,0,0:0:0:0:
432,88,35348,2,0,P|412:56|408:48,2,35
340,196,35735,5,0,0:0:0:0:
312,217,35832,1,0,0:0:0:0:
279,228,35928,1,0,0:0:0:0:
244,226,36025,1,0,0:0:0:0:
213,212,36122,1,0,0:0:0:0:
188,187,36219,1,0,0:0:0:0:
174,155,36315,1,0,0:0:0:0:
173,120,36412,1,0,0:0:0:0:
173,86,36509,1,0,0:0:0:0:
156,56,36606,1,0,0:0:0:0:
126,38,36702,1,0,0:0:0:0:
91,38,36800,1,0,0:0:0:0:
61,55,36896,1,0,0:0:0:0:
43,85,36993,1,0,0:0:0:0:
44,120,37090,2,0,L|44:176,1,35
68,200,37283,5,0,0:0:0:0:
74,243,37380,1,0,0:0:0:0:
103,196,37476,1,0,0:0:0:0:
108,239,37574,1,0,0:0:0:0:
138,191,37670,1,0,0:0:0:0:
143,236,37767,1,0,0:0:0:0:
173,187,37864,1,0,0:0:0:0:
178,231,37961,1,0,0:0:0:0:
207,183,38057,1,0,0:0:0:0:
213,226,38154,1,0,0:0:0:0:
242,178,38251,1,0,0:0:0:0:
247,222,38348,1,0,0:0:0:0:
277,174,38444,1,0,0:0:0:0:
282,218,38542,1,0,0:0:0:0:
312,172,38638,1,0,0:0:0:0:
346,167,38735,5,0,0:0:0:0:
379,177,38831,1,0,0:0:0:0:
405,200,38928,1,0,0:0:0:0:
419,232,39025,1,0,0:0:0:0:
419,266,39122,1,0,0:0:0:0:
405,298,39218,1,0,0:0:0:0:
378,320,39315,1,0,0:0:0:0:
345,330,39412,1,0,0:0:0:0:
310,325,39509,1,0,0:0:0:0:
276,312,39605,1,0,0:0:0:0:
251,288,39703,1,0,0:0:0:0:
231,260,39799,1,0,0:0:0:0:
223,227,39896,1,0,0:0:0:0:
229,192,39993,1,0,0:0:0:0:
248,164,40090,2,0,P|268:128|268:124,2,35
356,200,40380,5,0,0:0:0:0:
373,169,40477,1,0,0:0:0:0:
390,139,40573,1,0,0:0:0:0:
408,109,40670,1,0,0:0:0:0:
344,24,40767,6,0,L|276:152,1,140
192,240,41348,2,0,L|156:280,2,35
160,208,41639,2,0,L|106:210,2,35
147,165,41928,6,0,L|97:143,3,35
82,131,42315,1,0,0:0:0:0:
87,96,42412,1,0,0:0:0:0:
102,65,42508,1,0,0:0:0:0:
126,39,42605,1,0,0:0:0:0:
156,22,42702,1,0,0:0:0:0:
190,14,42799,1,0,0:0:0:0:
225,17,42895,1,0,0:0:0:0:
257,29,42992,5,0,0:0:0:0:
285,51,43089,1,0,0:0:0:0:
304,80,43186,1,0,0:0:0:0:
315,113,43282,1,0,0:0:0:0:
315,148,43379,1,0,0:0:0:0:
305,181,43476,1,0,0:0:0:0:
286,210,43573,1,0,0:0:0:0:
259,233,43670,2,0,P|224:264|223:269,1,35
156,331,43865,5,0,0:0:0:0:
138,306,43961,1,0,0:0:0:0:
127,278,44058,1,0,0:0:0:0:
123,248,44154,1,0,0:0:0:0:
126,217,44252,1,0,0:0:0:0:
136,189,44348,1,0,0:0:0:0:
152,163,44445,1,0,0:0:0:0:
174,142,44541,1,0,0:0:0:0:
200,127,44639,1,0,0:0:0:0:
229,118,44735,1,0,0:0:0:0:
259,117,44832,1,0,0:0:0:0:
289,122,44928,1,0,0:0:0:0:
317,134,45026,1,0,0:0:0:0:
341,152,45122,1,0,0:0:0:0:
361,180,45220,2,0,P|381:226|390:238,3,35
393,253,45607,5,0,0:0:0:0:
363,271,45703,1,0,0:0:0:0:
329,278,45800,1,0,0:0:0:0:
294,273,45896,1,0,0:0:0:0:
264,257,45994,1,0,0:0:0:0:
240,231,46090,1,0,0:0:0:0:
227,199,46187,1,0,0:0:0:0:
226,164,46283,1,0,0:0:0:0:
236,131,46381,1,0,0:0:0:0:
257,103,46477,1,0,0:0:0:0:
287,84,46574,1,0,0:0:0:0:
320,76,46670,1,0,0:0:0:0:
355,81,46768,1,0,0:0:0:0:
405,198,46961,5,0,0:0:0:0:
413,231,47057,1,0,0:0:0:0:
422,265,47154,1,0,0:0:0:0:
301,272,47348,5,0,0:0:0:0:
309,305,47444,1,0,0:0:0:0:
318,339,47541,1,0,0:0:0:0:
183,222,47736,5,0,0:0:0:0:
190,256,47832,1,0,0:0:0:0:
198,290,47929,1,0,0:0:0:0:
96,113,48123,5,0,0:0:0:0:
74,140,48219,1,0,0:0:0:0:
52,167,48316,1,0,0:0:0:0:
47,338,48510,5,0,0:0:0:0:
68,310,48606,1,0,0:0:0:0:
90,283,48703,1,0,0:0:0:0:
274,115,48897,5,0,0:0:0:0:
255,144,48993,1,0,0:0:0:0:
236,174,49090,1,0,0:0:0:0:
400,286,49284,5,0,0:0:0:0:
419,257,49380,1,0,0:0:0:0:
439,228,49477,1,0,0:0:0:0:
244,19,49671,5,0,0:0:0:0:
231,51,49767,1,0,0:0:0:0:
218,83,49864,1,0,0:0:0:0:
298,165,50058,5,0,0:0:0:0:
311,197,50154,1,0,0:0:0:0:
314,231,50251,1,0,0:0:0:0:
307,265,50347,1,0,0:0:0:0:
289,295,50445,1,0,0:0:0:0:
263,319,50541,1,0,0:0:0:0:
231,333,50638,1,0,0:0:0:0:
196,336,50734,1,0,0:0:0:0:
162,329,50832,1,0,0:0:0:0:
132,312,50928,1,0,0:0:0:0:
108,286,51025,1,0,0:0:0:0:
94,254,51121,1,0,0:0:0:0:
90,220,51219,1,0,0:0:0:0:
96,186,51315,1,0,0:0:0:0:
113,155,51412,1,0,0:0:0:0:
138,131,51509,1,0,0:0:0:0:
171,117,51606,6,0,P|221:98|271:57,1,105
357,226,52380,2,0,L|323:144,1,70
287,315,52768,2,0,P|340:337|372:333,1,70
236,211,53155,6,0,L|164:226,1,52.5000020027161
40,241,53542,1,0,0:0:0:0:
40,241,53638,1,0,0:0:0:0:
40,241,53735,1,0,0:0:0:0:
182,53,53929,1,0,0:0:0:0:
270,260,54122,5,0,0:0:0:0:
282,250,54218,1,0,0:0:0:0:
293,239,54315,1,0,0:0:0:0:
304,228,54411,1,0,0:0:0:0:
314,215,54509,1,0,0:0:0:0:
323,203,54605,1,0,0:0:0:0:
331,189,54702,1,0,0:0:0:0:
339,175,54798,1,0,0:0:0:0:
345,161,54896,1,0,0:0:0:0:
350,146,54992,1,0,0:0:0:0:
353,132,55090,2,0,P|364:85|369:58,1,52.5000020027161
38,95,55477,6,0,L|80:201,1,105.000004005432
320,273,55864,2,0,L|278:163,1,105.000004005432
234,13,56251,1,0,0:0:0:0:
234,13,56349,1,0,0:0:0:0:
234,13,56445,1,0,0:0:0:0:
457,237,56638,1,0,0:0:0:0:
457,237,56736,1,0,0:0:0:0:
457,237,56832,6,0,P|470:204|459:132,1,105.000004005432
338,11,57219,1,0,0:0:0:0:
241,219,57413,5,0,0:0:0:0:
218,213,57510,1,0,0:0:0:0:
198,203,57606,1,0,0:0:0:0:
179,189,57703,1,0,0:0:0:0:
165,173,57800,2,0,P|141:149|131:65,1,105.000004005432
313,0,58187,6,0,L|336:112,1,105.000004005432
357,284,58574,1,0,0:0:0:0:
170,89,58767,1,0,0:0:0:0:
454,128,58961,2,0,L|429:6,1,105.000004005432
216,222,59348,2,0,L|247:339,1,105.000004005432
267,98,59735,5,0,0:0:0:0:
230,85,59832,1,0,0:0:0:0:
192,80,59928,1,0,0:0:0:0:
154,82,60025,1,0,0:0:0:0:
116,91,60122,2,0,P|74:108|-5:107,1,105.000004005432
242,240,60509,5,0,0:0:0:0:
256,275,60606,1,0,0:0:0:0:
281,304,60702,1,0,0:0:0:0:
315,322,60799,1,0,0:0:0:0:
353,328,60896,1,0,0:0:0:0:
390,322,60993,1,0,0:0:0:0:
424,303,61089,1,0,0:0:0:0:
449,274,61186,1,0,0:0:0:0:
463,238,61283,2,0,L|448:133,1,105.000004005432
433,0,61670,5,0,0:0:0:0:
335,281,61864,1,0,0:0:0:0:
45,122,62057,6,0,L|184:115,1,105.000004005432
480,152,62445,2,0,L|252:165,1,210.000008010865
94,168,63025,1,0,0:0:0:0:
286,40,63219,1,0,0:0:0:0:
170,305,63412,1,0,0:0:0:0:
299,162,63606,5,0,0:0:0:0:
326,154,63703,1,0,0:0:0:0:
354,159,63799,1,0,0:0:0:0:
376,176,63896,1,0,0:0:0:0:
389,201,63993,1,0,0:0:0:0:
388,230,64090,1,0,0:0:0:0:
375,255,64186,1,0,0:0:0:0:
352,272,64283,1,0,0:0:0:0:
324,276,64380,1,0,0:0:0:0:
297,267,64477,1,0,0:0:0:0:
277,248,64573,1,0,0:0:0:0:
268,220,64671,5,0,0:0:0:0:
268,206,64767,1,0,0:0:0:0:
267,193,64864,1,0,0:0:0:0:
262,181,64960,1,0,0:0:0:0:
254,171,65058,1,0,0:0:0:0:
245,162,65154,1,0,0:0:0:0:
233,155,65251,1,0,0:0:0:0:
221,152,65347,1,0,0:0:0:0:
207,151,65445,1,0,0:0:0:0:
192,156,65541,6,0,P|128:168|8:60,1,210.000008010865
280,28,66123,2,0,L|380:112,1,105.000004005432
488,200,66510,1,0,0:0:0:0:
187,53,66702,5,0,0:0:0:0:
182,105,66799,1,0,0:0:0:0:
192,156,66895,1,0,0:0:0:0:
217,202,66992,1,0,0:0:0:0:
254,239,67089,6,0,P|296:288|316:332,1,105.000004005432
89,259,67478,2,0,L|43:146,1,105.000004005432
304,12,67865,2,0,L|348:120,1,105.000004005432
444,296,68252,2,0,P|324:292|232:216,1,210.000008010865
140,120,68832,1,0,0:0:0:0:
246,35,69026,5,0,0:0:0:0:
280,17,69123,1,0,0:0:0:0:
316,29,69220,1,0,0:0:0:0:
334,63,69316,1,0,0:0:0:0:
324,100,69413,1,0,0:0:0:0:
132,196,69607,5,0,0:0:0:0:
124,240,69703,1,0,0:0:0:0:
152,244,69801,1,0,0:0:0:0:
144,288,69897,1,0,0:0:0:0:
188,282,69994,1,0,0:0:0:0:
180,326,70090,1,0,0:0:0:0:
234,305,70188,1,0,0:0:0:0:
226,349,70284,1,0,0:0:0:0:
286,311,70381,1,0,0:0:0:0:
278,355,70477,1,0,0:0:0:0:
337,299,70574,6,0,P|428:256|480:144,1,210.000008010865
448,12,71155,1,0,0:0:0:0:
292,108,71348,2,0,L|292:232,1,105.000004005432
128,364,71735,6,0,L|88:136,1,210.000008010865
104,140,72219,1,0,0:0:0:0:
140,102,72316,1,0,0:0:0:0:
187,81,72412,1,0,0:0:0:0:
240,79,72509,1,0,0:0:0:0:
400,136,72703,5,0,0:0:0:0:
400,187,72799,1,0,0:0:0:0:
372,230,72896,1,0,0:0:0:0:
323,248,72992,1,0,0:0:0:0:
273,235,73090,1,0,0:0:0:0:
240,196,73186,1,0,0:0:0:0:
248,144,73284,2,0,P|288:72|432:52,1,210.000008010865
444,224,73864,5,0,0:0:0:0:
431,251,73960,1,0,0:0:0:0:
414,275,74057,1,0,0:0:0:0:
392,295,74153,1,0,0:0:0:0:
366,310,74251,1,0,0:0:0:0:
337,320,74347,1,0,0:0:0:0:
308,323,74444,1,0,0:0:0:0:
278,321,74540,1,0,0:0:0:0:
249,312,74638,1,0,0:0:0:0:
223,297,74734,1,0,0:0:0:0:
199,279,74832,2,0,P|150:233|121:137,1,157.500006008148
168,48,75219,5,0,0:1:0:0:
195,27,75315,2,0,L|246:-2,2,52.5000020027161,0|0|0,0:1|0:1|0:1,0:1:0:0:
217,158,75606,5,0,0:0:0:0:
243,202,75702,1,0,0:0:0:0:
288,228,75799,1,0,0:0:0:0:
340,227,75896,2,0,P|395:210|397:210,2,52.5000020027161
412,100,76187,5,0,0:0:0:0:
360,94,76283,1,0,0:0:0:0:
309,108,76380,1,0,0:0:0:0:
268,139,76476,1,0,0:0:0:0:
241,184,76574,1,0,0:0:0:0:
233,236,76670,1,0,0:0:0:0:
245,287,76767,1,0,0:0:0:0:
231,335,76863,5,0,0:0:0:0:
183,351,76960,1,0,0:0:0:0:
144,320,77056,1,0,0:0:0:0:
147,269,77155,1,0,0:0:0:0:
172,224,77251,1,0,0:0:0:0:
213,192,77348,1,0,0:0:0:0:
264,178,77444,1,0,0:0:0:0:
315,184,77542,5,0,0:0:0:0:
366,177,77639,1,0,0:0:0:0:
410,149,77735,1,0,0:0:0:0:
439,106,77831,1,0,0:0:0:0:
448,54,77929,1,0,0:0:0:0:
196,252,84509,5,0,0:0:0:0:
305,104,84703,1,0,0:0:0:0:
285,308,84896,1,0,0:0:0:0:
228,49,85090,1,0,0:0:0:0:
396,185,85283,2,0,L|412:69,1,105.000004005432
232,232,85670,5,0,0:0:0:0:
232,232,85864,2,0,P|236:292|376:312,1,210.000008010865
472,262,86444,1,0,0:0:0:0:
365,51,86638,1,0,0:0:0:0:
232,232,86831,1,0,0:0:0:0:
100,16,87025,1,0,0:0:0:0:
100,16,87219,6,0,P|33:95|44:220,1,210.000008010865
116,358,87799,1,0,0:0:0:0:
138,118,87993,1,0,0:0:0:0:
33,197,88186,1,0,0:0:0:0:
236,128,88380,2,0,L|366:85,1,105.000004005432
472,37,88767,5,0,0:0:0:0:
357,279,88960,1,0,0:0:0:0:
321,28,89154,5,0,0:0:0:0:
451,322,89347,1,0,0:0:0:0:
206,114,89541,1,0,0:0:0:0:
494,226,89736,1,0,0:0:0:0:
188,228,89928,5,0,0:0:0:0:
426,60,90123,1,0,0:0:0:0:
328,316,90315,1,0,0:0:0:0:
333,27,90510,1,0,0:0:0:0:
188,228,90703,6,0,P|146:197|133:146,1,105.000004005432
132,23,91090,1,0,0:0:0:0:
294,149,91284,1,0,0:0:0:0:
76,302,91477,5,0,0:0:0:0:
226,47,91671,1,0,0:0:0:0:
337,283,91865,1,0,0:0:0:0:
84,149,92058,6,0,L|326:149,1,210.000008010865
430,145,92639,1,0,0:0:0:0:
199,291,92832,1,0,0:0:0:0:
325,23,93026,1,0,0:0:0:0:
424,252,93219,1,0,0:0:0:0:
237,184,93413,6,0,P|165:137|125:16,1,210.000008010865
277,34,93993,1,0,0:0:0:0:
103,261,94187,1,0,0:0:0:0:
360,122,94381,1,0,0:0:0:0:
55,102,94574,1,0,0:0:0:0:
362,275,94768,5,0,0:0:0:0:
226,23,94961,1,0,0:0:0:0:
124,235,95155,1,0,0:0:0:0:
336,153,95348,5,0,0:0:0:0:
320,132,95444,1,0,0:0:0:0:
322,107,95541,1,0,0:0:0:0:
340,89,95637,1,0,0:0:0:0:
366,87,95735,1,0,0:0:0:0:
386,104,95831,1,0,0:0:0:0:
390,129,95928,1,0,0:0:0:0:
376,150,96024,1,0,0:0:0:0:
351,157,96122,1,0,0:0:0:0:
328,152,96218,1,0,0:0:0:0:
306,149,96315,1,0,0:0:0:0:
284,148,96411,1,0,0:0:0:0:
261,148,96509,1,0,0:0:0:0:
239,149,96605,1,0,0:0:0:0:
216,152,96702,1,0,0:0:0:0:
194,156,96798,1,0,0:0:0:0:
121,71,96897,6,0,L|198:266,1,210.000008010865
237,360,97477,1,0,0:0:0:0:
59,208,97671,1,0,0:0:0:0:
340,300,97864,1,0,0:0:0:0:
75,333,98058,1,0,0:0:0:0:
254,198,98251,6,0,B|331:132|331:132|425:46,1,210.000008010865
271,9,98832,1,0,0:0:0:0:
424,265,99025,1,0,0:0:0:0:
128,105,99219,1,0,0:0:0:0:
486,167,99413,1,0,0:0:0:0:
269,237,99606,6,0,P|186:264|95:183,1,210.000008010865
79,70,100187,1,0,0:0:0:0:
4,319,100380,1,0,0:0:0:0:
231,137,100574,1,0,0:0:0:0:
169,342,100767,5,0,0:0:0:0:
70,154,100961,1,0,0:0:0:0:
285,267,101154,1,0,0:0:0:0:
428,96,101348,2,0,P|493:9|515:-21,1,105.000004005432
508,188,101735,5,0,0:0:0:0:
276,43,101929,1,0,0:0:0:0:
296,319,102122,1,0,0:0:0:0:
510,144,102316,5,0,0:0:0:0:
222,67,102509,1,0,0:0:0:0:
250,338,102703,1,0,0:0:0:0:
494,95,102896,1,0,0:0:0:0:
209,173,103090,6,0,L|90:356,1,210.000008010865
101,122,103670,1,0,0:0:0:0:
250,338,103864,1,0,0:0:0:0:
285,120,104057,1,0,0:0:0:0:
146,318,104251,1,0,0:0:0:0:
412,145,104445,1,0,0:0:0:0:
43,33,104638,6,0,P|118:44|268:66,1,210.000008010865
293,26,105219,1,0,0:0:0:0:
162,228,105412,1,0,0:0:0:0:
383,102,105606,1,0,0:0:0:0:
314,276,105799,5,0,0:0:0:0:
276,311,105896,1,0,0:0:0:0:
227,331,105992,1,0,0:0:0:0:
175,330,106089,1,0,0:0:0:0:
70,264,106186,6,0,L|297:215,1,210.000008010865
426,184,106767,1,0,0:0:0:0:
235,90,106961,1,0,0:0:0:0:
328,337,107154,1,0,0:0:0:0:
377,4,107348,1,0,0:0:0:0:
274,178,107541,2,0,P|210:190|141:156,1,105.000004005432
148,164,107832,5,0,0:0:0:0:
121,120,107928,1,0,0:0:0:0:
135,71,108025,1,0,0:0:0:0:
180,47,108121,1,0,0:0:0:0:
228,63,108219,1,0,0:0:0:0:
249,110,108315,1,0,0:0:0:0:
230,157,108412,1,0,0:0:0:0:
203,202,108509,1,0,0:0:0:0:
199,254,108606,5,0,0:0:0:0:
219,302,108702,1,0,0:0:0:0:
258,336,108800,1,0,0:0:0:0:
308,349,108896,1,0,0:0:0:0:
359,339,108993,1,0,0:0:0:0:
400,307,109089,1,0,0:0:0:0:
422,260,109187,1,0,0:0:0:0:
421,208,109283,1,0,0:0:0:0:
403,175,109380,5,0,0:0:0:0:
369,204,109476,1,0,0:0:0:0:
350,171,109574,1,0,0:0:0:0:
317,201,109669,1,0,0:0:0:0:
298,168,109767,1,0,0:0:0:0:
264,197,109863,1,0,0:0:0:0:
245,164,109961,1,0,0:0:0:0:
212,194,110056,1,0,0:0:0:0:
193,161,110154,1,0,0:0:0:0:
160,191,110250,1,0,0:0:0:0:
141,158,110347,1,0,0:0:0:0:
102,171,110445,5,0,0:0:0:0:
67,150,110542,1,0,0:0:0:0:
60,110,110638,1,0,0:0:0:0:
86,79,110736,1,0,0:0:0:0:
127,79,110831,6,0,P|226:85|407:22,1,280
286,188,111412,1,0,0:0:0:0:
286,188,111509,1,0,0:0:0:0:
286,188,111607,2,0,P|253:282|323:330,1,140
512,363,111994,2,0,L|393:289,1,140
170,151,112381,6,0,P|236:86|302:69,1,140
43,279,112768,2,0,L|181:299,1,140
375,326,113155,1,0,0:0:0:0:
375,326,113251,1,0,0:0:0:0:
375,326,113347,1,0,0:0:0:0:
233,103,113542,1,0,0:0:0:0:
504,27,113734,1,0,0:0:0:0:
430,197,113929,6,0,L|369:334,1,140
181,384,114316,2,0,L|132:242,1,140
96,106,114703,1,0,0:0:0:0:
96,106,114799,1,0,0:0:0:0:
96,106,114897,1,0,0:0:0:0:
312,269,115090,1,0,0:0:0:0:
234,22,115284,1,0,0:0:0:0:
72,221,115477,6,0,L|95:361,1,140
337,95,115864,2,0,L|239:195,1,140
115,310,116251,1,0,0:0:0:0:
115,310,116348,1,0,0:0:0:0:
115,310,116445,1,0,0:0:0:0:
210,87,116639,5,0,0:0:0:0:
313,242,116833,2,0,P|346:302|350:372,1,140
466,140,117219,2,0,L|492:-15,1,140
489,2,117606,1,0,0:0:0:0:
321,173,117800,1,0,0:0:0:0:
321,173,117896,1,0,0:0:0:0:
321,173,117993,1,0,0:0:0:0:
143,47,118187,5,0,0:0:0:0:
321,173,118380,2,0,L|357:313,1,140
71,327,118767,2,0,L|35:180,1,140
0,56,119155,1,0,0:0:0:0:
219,266,119348,1,0,0:0:0:0:
219,266,119444,1,0,0:0:0:0:
219,266,119542,1,0,0:0:0:0:
322,49,119735,1,0,0:0:0:0:
366,285,119929,1,0,0:0:0:0:
366,285,120122,6,0,L|254:156,1,140
73,20,120509,2,0,L|262:20,1,140
402,26,120896,1,0,0:0:0:0:
402,26,120993,1,0,0:0:0:0:
402,26,121090,1,0,0:0:0:0:
200,258,121283,1,0,0:0:0:0:
469,10,121477,1,0,0:0:0:0:
143,165,121671,6,0,L|347:165,1,140
427,309,122058,2,0,L|270:309,1,140
97,306,122445,1,0,0:0:0:0:
97,306,122541,1,0,0:0:0:0:
97,306,122638,1,0,0:0:0:0:
275,124,122832,1,0,0:0:0:0:
276,310,123025,1,0,0:0:0:0:
127,144,123219,6,0,L|125:2,1,140
384,137,123606,2,0,P|324:205|228:230,1,140
252,61,123993,1,0,0:0:0:0:
252,61,124089,1,0,0:0:0:0:
252,61,124187,1,0,0:0:0:0:
478,217,124380,1,0,0:0:0:0:
221,319,124574,1,0,0:0:0:0:
356,138,124767,6,0,L|449:17,1,140
478,217,125154,1,0,0:0:0:0:
265,62,125348,1,0,0:0:0:0:
325,282,125541,1,0,0:0:0:0:
325,282,125639,1,0,0:0:0:0:
325,282,125735,1,0,0:0:0:0:
412,60,125928,1,0,0:0:0:0:
168,31,126122,1,0,0:0:0:0:
353,195,126316,6,0,L|480:285,1,140
293,34,126703,2,0,L|142:34,1,140
15,30,127090,1,0,0:0:0:0:
15,30,127187,1,0,0:0:0:0:
15,30,127283,1,0,0:0:0:0:
214,308,127477,1,0,0:0:0:0:
400,100,127670,1,0,0:0:0:0:
132,44,127864,6,0,L|166:217,1,140
414,330,128251,2,0,L|376:188,1,140
346,55,128638,1,0,0:0:0:0:
346,55,128735,1,0,0:0:0:0:
346,55,128832,1,0,0:0:0:0:
160,259,129025,1,0,0:0:0:0:
494,57,129219,1,0,0:0:0:0:
294,253,129412,6,0,L|255:106,1,140
8,17,129799,2,0,L|47:176,1,140
85,369,130186,1,0,0:0:0:0:
85,369,130284,1,0,0:0:0:0:
85,369,130380,1,0,0:0:0:0:
342,98,130573,1,0,0:0:0:0:
223,313,130767,1,0,0:0:0:0:
402,165,130960,6,0,P|444:91|348:-1,1,210
293,129,131348,1,0,0:0:0:0:
293,129,131445,2,0,P|291:200|297:215,2,70
250,317,131735,5,0,0:0:0:0:
186,289,131832,1,0,0:0:0:0:
150,230,131928,1,0,0:0:0:0:
154,161,132025,2,0,P|157:89|153:75,2,70
246,16,132315,5,0,0:0:0:0:
246,16,132412,2,0,L|311:75,1,70
321,84,132606,1,0,0:0:0:0:
349,110,132702,1,0,0:0:0:0:
357,149,132799,1,0,0:0:0:0:
340,184,132895,1,0,0:0:0:0:
305,203,132993,1,0,0:0:0:0:
266,197,133089,1,0,0:0:0:0:
238,169,133186,1,0,0:0:0:0:
233,131,133282,5,0,0:0:0:0:
228,104,133380,1,0,0:0:0:0:
213,83,133476,1,0,0:0:0:0:
190,70,133573,1,0,0:0:0:0:
164,69,133670,1,0,0:0:0:0:
140,78,133767,1,0,0:0:0:0:
123,97,133863,1,0,0:0:0:0:
115,122,133960,1,0,0:0:0:0:
39,188,134057,6,0,L|274:148,1,210
415,172,134831,2,0,P|390:107|310:66,1,140
282,52,135348,2,0,L|197:42,3,46.6666666666667
326,132,135864,5,0,0:0:0:0:
314,207,135992,1,0,0:0:0:0:
254,253,136121,1,0,0:0:0:0:
178,247,136251,1,0,0:0:0:0:
72,320,136381,5,0,0:0:0:0:
53,261,136509,1,0,0:0:0:0:
66,201,136638,1,0,0:0:0:0:
109,156,136768,1,0,0:0:0:0:
195,50,136896,5,0,0:0:0:0:
220,99,137025,1,0,0:0:0:0:
246,149,137153,1,0,0:0:0:0:
272,199,137283,1,0,0:0:0:0:
297,249,137412,1,0,0:0:0:0:
323,298,137540,1,0,0:0:0:0:
414,375,137670,5,0,0:0:0:0:
439,336,137799,1,0,0:0:0:0:
445,290,137927,1,0,0:0:0:0:
428,247,138057,1,0,0:0:0:0:
338,170,138187,1,0,0:0:0:0:
310,132,138316,1,0,0:0:0:0:
302,87,138444,1,0,0:0:0:0:
313,42,138574,1,0,0:0:0:0:
444,86,138703,5,0,0:0:0:0:
398,97,138831,1,0,0:0:0:0:
353,109,138960,1,0,0:0:0:0:
308,120,139090,1,0,0:0:0:0:
263,132,139218,1,0,0:0:0:0:
217,143,139347,1,0,0:0:0:0:
172,155,139477,1,0,0:0:0:0:
65,193,139606,5,0,0:0:0:0:
100,259,139735,1,0,0:0:0:0:
173,281,139864,1,0,0:0:0:0:
239,245,139993,1,0,0:0:0:0:
294,137,140122,5,0,0:0:0:0:
350,89,140251,1,0,0:0:0:0:
419,116,140379,1,0,0:0:0:0:
428,189,140509,1,0,0:0:0:0:
378,302,140638,5,0,0:0:0:0:
321,313,140766,1,0,0:0:0:0:
293,262,140895,1,0,0:0:0:0:
334,221,141025,1,0,0:0:0:0:
374,113,141154,5,0,0:0:0:0:
328,73,141283,1,0,0:0:0:0:
270,87,141412,1,0,0:0:0:0:
247,142,141541,1,0,0:0:0:0:
180,252,141670,5,0,0:0:0:0:
167,207,141799,1,0,0:0:0:0:
154,162,141927,1,0,0:0:0:0:
141,117,142057,1,0,0:0:0:0:
128,72,142186,1,0,0:0:0:0:
115,27,142314,1,0,0:0:0:0:
63,120,142444,5,0,0:0:0:0:
80,177,142573,1,0,0:0:0:0:
136,198,142701,1,0,0:0:0:0:
187,166,142831,1,0,0:0:0:0:
282,89,142961,5,0,0:0:0:0:
324,73,143089,1,0,0:0:0:0:
367,90,143218,1,0,0:0:0:0:
388,130,143348,1,0,0:0:0:0:
290,194,143476,5,0,0:0:0:0:
325,224,143605,1,0,0:0:0:0:
360,255,143734,1,0,0:0:0:0:
395,286,143863,1,0,0:0:0:0:
430,317,143992,1,0,0:0:0:0:
465,347,144121,1,0,0:0:0:0:
288,344,144250,5,0,0:0:0:0:
233,315,144379,1,0,0:0:0:0:
201,263,144508,1,0,0:0:0:0:
202,201,144639,1,0,0:0:0:0:
113,100,144767,5,0,0:0:0:0:
83,154,144896,1,0,0:0:0:0:
69,214,145024,1,0,0:0:0:0:
69,277,145154,1,0,0:0:0:0:
125,376,145283,5,0,0:0:0:0:
171,371,145411,1,0,0:0:0:0:
217,366,145540,1,0,0:0:0:0:
264,362,145670,1,0,0:0:0:0:
310,357,145798,1,0,0:0:0:0:
357,353,145927,1,0,0:0:0:0:
464,319,146058,5,0,0:0:0:0:
495,251,146187,1,0,0:0:0:0:
453,191,146315,1,0,0:0:0:0:
379,198,146445,1,0,0:0:0:0:
267,241,146574,5,0,0:0:0:0:
210,266,146702,1,0,0:0:0:0:
149,262,146831,1,0,0:0:0:0:
95,231,146961,1,0,0:0:0:0:
19,138,147090,5,0,0:0:0:0:
8,78,147219,1,0,0:0:0:0:
43,29,147348,1,0,0:0:0:0:
103,19,147477,1,0,0:0:0:0:
222,78,147606,5,0,0:0:0:0:
267,89,147735,1,0,0:0:0:0:
312,100,147864,1,0,0:0:0:0:
358,111,147993,2,0,P|437:129|550:123,1,186.666666666667
254,30,148380,5,0,0:0:0:0:
232,87,148509,1,0,0:0:0:0:
241,148,148637,1,0,0:0:0:0:
280,196,148767,1,0,0:0:0:0:
337,296,148896,5,0,0:0:0:0:
296,337,149024,1,0,0:0:0:0:
240,347,149153,1,0,0:0:0:0:
188,323,149283,1,0,0:0:0:0:
160,273,149411,1,0,0:0:0:0:
178,124,149541,5,0,0:0:0:0:
237,159,149670,1,0,0:0:0:0:
264,222,149798,1,0,0:0:0:0:
248,289,149928,1,0,0:0:0:0:
197,335,150057,1,0,0:0:0:0:
128,341,150185,1,0,0:0:0:0:
78,242,150315,5,0,0:0:0:0:
102,191,150444,1,0,0:0:0:0:
143,154,150572,1,0,0:0:0:0:
195,135,150702,1,0,0:0:0:0:
251,138,150831,1,0,0:0:0:0:
301,161,150959,1,0,0:0:0:0:
370,258,151090,5,0,0:0:0:0:
411,237,151219,1,0,0:0:0:0:
440,201,151347,1,0,0:0:0:0:
451,156,151477,1,0,0:0:0:0:
442,111,151606,1,0,0:0:0:0:
415,73,151734,1,0,0:0:0:0:
303,16,151864,5,0,0:0:0:0:
294,52,151993,1,0,0:0:0:0:
296,89,152121,1,0,0:0:0:0:
309,123,152251,1,0,0:0:0:0:
332,152,152380,1,0,0:0:0:0:
363,173,152508,1,0,0:0:0:0:
424,89,152638,5,0,0:0:0:0:
378,79,152767,1,0,0:0:0:0:
331,77,152895,1,0,0:0:0:0:
285,83,153025,1,0,0:0:0:0:
240,96,153154,1,0,0:0:0:0:
199,117,153282,1,0,0:0:0:0:
155,235,153412,5,0,0:0:0:0:
169,275,153541,1,0,0:0:0:0:
161,318,153671,1,0,0:0:0:0:
133,350,153799,1,0,0:0:0:0:
92,364,153928,1,0,0:0:0:0:
50,356,154058,1,0,0:0:0:0:
17,327,154186,6,0,L|-21:124,1,186.666666666667
199,237,154573,5,0,0:0:0:0:
215,193,154702,1,0,0:0:0:0:
211,147,154830,1,0,0:0:0:0:
187,107,154960,1,0,0:0:0:0:
149,82,155089,1,0,0:0:0:0:
103,76,155217,1,0,0:0:0:0:
127,195,155347,5,0,0:0:0:0:
216,217,155476,1,0,0:0:0:0:
308,203,155604,1,0,0:0:0:0:
387,154,155734,2,0,L|532:22,1,186.666666666667
353,50,156122,5,0,0:0:0:0:
316,45,156251,1,0,0:0:0:0:
282,57,156380,1,0,0:0:0:0:
255,82,156509,1,0,0:0:0:0:
242,117,156638,1,0,0:0:0:0:
246,154,156767,1,0,0:0:0:0:
351,220,156896,5,0,0:0:0:0:
346,158,157025,1,0,0:0:0:0:
311,108,157154,1,0,0:0:0:0:
255,82,157283,2,0,P|147:70|74:26,1,186.666666666667
37,127,157670,5,0,0:0:0:0:
40,164,157799,1,0,0:0:0:0:
58,196,157928,1,0,0:0:0:0:
86,221,158057,1,0,0:0:0:0:
121,232,158186,1,0,0:0:0:0:
159,232,158315,1,0,0:0:0:0:
249,176,158444,5,0,0:0:0:0:
310,182,158573,1,0,0:0:0:0:
367,207,158702,1,0,0:0:0:0:
412,249,158831,6,0,L|490:326,1,70
323,352,159026,2,0,L|245:315,3,70
279,300,159413,2,0,L|257:216,3,70,0|0|0|0,0:3|0:3|0:3|0:3,0:3:0:0:
253,202,159800,5,0,0:0:0:0:
249,176,159896,1,0,0:0:0:0:
241,152,159992,1,0,0:0:0:0:
227,133,160090,1,0,0:0:0:0:
207,104,160187,1,0,0:0:0:0:
182,79,160283,1,0,0:0:0:0:
154,58,160379,1,0,0:0:0:0:
122,43,160477,1,0,0:0:0:0:
88,41,160574,1,0,0:0:0:0:
128,320,160768,6,0,L|96:160,1,140
384,320,161155,2,0,L|416:160,1,140
64,288,161542,6,0,L|32:128,1,140
459,291,161929,2,0,L|491:131,1,140
494,116,162219,1,0,0:0:0:0:
463,76,162316,1,0,0:0:0:0:
254,216,162509,1,0,0:0:0:0:
494,116,162703,6,0,L|384:269,1,140
9,108,163090,6,0,L|119:261,1,140
255,384,163477,2,0,L|255:231,1,140
257,210,163767,1,0,0:0:0:0:
258,163,163864,1,0,0:0:0:0:
258,0,164058,1,0,0:0:0:0:
512,167,164251,6,0,L|354:123,1,140
0,169,164638,2,0,L|157:125,1,140
414,272,165025,6,0,L|273:352,1,140
265,356,165315,1,0,0:0:0:0:
233,365,165412,1,0,0:0:0:0:
65,301,165606,5,0,0:0:0:0:
154,71,165800,1,0,0:0:0:0:
154,71,165896,1,0,0:0:0:0:
154,71,165993,1,0,0:0:0:0:
308,125,166187,5,0,0:0:0:0:
329,158,166283,1,0,0:0:0:0:
339,197,166380,1,0,0:0:0:0:
338,237,166476,1,0,0:0:0:0:
326,275,166574,1,0,0:0:0:0:
303,307,166670,1,0,0:0:0:0:
272,332,166767,1,0,0:0:0:0:
90,35,166961,6,0,L|113:184,1,140
422,35,167348,2,0,L|399:184,1,140
72,367,167735,6,0,L|37:224,1,140
440,367,168122,2,0,L|475:224,1,140
437,30,168412,2,0,P|417:107|417:107,1,70
376,259,168703,1,0,0:0:0:0:
123,26,168896,6,0,L|183:152,1,140
80,376,169283,2,0,L|4:211,1,140
345,68,169670,6,0,L|411:226,1,140
354,370,169960,2,0,L|318:286,1,70
263,143,170251,1,0,0:0:0:0:
441,0,170444,6,0,L|251:78,1,140
10,295,170832,2,0,L|176:243,1,140
512,284,171219,6,0,L|367:335,1,140
357,343,171508,1,0,0:0:0:0:
287,343,171605,1,0,0:0:0:0:
224,314,171701,1,0,0:0:0:0:
178,262,171798,1,0,0:0:0:0:
271,171,171993,5,0,0:0:0:0:
316,118,172090,1,0,0:0:0:0:
334,51,172186,1,0,0:0:0:0:
167,109,172380,5,0,0:0:0:0:
156,165,172477,1,0,0:0:0:0:
172,221,172573,1,0,0:0:0:0:
211,263,172669,1,0,0:0:0:0:
266,283,172767,1,0,0:0:0:0:
323,276,172864,1,0,0:0:0:0:
371,244,172960,1,0,0:0:0:0:
419,62,173154,6,0,P|350:56|290:89,1,140
17,190,173541,2,0,P|150:214|202:194,1,140
471,221,173928,6,0,L|338:175,1,140
119,363,174315,2,0,L|253:324,1,140
401,306,174606,1,0,0:0:0:0:
364,277,174702,1,0,0:0:0:0:
323,255,174799,1,0,0:0:0:0:
279,240,174895,1,0,0:0:0:0:
68,37,175089,6,0,P|106:164|135:213,1,140
414,221,175476,2,0,P|388:120|356:80,1,140
94,324,175864,6,0,L|226:220,1,140
314,189,176154,1,0,0:0:0:0:
318,235,176250,1,0,0:0:0:0:
303,279,176347,1,0,0:0:0:0:
272,313,176443,1,0,0:0:0:0:
446,259,176638,6,0,L|463:90,1,140
108,256,177025,2,0,L|81:78,1,140
459,1,177412,6,0,L|365:105,1,140
365,105,177703,1,0,0:0:0:0:
372,150,177799,1,0,0:0:0:0:
367,197,177896,1,0,0:0:0:0:
350,240,177992,1,0,0:0:0:0:
289,337,178186,1,0,0:0:0:0:
249,335,178283,1,0,0:0:0:0:
214,316,178379,1,0,0:0:0:0:
191,284,178476,1,0,0:0:0:0:
185,244,178573,1,0,0:0:0:0:
197,207,178670,1,0,0:0:0:0:
225,178,178766,1,0,0:0:0:0:
262,165,178863,5,0,0:0:0:0:
294,150,178960,1,0,0:0:0:0:
318,126,179057,1,0,0:0:0:0:
332,93,179153,1,0,0:0:0:0:
333,59,179251,1,0,0:0:0:0:
134,42,179347,6,0,L|93:175,1,140
467,246,179734,2,0,L|320:143,1,140
48,343,180121,6,0,L|242:343,1,140
260,27,180509,6,0,L|153:169,1,140
168,178,180799,1,0,0:0:0:0:
174,207,180896,6,0,P|181:246|218:282,1,70
295,334,181089,1,0,0:0:0:0:
497,86,181283,6,0,L|355:176,1,140
51,334,181670,2,0,L|212:251,1,140
494,344,182057,2,0,L|326:245,1,140
347,259,182348,1,0,0:0:0:0:
245,194,182444,6,0,L|181:154,2,70
91,32,182831,6,0,L|56:168,1,140
271,354,183218,2,0,L|306:218,1,140
48,72,183605,6,0,L|8:208,1,140
352,295,183993,2,0,L|384:156,1,140
408,48,184380,1,0,0:0:0:0:
408,48,184477,1,0,0:0:0:0:
293,133,184670,6,0,L|249:187,1,70
226,221,184864,1,0,0:0:0:0:
203,254,184961,1,0,0:0:0:0:
441,306,185154,6,0,L|384:264,1,70
356,240,185348,1,0,0:0:0:0:
267,147,185542,6,0,P|195:65|292:133,1,350
267,147,186316,5,0,0:0:0:0:
358,171,186703,1,0,0:0:0:0:
386,76,187090,1,0,0:0:0:0:
285,270,187477,5,0,0:0:0:0:
285,270,187671,5,0,0:0:0:0:
242,284,187767,1,0,0:0:0:0:
197,281,187864,1,0,0:0:0:0:
156,261,187960,1,0,0:0:0:0:
126,227,188058,1,0,0:0:0:0:
111,184,188154,1,0,0:0:0:0:
114,139,188251,1,0,0:0:0:0:
134,98,188347,1,0,0:0:0:0:
167,68,188445,1,0,0:0:0:0:
210,53,188541,1,0,0:0:0:0:
255,55,188638,1,0,0:0:0:0:
255,55,188734,5,0,0:0:0:0:
299,55,188831,1,0,0:0:0:0:
255,90,188927,1,0,0:0:0:0:
299,90,189025,1,0,0:0:0:0:
255,125,189121,1,0,0:0:0:0:
300,125,189218,1,0,0:0:0:0:
255,160,189315,1,0,0:0:0:0:
299,160,189412,1,0,0:0:0:0:
255,195,189508,1,0,0:0:0:0:
299,195,189605,1,0,0:0:0:0:
255,230,189702,1,0,0:0:0:0:
299,230,189799,1,0,0:0:0:0:
255,265,189895,1,0,0:0:0:0:
299,265,189993,1,0,0:0:0:0:
256,308,190089,5,0,0:0:0:0:
287,324,190186,1,0,0:0:0:0:
321,331,190282,1,0,0:0:0:0:
356,330,190379,1,0,0:0:0:0:
390,319,190476,1,0,0:0:0:0:
419,300,190573,1,0,0:0:0:0:
442,275,190669,1,0,0:0:0:0:
458,244,190766,1,0,0:0:0:0:
466,210,190863,1,0,0:0:0:0:
464,175,190960,1,0,0:0:0:0:
453,141,191056,1,0,0:0:0:0:
434,112,191153,1,0,0:0:0:0:
407,88,191250,2,0,P|375:68|351:60,2,35
356,180,191541,5,0,0:0:0:0:
322,202,191637,1,0,0:0:0:0:
284,213,191734,1,0,0:0:0:0:
244,214,191830,1,0,0:0:0:0:
206,203,191928,1,0,0:0:0:0:
173,181,192024,1,0,0:0:0:0:
147,151,192121,1,0,0:0:0:0:
130,115,192217,1,0,0:0:0:0:
48,68,192315,6,0,L|208:84,1,140
304,92,192896,2,0,L|368:104,3,35
364,112,193283,5,0,0:0:0:0:
380,142,193379,1,0,0:0:0:0:
384,177,193476,1,0,0:0:0:0:
374,210,193572,1,0,0:0:0:0:
352,237,193670,1,0,0:0:0:0:
322,254,193766,1,0,0:0:0:0:
287,258,193863,1,0,0:0:0:0:
254,249,193959,1,0,0:0:0:0:
227,227,194057,1,0,0:0:0:0:
211,196,194153,1,0,0:0:0:0:
214,161,194250,5,0,0:0:0:0:
233,133,194346,1,0,0:0:0:0:
265,119,194444,1,0,0:0:0:0:
299,124,194540,1,0,0:0:0:0:
326,145,194637,1,0,0:0:0:0:
339,177,194733,1,0,0:0:0:0:
357,207,194831,1,0,0:0:0:0:
386,225,194927,1,0,0:0:0:0:
421,230,195025,2,0,L|472:228,2,35
364,307,195316,5,0,0:0:0:0:
334,296,195412,1,0,0:0:0:0:
308,278,195508,1,0,0:0:0:0:
287,253,195605,1,0,0:0:0:0:
274,224,195703,1,0,0:0:0:0:
268,193,195799,1,0,0:0:0:0:
271,162,195895,1,0,0:0:0:0:
282,132,195992,1,0,0:0:0:0:
301,106,196090,1,0,0:0:0:0:
325,86,196186,1,0,0:0:0:0:
354,73,196282,1,0,0:0:0:0:
385,67,196380,2,0,P|431:50|447:39,3,35
352,72,196767,5,0,0:0:0:0:
348,108,196864,1,0,0:0:0:0:
320,86,196960,1,0,0:0:0:0:
316,122,197058,1,0,0:0:0:0:
285,92,197154,1,0,0:0:0:0:
281,128,197251,1,0,0:0:0:0:
250,91,197347,1,0,0:0:0:0:
246,127,197445,1,0,0:0:0:0:
217,81,197541,1,0,0:0:0:0:
213,117,197638,1,0,0:0:0:0:
186,64,197735,1,0,0:0:0:0:
182,100,197832,1,0,0:0:0:0:
152,72,197928,1,0,0:0:0:0:
152,72,198025,2,0,L|115:53,2,35
177,200,198315,5,0,0:0:0:0:
192,230,198412,1,0,0:0:0:0:
196,265,198508,1,0,0:0:0:0:
187,299,198605,1,0,0:0:0:0:
167,327,198702,1,0,0:0:0:0:
137,345,198799,1,0,0:0:0:0:
103,352,198895,1,0,0:0:0:0:
69,346,198992,1,0,0:0:0:0:
39,328,199089,1,0,0:0:0:0:
18,300,199186,1,0,0:0:0:0:
8,267,199282,1,0,0:0:0:0:
11,232,199379,1,0,0:0:0:0:
24,198,199476,1,0,0:0:0:0:
40,167,199573,1,0,0:0:0:0:
66,143,199669,1,0,0:0:0:0:
98,131,199766,1,0,0:0:0:0:
128,246,199863,6,0,L|157:80,1,140
265,44,200444,2,0,L|316:28,3,35
334,66,200831,2,0,L|384:76,3,35
410,111,201218,6,0,L|443:152,1,35
455,180,201412,1,0,0:0:0:0:
456,214,201509,1,0,0:0:0:0:
441,245,201605,1,0,0:0:0:0:
412,265,201702,1,0,0:0:0:0:
378,269,201799,1,0,0:0:0:0:
346,256,201896,1,0,0:0:0:0:
324,230,201992,1,0,0:0:0:0:
317,196,202089,1,0,0:0:0:0:
328,162,202186,1,0,0:0:0:0:
335,129,202283,1,0,0:0:0:0:
322,97,202379,1,0,0:0:0:0:
294,77,202476,1,0,0:0:0:0:
259,77,202573,1,0,0:0:0:0:
230,95,202670,1,0,0:0:0:0:
216,127,202767,1,0,0:0:0:0:
206,160,202864,1,0,0:0:0:0:
239,168,202960,5,0,0:0:0:0:
273,176,203057,1,0,0:0:0:0:
307,185,203153,1,0,0:0:0:0:
341,193,203251,1,0,0:0:0:0:
375,201,203347,1,0,0:0:0:0:
409,210,203444,1,0,0:0:0:0:
444,220,203541,2,0,L|500:232,2,35
416,328,203832,5,0,0:0:0:0:
382,317,203928,1,0,0:0:0:0:
349,307,204025,1,0,0:0:0:0:
315,297,204121,1,0,0:0:0:0:
282,287,204219,1,0,0:0:0:0:
248,277,204315,1,0,0:0:0:0:
215,266,204412,2,0,L|164:248,2,35
208,364,204702,5,0,0:0:0:0:
242,356,204799,1,0,0:0:0:0:
273,340,204895,1,0,0:0:0:0:
299,317,204992,1,0,0:0:0:0:
319,289,205089,1,0,0:0:0:0:
331,256,205186,1,0,0:0:0:0:
334,221,205282,1,0,0:0:0:0:
328,187,205379,1,0,0:0:0:0:
315,155,205476,1,0,0:0:0:0:
293,127,205573,1,0,0:0:0:0:
265,106,205671,2,0,L|232:80,2,35
56,240,206058,5,0,0:0:0:0:
114,277,206154,1,0,0:0:0:0:
183,280,206250,1,0,0:0:0:0:
424,156,206445,5,0,0:0:0:0:
360,127,206541,1,0,0:0:0:0:
291,119,206637,1,0,0:0:0:0:
72,48,206832,5,0,0:0:0:0:
91,96,206928,1,0,0:0:0:0:
111,145,207024,1,0,0:0:0:0:
312,328,207219,5,0,0:0:0:0:
292,279,207315,1,0,0:0:0:0:
272,230,207411,1,0,0:0:0:0:
388,36,207606,5,0,0:0:0:0:
404,86,207702,1,0,0:0:0:0:
420,136,207798,1,0,0:0:0:0:
472,344,207993,5,0,0:0:0:0:
403,339,208089,1,0,0:0:0:0:
347,298,208185,1,0,0:0:0:0:
148,80,208380,1,0,0:0:0:0:
205,86,208476,1,0,0:0:0:0:
258,110,208572,1,0,0:0:0:0:
300,150,208670,2,0,L|344:196,3,35
420,264,209154,5,0,0:0:0:0:
415,298,209250,1,0,0:0:0:0:
397,328,209346,1,0,0:0:0:0:
368,347,209443,1,0,0:0:0:0:
334,352,209541,1,0,0:0:0:0:
301,342,209637,1,0,0:0:0:0:
275,318,209733,1,0,0:0:0:0:
261,287,209830,1,0,0:0:0:0:
262,252,209929,1,0,0:0:0:0:
268,208,210025,1,0,0:0:0:0:
252,166,210122,1,0,0:0:0:0:
219,136,210218,1,0,0:0:0:0:
175,127,210316,1,0,0:0:0:0:
133,140,210412,1,0,0:0:0:0:
102,171,210509,1,0,0:0:0:0:
90,214,210605,1,0,0:0:0:0:
8,192,210703,6,0,L|148:260,1,140
336,252,211283,2,0,L|260:216,1,70
128,148,211670,1,0,0:0:0:0:
128,148,211864,1,0,0:0:0:0:
288,72,212057,2,0,L|328:48,1,35
336,150,212251,6,0,L|272:186,1,52.5000020027161
67,271,212638,1,0,0:0:0:0:
421,294,212832,1,0,0:0:0:0:
181,97,213219,5,0,0:0:0:0:
352,364,213412,1,0,0:0:0:0:
512,153,213606,1,0,0:0:0:0:
339,207,213799,2,0,L|278:234,1,52.5000020027161
75,171,214186,2,0,L|99:234,1,52.5000020027161
296,351,214767,5,0,0:0:0:0:
287,31,214961,1,0,0:0:0:0:
183,244,215154,1,0,0:0:0:0:
378,100,215348,2,0,L|394:156,1,52.5000020027161
427,290,215735,1,0,0:0:0:0:
204,102,215928,1,0,0:0:0:0:
309,319,216315,5,0,0:0:0:0:
96,130,216509,1,0,0:0:0:0:
344,71,216702,1,0,0:0:0:0:
150,300,216896,5,0,0:0:0:0:
290,136,217089,1,0,0:0:0:0:
329,340,217283,1,0,0:0:0:0:
174,137,217477,1,0,0:0:0:0:
453,224,217670,1,0,0:0:0:0:
236,336,217864,1,0,0:0:0:0:
331,68,218057,5,0,0:0:0:0:
100,208,218251,1,0,0:0:0:0:
403,214,218444,2,0,L|359:174,1,52.5000020027161
204,47,218831,1,0,0:0:0:0:
297,311,219025,1,0,0:0:0:0:
369,76,219412,5,0,0:0:0:0:
103,93,219605,1,0,0:0:0:0:
308,152,219799,1,0,0:0:0:0:
143,260,219993,2,0,L|167:308,1,52.5000020027161
296,341,220380,1,0,0:0:0:0:
135,138,220573,1,0,0:0:0:0:
260,210,220960,5,0,0:0:0:0:
76,50,221154,1,0,0:0:0:0:
28,271,221347,1,0,0:0:0:0:
229,54,221541,2,0,L|253:114,1,52.5000020027161
315,310,221928,1,0,0:0:0:0:
146,138,222121,1,0,0:0:0:0:
218,358,222509,5,0,0:0:0:0:
375,137,222702,1,0,0:0:0:0:
493,265,222896,1,0,0:0:0:0:
241,190,223089,2,0,L|249:258,1,52.5000020027161
359,350,223476,5,0,0:0:0:0:
126,147,223670,1,0,0:0:0:0:
360,241,223863,1,0,0:0:0:0:
150,308,224057,1,0,0:0:0:0:
340,80,224250,1,0,0:0:0:0:
105,84,224444,5,0,0:0:0:0:
105,84,224541,1,0,0:0:0:0:
105,84,224637,2,0,L|168:46,1,52.5000020027161
313,0,225025,1,0,0:0:0:0:
236,205,225218,1,0,0:0:0:0:
406,293,225605,5,0,0:0:0:0:
165,107,225799,1,0,0:0:0:0:
244,278,225992,1,0,0:0:0:0:
388,82,226186,2,0,L|424:138,1,52.5000020027161
498,286,226573,1,0,0:0:0:0:
299,71,226766,1,0,0:0:0:0:
87,149,227153,5,0,0:0:0:0:
289,248,227347,1,0,0:0:0:0:
289,13,227541,1,0,0:0:0:0:
117,152,227734,5,0,0:0:0:0:
383,255,227928,1,0,0:0:0:0:
161,302,228121,1,0,0:0:0:0:
386,68,228315,1,0,0:0:0:0:
425,306,228702,5,0,0:0:0:0:
224,97,228895,1,0,0:0:0:0:
234,320,229089,1,0,0:0:0:0:
359,169,229282,2,0,L|396:132,1,52.5000020027161
478,18,229671,5,0,0:0:0:0:
395,258,229863,1,0,0:0:0:0:
306,38,230058,5,0,0:0:0:0:
263,302,230250,1,0,0:0:0:0:
495,189,230445,1,0,0:0:0:0:
193,138,230638,5,0,43:0:0:0:
193,138,230734,1,0,43:0:0:0:
193,138,230832,2,0,L|232:81,1,52.5000020027161,0|0,3:0|3:0,3:0:0:0:
346,9,231219,1,0,0:0:0:0:
294,239,231412,1,0,0:0:0:0:
436,193,231799,5,0,0:0:0:0:
219,48,231993,1,0,0:0:0:0:
168,250,232187,1,0,0:0:0:0:
42,82,232283,1,0,0:0:0:0:
42,82,232380,2,0,L|34:147,1,52.5000020027161
168,250,232767,6,0,L|154:203,2,26.2500010013581
259,158,233154,1,0,0:0:0:0:
259,131,233250,1,0,0:0:0:0:
258,98,233348,2,0,L|260:68,2,26.2500010013581
386,55,233638,2,0,L|408:24,2,26.2500010013581
389,151,233929,5,0,0:0:0:0:
395,171,234025,1,0,0:0:0:0:
400,193,234122,1,0,0:0:0:0:
404,214,234218,1,0,0:0:0:0:
412,234,234316,1,0,0:0:0:0:
423,253,234412,1,0,0:0:0:0:
436,272,234509,2,0,L|456:300,2,26.2500010013581
220,224,234799,5,0,0:0:0:0:
237,229,234896,1,0,0:0:0:0:
256,228,234992,1,0,0:0:0:0:
273,220,235089,1,0,0:0:0:0:
286,207,235186,1,0,0:0:0:0:
294,190,235283,1,0,0:0:0:0:
296,172,235379,2,0,L|296:144,1,26.2500010013581
256,192,235670,12,0,237025,0:0:0:0:
156,155,242057,5,0,0:0:0:0:
361,170,242251,1,0,0:0:0:0:
175,252,242444,1,0,0:0:0:0:
326,80,242638,1,0,0:0:0:0:
270,304,242831,1,0,0:0:0:0:
230,85,243025,1,0,0:0:0:0:
336,220,243218,5,0,0:0:0:0:
336,220,243412,2,0,P|391:242|512:169,1,210.000008010865
491,40,243992,1,0,0:0:0:0:
228,193,244186,1,0,0:0:0:0:
412,357,244379,1,0,0:0:0:0:
248,158,244573,5,0,0:0:0:0:
248,158,244767,2,0,P|148:137|95:49,1,210.000008010865
252,0,245347,1,0,0:0:0:0:
137,273,245541,1,0,0:0:0:0:
340,99,245734,1,0,0:0:0:0:
95,140,245928,1,0,0:0:0:0:
316,195,246121,5,0,42:0:0:0:
317,195,246315,2,0,P|368:188|412:160,1,105.000004005432,0|0,2:0|2:0,2:0:0:0:
494,67,246702,5,0,0:0:0:0:
173,171,246896,1,0,0:0:0:0:
402,309,247089,1,0,0:0:0:0:
289,0,247283,1,0,0:0:0:0:
507,255,247476,5,0,0:0:0:0:
183,59,247670,1,0,0:0:0:0:
250,306,247863,1,0,0:0:0:0:
437,41,248057,1,0,0:0:0:0:
366,271,248250,6,0,P|443:352|472:362,1,105.000004005432
417,151,248637,1,0,0:0:0:0:
227,324,248831,1,0,0:0:0:0:
280,124,249024,1,0,0:0:0:0:
352,308,249218,1,0,0:0:0:0:
181,205,249412,5,0,0:0:0:0:
181,205,249605,2,0,P|119:154|111:-6,1,210.000008010865
271,52,250186,1,0,0:0:0:0:
88,276,250379,1,0,0:0:0:0:
166,125,250573,1,0,0:0:0:0:
307,274,250766,5,0,0:0:0:0:
307,274,250960,2,0,P|400:311|530:282,1,210.000008010865
426,158,251540,1,0,0:0:0:0:
361,359,251734,1,0,0:0:0:0:
366,94,251929,1,0,0:0:0:0:
219,261,252121,1,0,0:0:0:0:
224,108,252316,5,0,0:0:0:0:
224,108,252508,2,0,P|181:34|176:-7,1,105.000004005432
317,302,252895,5,0,0:0:0:0:
434,69,253090,1,0,0:0:0:0:
102,193,253282,1,0,0:0:0:0:
254,20,253477,5,0,0:0:0:0:
468,313,253669,1,0,0:0:0:0:
82,333,253864,1,0,0:0:0:0:
288,6,254056,5,0,0:0:0:0:
501,356,254251,1,0,0:0:0:0:
144,184,254445,6,0,P|221:188|285:176,1,105.000004005432
482,244,254832,2,0,P|401:230|343:241,1,105.000004005432
223,285,255219,1,0,0:0:0:0:
223,285,255412,1,0,0:0:0:0:
359,116,255606,5,0,0:0:0:0:
359,116,255799,2,0,P|395:79|300:9,1,210.000008010865
99,191,256380,2,0,L|194:126,1,105.000004005432
316,37,256767,1,0,0:0:0:0:
262,230,256961,5,0,0:0:0:0:
262,230,257154,2,0,P|230:292|82:296,1,210.000008010865
149,151,257735,1,0,0:0:0:0:
425,213,257928,1,0,0:0:0:0:
359,378,258122,2,0,P|299:330|277:269,1,105.000004005432
276,129,258509,1,0,0:0:0:0:
492,297,258702,1,0,0:0:0:0:
385,75,258896,5,0,0:0:0:0:
148,269,259090,1,0,0:0:0:0:
266,32,259283,1,0,0:0:0:0:
371,265,259477,1,0,0:0:0:0:
148,32,259670,1,0,0:0:0:0:
257,275,259864,1,0,0:0:0:0:
381,34,260057,1,0,0:0:0:0:
141,271,260251,1,0,0:0:0:0:
258,33,260444,1,0,0:0:0:0:
327,299,260638,6,0,P|409:235|433:208,1,105.000004005432
454,76,261025,2,0,P|367:102|345:149,1,105.000004005432
141,126,261412,2,0,L|200:222,1,105.000004005432
266,349,261799,1,0,0:0:0:0:
259,97,261993,1,0,0:0:0:0:
92,276,262186,5,0,0:0:0:0:
92,276,262282,1,0,0:0:0:0:
92,276,262380,1,0,0:0:0:0:
181,28,262573,1,0,0:0:0:0:
270,270,262767,1,0,0:0:0:0:
376,105,262960,2,0,P|430:45|486:16,1,105.000004005432
470,265,263347,6,0,P|407:265|333:262,1,105.000004005432
206,175,263734,1,0,0:0:0:0:
206,175,263831,1,0,0:0:0:0:
206,175,263928,1,0,0:0:0:0:
432,350,264122,1,0,0:0:0:0:
270,77,264315,1,0,0:0:0:0:
157,307,264509,1,0,0:0:0:0:
383,185,264702,1,0,0:0:0:0:
162,75,264896,5,0,0:0:0:0:
270,322,265089,1,0,0:0:0:0:
59,221,265283,1,0,0:0:0:0:
268,52,265476,1,0,0:0:0:0:
157,307,265670,1,0,0:0:0:0:
383,108,265863,5,0,0:0:0:0:
175,2,266057,1,0,0:0:0:0:
299,295,266250,1,0,0:0:0:0:
98,86,266444,1,0,0:0:0:0:
406,23,266638,2,0,L|472:12,2,52.5000020027161
88,256,278638,5,0,0:0:0:0:
88,229,278734,1,0,0:0:0:0:
94,204,278831,1,0,0:0:0:0:
105,180,278927,1,0,0:0:0:0:
122,160,279025,1,0,0:0:0:0:
143,144,279121,1,0,0:0:0:0:
164,133,279219,2,0,P|216:105|240:53,1,105.000004005432
