osu file format v14

[General]
AudioFilename: audio.mp3
AudioLeadIn: 0
PreviewTime: 44116
Countdown: 0
SampleSet: Soft
StackLeniency: 0.4
Mode: 0
LetterboxInBreaks: 0
WidescreenStoryboard: 1

[Editor]
Bookmarks: 163,2409,19531,25942,28112,34518,36530,40810,43098,44181,45244,60231,67487
DistanceSpacing: 0.6
BeatDivisor: 4
GridSize: 32
TimelineZoom: 1.600006

[Metadata]
Title:chase (TV Size)
TitleUnicode:chase (TV Size)
Artist:batta
ArtistUnicode:batta
Creator:Shiguma
Version:yaspo's insane chase
Source:ジョジョの奇妙な冒険 ダイヤモンドは砕けない
Tags:JoJo's Bizarre Adventure Diamond is Unbreakable JoJo no Kimyou na Bouken Diamond wa Kudakenai opening 2 op 7 part 4 diamond is not crash Monarch frogyfro yaspo lewski Hailie DJ Lucky Cheri
BeatmapID:1687475
BeatmapSetID:671722

[Difficulty]
HPDrainRate:6
CircleSize:4
OverallDifficulty:7
ApproachRate:9.3
SliderMultiplier:3.59999990463257
SliderTickRate:1

[Events]
//Background and Video events
0,0,"diamond.jpg",0,0
//Break Periods
//Storyboard Layer 0 (Background)
//Storyboard Layer 1 (Fail)
//Storyboard Layer 2 (Pass)
//Storyboard Layer 3 (Foreground)
//Storyboard Layer 4 (Overlay)
//Storyboard Sound Samples

[TimingPoints]
163,550.45871559633,4,2,1,70,1,0
254,250,4,2,1,70,1,0
254,-400,4,2,1,70,0,0
379,260.869565217391,4,2,1,70,1,0
509,-400,4,2,1,70,0,0
769,-200,4,2,1,70,0,0
900,307.692307692308,4,2,1,70,1,0
900,-400,4,2,1,70,0,0
1053,250,4,2,1,70,1,0
1178,245.901639344262,4,2,1,70,1,0
1423,272.727272727273,4,2,1,70,1,0
1559,-200,4,2,1,70,0,0
1695,266.666666666667,4,2,1,70,1,0
1828,-200,4,2,1,70,0,0
1961,300,4,2,1,70,1,0
2111,-200,4,2,1,70,0,0
2261,297.029702970297,4,2,1,70,1,0
2409,263.157894736842,4,2,1,70,1,0
2672,-200,4,2,1,70,0,0
2935,247.933884297521,4,2,1,70,1,0
2935,-200,4,2,1,70,0,0
3182,279.06976744186,4,2,1,70,1,0
3321,-200,4,2,1,70,0,0
3461,259.74025974026,4,2,1,70,1,0
3980,-133.333333333333,4,2,1,70,0,0
4499,264.31718061674,4,2,1,70,1,0
4763,-200,4,2,1,70,0,0
5027,-200,4,2,1,70,0,0
5291,281.69014084507,4,2,1,70,1,0
5291,-200,4,2,1,70,0,0
5572,266.666666666667,4,2,1,70,1,0
6105,263.157894736842,4,2,1,70,1,0
6105,-133.333333333333,4,2,1,70,0,0
6368,269.058295964126,4,2,1,70,1,0
6368,-133.333333333333,4,2,1,70,0,0
6637,267.857142857143,4,2,1,70,1,0
6904,267.857142857143,4,2,1,70,1,0
6904,-200,4,2,1,70,0,0
7171,-200,4,2,1,70,0,0
7439,297.029702970297,4,2,1,70,1,0
7736,265.486725663717,4,2,1,70,1,0
8001,270.27027027027,4,2,1,70,1,0
8271,256.410256410256,4,2,1,70,1,0
8271,-200,4,2,1,70,0,0
8527,270.27027027027,4,2,1,70,1,0
8527,-200,4,2,1,70,0,0
8797,266.666666666667,4,2,1,70,1,0
8797,-400,4,2,1,70,0,0
9463,-200,4,2,1,70,0,0
9730,307.692307692308,4,2,1,70,1,0
9883,262.008733624454,4,2,1,70,1,0
10407,270.27027027027,4,2,1,70,1,0
10407,-133.333333333333,4,2,1,70,0,0
10947,275.229357798165,4,2,1,70,1,0
11222,-200,4,2,1,70,0,0
11497,256.410256410256,4,2,1,70,1,0
11497,-200,4,2,1,70,0,0
11753,283.018867924528,4,2,1,70,1,0
12036,258.620689655172,4,2,1,70,1,0
12553,270.27027027027,4,2,1,70,1,0
12553,-133.333333333333,4,2,1,70,0,0
13093,270.27027027027,4,2,1,70,1,0
13363,-200,4,2,1,70,0,0
13633,258.620689655172,4,2,1,70,1,0
13633,-200,4,2,1,70,0,0
14020,260.869565217391,4,2,1,70,1,0
14150,260.869565217391,4,2,1,70,1,0
14671,-133.333333333333,4,2,1,70,0,0
14932,283.018867924528,4,2,1,70,1,0
14932,-133.333333333333,4,2,1,70,0,0
15215,267.857142857143,4,2,1,70,1,0
15482,-200,4,2,1,70,0,0
15750,272.727272727273,4,2,1,70,1,0
15750,-200,4,2,1,70,0,0
16022,268.456375838926,4,2,1,70,1,0
16290,275.229357798165,4,2,1,70,1,0
16565,267.857142857143,4,2,1,70,1,0
16832,-200,4,2,1,70,0,0
17368,279.06976744186,4,2,1,70,1,0
17647,260.869565217391,4,2,1,70,1,0
17907,275.229357798165,4,2,1,70,1,0
18457,265.486725663717,4,2,1,70,1,0
18457,-200,4,2,1,70,0,0
18722,258.620689655172,4,2,1,70,1,0
18722,-200,4,2,1,70,0,0
18980,307.692307692308,4,2,1,70,1,0
19133,265.486725663717,4,2,1,70,1,0
19531,263.157894736842,4,2,1,70,1,0
19531,-100,4,2,1,70,0,0
19794,-200,4,2,1,70,0,0
20583,272.727272727273,4,2,1,70,1,0
20855,272.727272727273,4,2,1,70,1,0
20855,-200,4,2,1,70,0,0
21127,263.157894736842,4,2,1,70,1,0
21127,-400,4,2,1,70,0,0
21390,260.869565217391,4,2,1,70,1,0
21390,-399.999999999997,4,2,1,70,0,0
21650,285.714285714286,4,2,1,70,1,0
21650,-200,4,2,1,70,0,0
22221,260.869565217391,4,2,1,70,1,0
22221,-200,4,2,1,70,0,0
22481,271.493212669683,4,2,1,70,1,0
22481,-200,4,2,1,70,0,0
22616,-200,4,2,1,70,0,0
22752,258.620689655172,4,2,1,70,1,0
22752,-200,4,2,1,70,0,0
23010,265.486725663717,4,2,1,70,1,0
23010,-200,4,2,1,70,0,0
23275,-400,4,2,1,70,0,0
23540,274.599542334096,4,2,1,70,1,0
23540,-400,4,2,1,70,0,0
23814,263.157894736842,4,2,1,70,1,0
24077,-200,4,2,1,70,0,0
24866,270.27027027027,4,2,1,70,1,0
24866,-200,4,2,1,70,0,0
25676,266.666666666667,4,2,1,70,1,0
25942,279.06976744186,4,2,1,70,1,0
25942,-400,4,2,1,70,0,0
26221,273.972602739726,4,2,1,70,1,0
26494,265.486725663717,4,2,1,70,1,0
26494,-400,4,2,1,70,0,0
27024,266.666666666667,4,2,1,70,1,0
27424,-133.333333333333,4,2,1,70,0,0
27557,277.777777777778,4,2,1,70,1,0
27834,-133.333333333333,4,2,1,70,0,0
28112,269.058295964126,4,2,1,70,1,0
28515,-133.333333333333,4,2,1,70,0,0
29188,254.237288135593,4,2,1,70,1,0
29188,-133.333333333333,4,2,1,70,0,0
29442,265.486725663717,4,2,1,70,1,0
29442,-133.333333333333,4,2,1,70,0,0
30238,265.486725663717,4,2,1,70,1,0
30238,-133.333333333333,4,2,1,70,0,0
30503,267.857142857143,4,2,1,70,1,0
30636,-133.333333333333,4,2,1,70,0,0
31306,273.972602739726,4,2,1,70,1,0
31579,271.493212669683,4,2,1,70,1,0
31579,-133.333333333333,4,2,1,70,0,0
32121,260.869565217391,4,2,1,70,1,0
32121,-133.333333333333,4,2,1,70,0,0
32381,270.27027027027,4,2,1,70,1,0
32921,-133.333333333333,4,2,1,70,0,0
33191,266.075388026608,4,2,1,70,1,0
33191,-133.333333333333,4,2,1,70,0,0
33457,265.486725663717,4,2,1,70,1,0
33722,-133.333333333333,4,2,1,70,0,0
34518,269.058295964126,4,2,1,70,1,0
35056,266.666666666667,4,2,1,70,1,0
35589,269.058295964126,4,2,1,70,1,0
35723,-200,4,2,1,70,0,0
36530,279.06976744186,4,2,1,70,1,0
36809,266.666666666667,4,2,1,70,1,0
36942,275.229357798165,4,2,1,70,1,0
36942,-400,4,2,1,70,0,0
37217,263.157894736842,4,2,1,70,1,0
37348,-133.333333333333,4,2,1,70,0,0
37611,283.018867924528,4,2,1,70,1,0
37894,258.620689655172,4,2,1,70,1,0
38023,260.869565217391,4,2,1,70,1,0
38023,-400,4,2,1,70,0,0
38414,-133.333333333333,4,2,1,70,0,0
38675,288.461538461538,4,2,1,70,1,0
38963,226.415094339623,4,2,1,70,1,0
39076,283.018867924528,4,2,1,70,1,0
39076,-400,4,2,1,70,0,0
39359,259.74025974026,4,2,1,70,1,0
39748,281.69014084507,4,2,1,70,1,0
40029,230.769230769231,4,2,1,70,1,0
40144,275.229357798165,4,2,1,70,1,0
40144,-399.999999999997,4,2,1,70,0,0
40419,260.869565217391,4,2,1,70,1,0
40810,280.373831775701,4,2,1,70,1,0
41090,260.869565217391,4,2,1,70,1,0
41220,292.682926829268,4,2,1,70,1,0
41220,-400,4,2,1,70,0,0
41512,258.620689655172,4,2,1,70,1,0
41641,-133.333333333333,4,2,1,70,0,0
41770,250,4,2,1,70,1,0
41895,287.081339712919,4,2,1,70,1,0
42182,245.901639344262,4,2,1,70,1,0
42304,258.620689655172,4,2,1,70,1,0
42304,-200,4,2,1,70,0,0
42691,-133.333333333333,4,2,1,70,0,0
42950,297.029702970297,4,2,1,70,1,0
43098,275.229357798165,4,2,1,70,1,0
43098,-133.333333333333,4,2,1,70,0,0
43648,266.666666666667,4,2,1,70,1,0
44181,256.410256410256,4,2,1,70,1,0
44437,269.058295964126,4,2,1,70,1,0
45244,275.229357798165,4,2,1,70,1,1
45244,-200,4,2,1,70,0,1
45794,260.869565217391,4,2,1,70,1,1
46054,258.620689655172,4,2,1,70,1,1
46312,272.727272727273,4,2,1,70,1,1
46312,-133.333333333333,4,2,1,70,0,1
46584,279.06976744186,4,2,1,70,1,1
46584,-200,4,2,1,70,0,1
46863,258.620689655172,4,2,1,70,1,1
46863,-400,4,2,1,70,0,1
47121,-133.333333333333,4,2,1,70,0,1
47380,267.857142857143,4,2,1,70,1,1
47380,-200,4,2,1,70,0,1
47915,-100,4,2,1,70,0,1
48451,272.727272727273,4,2,1,70,1,1
48723,-200,4,2,1,70,0,1
49269,263.157894736842,4,2,1,70,1,1
49269,-133.333333333333,4,2,1,70,0,1
49532,256.410256410256,4,2,1,70,1,1
49532,-200,4,2,1,70,0,1
50044,267.857142857143,4,2,1,70,1,1
50311,284.36018957346,4,2,1,70,1,1
50595,266.666666666667,4,2,1,70,1,1
50861,-200,4,2,1,70,0,1
51395,270.27027027027,4,2,1,70,1,1
51395,-200,4,2,1,70,0,1
51665,269.058295964126,4,2,1,70,1,1
51665,-133.333333333333,4,2,1,70,0,1
52472,263.157894736842,4,2,1,70,1,1
52472,-200,4,2,1,70,0,1
52735,263.157894736842,4,2,1,70,1,1
52735,-400,4,2,1,70,0,1
52998,-133.333333333333,4,2,1,70,0,1
53524,-100,4,2,1,70,0,1
53787,285.714285714286,4,2,1,70,1,1
53787,-200,4,2,1,70,0,1
54072,266.666666666667,4,2,1,70,1,1
54072,-400,4,2,1,70,0,1
54338,-100,4,2,1,70,0,1
54605,276.497695852535,4,2,1,70,1,1
54881,266.666666666667,4,2,1,70,1,1
55147,-200,4,2,1,70,0,1
55681,264.31718061674,4,2,1,70,1,1
55681,-133.333333333333,4,2,1,70,0,1
55945,275.229357798165,4,2,1,70,1,1
55945,-200,4,2,1,70,0,1
56220,266.666666666667,4,2,1,70,1,1
56220,-400,4,2,1,70,0,1
56486,-100,4,2,1,70,0,1
57020,269.058295964126,4,2,1,70,1,1
57289,-200,4,2,1,70,0,1
57558,263.157894736842,4,2,1,70,1,1
57558,-200,4,2,1,70,0,1
57821,269.058295964126,4,2,1,70,1,1
57821,-200,4,2,1,70,0,1
58090,264.31718061674,4,2,1,70,1,1
58090,-133.333333333333,4,2,1,70,0,1
58618,276.497695852535,4,2,1,70,1,1
58618,-133.333333333333,4,2,1,70,0,1
58894,-100,4,2,1,70,0,1
59170,265.486725663717,4,2,1,70,1,1
59966,-133.333333333333,4,2,1,70,0,1
60231,272.727272727273,4,2,1,70,1,0
60231,-200,4,2,1,70,0,0
61049,270.27027027027,4,2,1,70,1,0
61049,-133.333333333333,4,2,1,70,0,0
61589,263.157894736842,4,2,1,70,1,0
62378,272.727272727273,4,2,1,70,1,0
62378,-200,4,2,1,70,0,0
62787,265.486725663717,4,2,1,70,1,0
62787,-200,4,2,1,70,0,0
63185,272.727272727273,4,2,1,70,1,0
63185,-133.333333333333,4,2,1,70,0,0
63730,266.075388026608,4,2,1,70,1,0
64528,266.666666666667,4,2,1,70,1,0
64528,-200,4,2,1,70,0,0
65328,271.493212669683,4,2,1,70,1,0
65328,-133.333333333333,4,2,1,70,0,0
65870,256.410256410256,4,2,1,70,1,0
65870,-400,4,2,1,70,0,0
66639,280.373831775701,4,2,1,70,1,0
66639,-200,4,2,1,70,0,0
67059,285.714285714286,4,2,1,70,1,0
67059,-200,4,2,1,70,0,0
67487,-416.666666666667,4,2,1,70,0,0
71059,-416.666666666667,4,2,1,5,0,0

[Colours]
Combo1 : 220,164,101
Combo2 : 155,99,180
Combo3 : 181,181,181

[HitObjects]
474,228,254,21,2,0:0:0:0:
396,14,509,2,0,P|368:11|336:14,1,44.9999988079071,0|0,0:0|0:0,0:0:0:0:
189,91,770,1,2,0:0:0:0:
189,91,900,2,0,P|186:119|189:151,1,44.9999988079071,2|0,0:0|0:0,0:0:0:0:
248,307,1178,1,2,0:0:0:0:
474,228,1423,5,0,0:0:0:0:
496,148,1559,1,0,0:0:0:0:
467,68,1695,1,2,0:0:0:0:
394,22,1828,2,0,P|345:20|277:43,1,89.9999976158143,0|2,0:0|0:0,0:0:0:0:
258,197,2111,2,0,P|307:199|375:176,1,89.9999976158143,2|2,0:0|0:0,0:0:0:0:
113,1,2409,6,0,B|101:128|101:128|74:62,1,179.999995231629,2|0,0:0|0:0,0:0:0:0:
0,297,2672,6,0,P|42:284|91:284,1,89.9999976158143,8|0,0:0|0:0,0:0:0:0:
239,308,2935,1,2,0:0:0:0:
334,347,3058,2,0,P|377:350|438:334,1,89.9999976158143,0|8,0:0|0:0,0:0:0:0:
411,85,3321,1,4,0:0:0:0:
154,145,3590,5,0,0:0:0:0:
157,246,3720,1,8,0:0:0:0:
217,326,3850,1,0,0:0:0:0:
313,357,3980,2,0,P|381:361|472:334,1,135.000001573563,2|0,0:0|0:0,0:0:0:0:
504,162,4240,2,0,P|436:157|344:184,1,135.000001573563,8|0,0:0|0:0,0:0:0:0:
110,363,4499,5,2,0:0:0:0:
35,72,4763,6,0,P|77:59|126:59,1,89.9999976158143,8|0,0:0|0:0,0:0:0:0:
298,145,5027,1,2,0:0:0:0:
372,90,5159,2,0,P|414:77|463:77,1,89.9999976158143,0|8,0:0|0:0,0:0:0:0:
501,327,5431,1,4,0:0:0:0:
186,259,5705,5,0,0:0:0:0:
209,164,5838,1,8,0:0:0:0:
282,100,5972,1,0,0:0:0:0:
378,97,6105,2,0,P|438:123|493:163,1,135.000001573563,2|0,0:0|0:0,0:0:0:0:
423,382,6368,2,0,P|361:354|306:314,1,135.000001573563,8|0,0:0|0:0,0:0:0:0:
202,0,6637,6,0,B|190:127|190:127|163:61,1,179.999995231629,4|0,0:1|0:0,0:0:0:0:
4,268,6904,6,0,P|46:255|95:255,1,89.9999976158143,8|0,0:0|0:0,0:0:0:0:
243,279,7171,1,2,0:0:0:0:
338,318,7305,2,0,P|381:321|442:305,1,89.9999976158143,0|8,0:0|0:0,0:0:0:0:
444,73,7587,1,4,0:0:0:0:
216,120,7868,5,0,0:0:0:0:
216,202,8001,1,8,0:0:0:0:
262,270,8136,1,0,0:0:0:0:
339,304,8271,2,0,P|392:307|464:285,1,89.9999976158143,2|0,0:0|0:0,0:0:0:0:
494,190,8527,2,0,P|440:186|368:208,1,89.9999976158143,8|0,0:0|0:0,0:0:0:0:
172,359,8797,6,0,L|217:368,1,44.9999988079071,2|0,0:0|0:0,0:0:0:0:
126,291,9063,6,0,L|169:280,1,44.9999988079071,8|0,0:0|0:0,0:0:0:0:
332,228,9330,1,2,0:0:0:0:
332,228,9463,1,0,0:0:0:0:
261,33,9730,1,4,0:0:0:0:
256,346,10014,5,0,0:0:0:0:
163,291,10145,1,8,0:0:0:0:
255,320,10276,1,0,0:0:0:0:
381,266,10407,2,0,P|380:206|360:120,1,135.000001573563,2|0,0:0|0:0,0:0:0:0:
98,22,10677,2,0,P|98:81|118:167,1,135.000001573563,8|0,0:0|0:0,0:0:0:0:
340,8,10947,6,0,B|352:135|352:135|379:69,1,179.999995231629,4|0,0:1|0:0,0:0:0:0:
512,272,11222,6,0,P|468:266|420:274,1,89.9999976158143,8|0,0:0|0:0,0:0:0:0:
268,322,11497,1,2,0:0:0:0:
187,374,11625,2,0,P|143:373|84:351,1,89.9999976158143,0|8,0:0|0:0,0:0:0:0:
143,92,11894,1,4,0:0:0:0:
398,184,12165,5,0,0:0:0:0:
372,275,12294,1,8,0:0:0:0:
308,348,12423,1,0,0:0:0:0:
214,374,12553,2,0,P|145:373|57:338,1,135.000001573563,2|0,0:0|0:0,0:0:0:0:
17,157,12823,2,0,P|85:159|173:194,1,135.000001573563,8|0,0:0|0:0,0:0:0:0:
437,323,13093,5,2,0:0:0:0:
512,56,13363,6,0,P|471:38|422:34,1,89.9999976158143,8|0,0:0|0:0,0:0:0:0:
242,117,13633,1,2,0:0:0:0:
191,42,13762,2,0,P|150:24|101:20,1,89.9999976158143,0|8,0:0|0:0,0:0:0:0:
35,274,14020,1,4,0:0:0:0:
362,183,14280,5,0,0:0:0:0:
313,101,14409,1,8,0:0:0:0:
233,48,14541,1,0,0:0:0:0:
134,42,14671,2,0,P|67:60|-9:117,1,135.000001573563,2|0,0:0|0:0,0:0:0:0:
0,302,14932,2,0,P|65:282|141:225,1,135.000001573563,8|0,0:0|0:0,0:0:0:0:
324,4,15215,6,0,B|336:131|336:131|363:65,1,179.999995231629,4|0,0:1|0:0,0:0:0:0:
505,273,15482,6,0,P|460:266|412:275,1,89.9999976158143,8|0,0:0|0:0,0:0:0:0:
268,331,15750,1,2,0:0:0:0:
187,383,15886,2,0,P|143:382|84:360,1,89.9999976158143,0|0,0:0|1:0,0:0:0:0:
64,117,16156,1,4,0:0:0:0:
323,196,16427,5,0,0:0:0:0:
315,277,16565,1,8,0:0:0:0:
264,341,16698,1,0,0:0:0:0:
184,368,16832,2,0,P|130:366|61:338,1,89.9999976158143,2|0,0:0|0:0,0:0:0:0:
39,241,17100,2,0,P|93:241|162:269,1,89.9999976158143,8|0,0:0|0:0,0:0:0:0:
356,367,17368,5,8,0:0:0:0:
356,367,17507,1,0,0:0:0:0:
203,374,17647,2,0,B|215:247|215:247|235:295,1,179.999995231629,8|0,0:0|0:0,0:0:0:0:
412,30,17907,2,0,B|400:157|400:157|381:108,1,179.999995231629,8|0,0:0|0:0,0:0:0:0:
126,297,18182,1,8,0:0:0:0:
137,173,18319,1,0,0:0:0:0:
141,185,18589,5,8,0:0:0:0:
229,217,18722,1,0,0:0:0:0:
321,250,18851,1,8,0:0:0:0:
413,283,18980,1,8,3:0:0:0:
339,222,19133,1,8,1:3:0:0:
265,161,19265,1,8,3:0:0:0:
191,100,19398,1,8,1:3:0:0:
96,46,19531,22,0,B|74:171|74:171|105:130,1,179.999995231629,2|0,0:0|0:0,0:0:0:0:
31,358,19794,5,8,0:0:0:0:
3,126,20057,1,2,0:0:0:0:
68,182,20188,1,0,0:0:0:0:
182,120,20320,2,0,P|265:93|368:134,1,179.999995231629,8|2,0:0|0:0,0:0:0:0:
422,204,20719,1,0,0:0:0:0:
431,94,20855,2,0,P|462:73|539:66,1,89.9999976158143,8|0,0:0|0:0,0:0:0:0:
389,295,21127,2,0,P|332:315|293:314,1,89.9999976158143,2|8,0:0|0:0,0:0:0:0:
96,46,21650,21,2,0:0:0:0:
21,306,21935,6,0,P|63:287|128:289,1,89.9999976158143,8|0,0:0|0:0,0:0:0:0:
284,324,22221,1,2,0:0:0:0:
322,245,22351,1,0,0:0:0:0:
397,201,22481,2,0,P|442:193|504:212,1,89.9999976158143,8|0,0:0|0:0,0:0:0:0:
473,373,22752,1,2,0:0:0:0:
273,49,23010,2,0,P|308:19|371:4,1,89.9999976158143,8|0,0:0|0:0,0:0:0:0:
506,175,23275,2,0,P|478:159|450:151,1,44.9999988079071,2|0,0:0|0:0,0:0:0:0:
421,86,23540,2,0,P|388:86|360:93,1,44.9999988079071,8|0,0:0|0:0,0:0:0:0:
124,363,23814,21,2,0:0:0:0:
17,97,24077,6,0,P|57:78|102:75,1,89.9999976158143,8|0,0:0|0:0,0:0:0:0:
246,174,24340,2,0,P|286:192|331:195,1,89.9999976158143,2|0,0:0|0:0,0:0:0:0:
478,69,24603,1,8,0:0:0:0:
62,164,24866,2,0,P|104:152|148:156,1,89.9999976158143,2|0,0:0|0:0,0:0:0:0:
273,278,25136,2,0,P|308:302|352:313,1,89.9999976158143,8|0,0:0|0:0,0:0:0:0:
511,212,25406,2,0,P|473:186|429:174,1,89.9999976158143,2|0,0:0|0:0,0:0:0:0:
230,161,25676,1,8,0:0:0:0:
116,369,25942,22,0,L|126:268,1,89.9999976158143,2|8,0:0|0:0,0:0:0:0:
335,9,26494,2,0,L|327:101,1,89.9999976158143,2|8,0:0|0:0,0:0:0:0:
173,196,27024,21,2,0:0:0:0:
173,196,27157,1,0,0:0:0:0:
173,196,27290,1,8,0:0:0:0:
209,283,27424,1,8,0:0:0:0:
384,261,27695,1,0,0:0:0:0:
420,348,27834,1,8,0:0:0:0:
407,7,28112,6,0,B|396:134|396:134|423:89,1,179.999995231629,2|0,0:0|0:0,0:0:0:0:
512,291,28381,21,8,0:0:0:0:
429,355,28515,2,0,P|342:368|258:342,1,135.000001573563,0|0,0:0|0:0,0:0:0:0:
162,287,28784,2,0,P|95:277|29:291,1,135.000001573563,0|8,0:0|0:0,0:0:0:0:
318,273,29053,1,0,0:0:0:0:
281,183,29188,1,2,0:0:0:0:
206,112,29315,2,0,P|146:80|80:70,1,135.000001573563,0|8,0:0|0:0,0:0:0:0:
419,199,29574,1,0,0:0:0:0:
404,81,29707,2,0,P|359:31|299:0,1,135.000001573563,0|0,0:0|1:0,0:0:0:0:
110,165,29972,2,0,P|154:214|214:246,1,135.000001573563,0|0,0:0|0:0,0:0:0:0:
511,307,30238,5,2,0:0:0:0:
511,31,30503,21,8,0:0:0:0:
459,119,30636,2,0,P|391:114|326:96,1,135.000001573563,0|2,0:0|0:0,0:0:0:0:
197,40,30904,1,0,0:0:0:0:
258,145,31038,2,0,P|140:158|-11:101,1,270.000003147125,8|2,0:0|0:0,0:0:0:0:
372,234,31442,1,0,0:0:0:0:
312,310,31579,1,8,0:0:0:0:
220,346,31714,1,0,0:0:0:0:
124,336,31850,2,0,P|57:316|-13:257,1,135.000001573563,2|0,0:0|0:0,0:0:0:0:
73,18,32121,2,0,P|139:37|210:96,1,135.000001573563,8|0,0:0|0:0,0:0:0:0:
358,369,32381,5,2,0:0:0:0:
473,100,32651,21,8,0:0:0:0:
386,46,32786,1,0,0:0:0:0:
283,36,32921,2,0,P|217:55|146:114,1,135.000001573563,2|0,0:0|0:0,0:0:0:0:
397,284,33191,1,8,0:0:0:0:
326,209,33324,1,0,0:0:0:0:
230,173,33457,1,0,0:0:0:0:
8,353,33722,2,0,P|3:301|19:205,1,135.000001573563,8|0,0:0|0:0,0:0:0:0:
126,34,33987,2,0,P|121:86|137:182,1,135.000001573563,2|0,0:0|0:0,0:0:0:0:
330,359,34253,2,0,P|325:307|341:211,1,135.000001573563,8|0,0:0|0:0,0:0:0:0:
417,52,34518,5,2,0:0:0:0:
471,311,34787,1,8,0:0:0:0:
417,52,35056,1,2,0:0:0:0:
471,311,35322,1,8,0:0:0:0:
417,52,35589,1,2,0:0:0:0:
458,160,35723,2,0,P|420:165|366:152,1,89.9999976158143,2|8,0:0|3:0,0:0:0:0:
183,92,35992,5,8,1:3:0:0:
93,121,36127,1,8,3:0:0:0:
0,153,36261,1,8,1:3:0:0:
72,107,36396,1,8,3:0:0:0:
148,53,36530,22,0,B|167:177|167:177|126:135,1,179.999995231629,0|0,1:0|0:0,0:0:0:0:
0,348,36809,5,0,0:0:0:0:
101,331,36942,1,0,0:0:0:0:
260,136,37217,1,2,0:0:0:0:
259,135,37348,2,0,P|326:120|393:129,1,135.000001573563,0|0,0:0|0:0,0:0:0:0:
507,383,37611,22,0,B|529:258|529:258|500:300,1,179.999995231629,0|0,1:0|0:0,0:0:0:0:
252,94,37894,21,0,0:0:0:0:
353,77,38023,1,0,0:0:0:0:
252,248,38283,1,2,0:0:0:0:
253,249,38414,2,0,P|185:263|118:254,1,135.000001573563,0|0,0:0|0:0,0:0:0:0:
11,11,38675,6,0,B|-11:136|-11:136|18:94,1,179.999995231629,0|0,1:0|0:0,0:0:0:0:
192,285,38963,5,0,0:0:0:0:
192,285,39076,1,0,0:0:0:0:
197,294,39359,1,2,0:0:0:0:
205,307,39488,1,0,0:0:0:0:
214,322,39618,1,2,0:0:0:0:
296,371,39748,22,0,B|318:246|318:246|287:289,1,179.999995231629,0|0,1:0|0:0,0:0:0:0:
153,117,40029,21,0,0:0:0:0:
153,117,40144,1,0,0:0:0:0:
144,103,40419,1,2,0:0:0:0:
136,90,40548,1,0,0:0:0:0:
127,75,40678,1,0,0:0:0:0:
209,34,40810,6,0,B|228:158|228:158|187:116,1,179.999995231629,0|0,1:0|0:0,0:0:0:0:
43,313,41090,5,0,0:0:0:0:
144,296,41220,1,0,0:0:0:0:
306,121,41512,1,2,0:0:0:0:
305,120,41641,2,0,P|372:105|439:114,1,135.000001573563,0|0,0:0|0:0,0:0:0:0:
467,356,41895,22,0,B|486:232|486:232|445:274,1,179.999995231629,0|0,1:0|0:0,0:0:0:0:
304,80,42182,21,0,0:0:0:0:
405,63,42304,1,0,0:0:0:0:
276,322,42562,1,2,0:0:0:0:
277,323,42691,2,0,P|210:338|143:329,1,135.000001573563,0|0,0:0|0:0,0:0:0:0:
16,113,42950,21,8,0:0:0:0:
119,143,43098,2,0,P|141:99|150:-5,1,135.000001573563,8|0,0:0|0:0,0:0:0:0:
11,239,43373,2,0,P|17:306|45:368,1,135.000001573563,8|0,0:0|0:0,0:0:0:0:
271,183,43648,6,0,P|308:104|318:6,1,179.999995231629,8|0,0:0|0:0,0:0:0:0:
49,207,43914,2,0,P|58:296|96:377,1,179.999995231629,8|0,0:0|0:0,0:0:0:0:
465,359,44181,6,0,B|484:235|484:235|443:277,1,179.999995231629,0|0,0:0|0:0,0:0:0:0:
133,254,45244,6,0,B|189:246|244:297|291:354|385:322,1,269.999992847443,4|0,0:1|0:0,0:0:0:0:
16,321,45794,6,0,B|111:189|241:300|241:308|241:315|386:441|494:224,1,538,2|0,0:0|0:0,0:0:0:0:
512,0,46312,5,2,0:0:0:0:
18,179,46584,6,0,P|57:152|127:145,1,89.9999976158143,8|0,0:0|0:0,0:0:0:0:
324,133,46863,1,2,0:0:0:0:
376,215,46992,1,0,0:0:0:0:
420,80,47121,2,0,P|356:32|253:41,1,135.000001573563,8|0,0:0|0:0,0:0:0:0:
135,254,47380,2,0,B|189:246|244:297|291:357|385:322,1,269.999992847443,4|0,0:1|0:0,0:0:0:0:
16,321,47915,6,0,B|111:189|241:300|241:308|241:315|386:441|494:224,1,539.999985694885,2|0,0:0|0:0,0:0:0:0:
512,0,48451,5,2,0:0:0:0:
18,90,48723,6,0,P|57:117|127:124,1,89.9999976158143,8|0,0:0|0:0,0:0:0:0:
331,107,48996,1,2,0:0:0:0:
352,12,49132,1,0,0:0:0:0:
456,114,49269,2,0,P|407:160|347:189,1,135.000001573563,8|0,0:0|0:0,0:0:0:0:
134,253,49532,2,0,B|188:244|244:297|295:350|386:322,1,269.999992847443,4|0,0:1|0:0,0:0:0:0:
16,321,50044,6,0,B|111:189|241:300|241:308|241:315|386:441|494:224,1,550,2|0,0:0|0:0,0:0:0:0:
512,0,50595,5,2,0:0:0:0:
2,115,50861,6,0,P|30:83|86:67,1,89.9999976158143,8|0,0:0|0:0,0:0:0:0:
182,205,51128,2,0,P|217:228|275:229,1,89.9999976158143,2|0,0:0|0:0,0:0:0:0:
433,105,51395,1,8,0:0:0:0:
19,228,51665,6,0,P|67:164|137:125,1,135.000001573563,2|0,0:0|0:0,0:0:0:0:
274,144,51934,2,0,P|336:193|414:212,1,135.000001573563,8|0,0:0|0:0,0:0:0:0:
512,134,52203,1,2,0:0:0:0:
512,134,52337,1,0,0:0:0:0:
464,28,52472,22,0,P|420:46|384:84,1,89.9999976158143,8|0,0:0|0:0,0:0:0:0:
300,259,52735,1,2,0:0:0:0:
208,240,52866,1,0,0:0:0:0:
93,288,52998,1,8,0:0:0:0:
136,164,53129,1,8,0:0:0:0:
295,195,53261,6,0,P|313:230|322:340,1,135.000001573563,2|0,0:0|0:0,0:0:0:0:
71,367,53524,2,0,P|75:276|110:194,1,179.999995231629,8|0,0:0|0:0,0:0:0:0:
378,131,53787,22,0,B|324:140|268:87|217:34|126:62,1,264,4|0,0:1|0:0,0:0:0:0:
496,63,54338,6,0,B|401:195|271:84|271:76|271:69|126:-57|18:160,1,546,2|0,0:0|0:0,0:0:0:0:
0,384,54881,5,2,0:0:0:0:
509,192,55147,6,0,P|477:218|430:236,1,89.9999976158143,8|0,0:0|0:0,0:0:0:0:
220,270,55414,1,2,0:0:0:0:
134,221,55547,1,0,0:0:0:0:
206,361,55681,2,0,P|263:359|337:312,1,135.000001573563,8|0,0:0|0:0,0:0:0:0:
378,131,55945,2,0,B|324:140|268:87|217:34|126:62,1,267,4|0,0:1|0:0,0:0:0:0:
496,63,56486,6,0,B|401:195|271:84|271:76|271:69|126:-57|18:160,1,539.999985694885,2|0,0:0|0:0,0:0:0:0:
0,384,57020,5,2,0:0:0:0:
512,325,57289,6,0,P|480:299|433:281,1,89.9999976158143,8|0,0:0|0:0,0:0:0:0:
228,306,57558,1,2,0:0:0:0:
151,356,57689,1,0,0:0:0:0:
66,351,57821,2,0,P|22:323|-8:275,1,89.9999976158143,8|0,0:0|0:0,0:0:0:0:
73,68,58090,6,0,P|42:133|43:203,1,135.000001573563,2|0,0:0|0:0,0:0:0:0:
231,340,58354,2,0,P|200:275|201:205,1,135.000001573563,8|0,0:0|0:0,0:0:0:0:
370,52,58618,2,0,P|339:117|340:187,1,135.000001573563,2|0,0:0|0:0,0:0:0:0:
467,366,58894,22,0,P|489:271|480:187,1,179.999995231629,8|0,0:0|0:0,0:0:0:0:
262,21,59170,2,0,P|240:116|249:200,1,179.999995231629,2|0,0:0|0:0,0:0:0:0:
438,384,59435,21,8,0:0:0:0:
345,366,59568,1,8,0:0:0:0:
257,348,59700,1,4,0:3:0:0:
168,330,59833,1,4,0:3:0:0:
159,344,59966,1,4,0:3:0:0:
151,357,60099,1,4,0:3:0:0:
144,374,60231,6,0,P|191:265|249:213,1,179.999995231629,4|0,0:0|0:0,0:0:0:0:
82,201,60640,2,0,P|177:130|253:114,1,179.999995231629,0|0,0:0|0:0,0:0:0:0:
19,366,61049,6,0,P|65:183|411:177,1,540.000006294251,2|0,0:0|0:0,0:0:0:0:
431,259,61720,5,0,0:0:0:0:
397,346,61852,1,8,0:3:0:0:
397,346,61983,1,4,0:3:0:0:
397,346,62115,1,4,0:3:0:0:
508,25,62378,6,0,P|458:10|314:15,1,179.999995231629,4|0,0:0|0:0,0:0:0:0:
512,245,62787,2,0,P|430:202|318:180,1,179.999995231629,0|0,0:0|0:0,0:0:0:0:
509,38,63185,6,0,P|258:35|60:238,1,540.000006294251,2|0,0:0|0:0,0:0:0:0:
95,369,63996,6,0,B|108:306|108:306|131:342,4,89.9999976158143,0|0|0|0|0,1:0|1:0|1:0|1:0|1:0,0:0:0:0:
12,181,64528,6,0,P|103:200|188:279,1,179.999995231629,4|0,0:0|0:0,0:0:0:0:
92,73,64928,2,0,P|185:68|288:122,1,179.999995231629,0|0,0:0|0:0,0:0:0:0:
0,106,65328,6,0,P|181:54|359:350,1,540.000006294251,2|2,0:0|0:0,0:0:0:0:
240,377,66126,5,0,1:0:0:0:
240,377,66254,1,0,0:0:0:0:
363,308,66511,5,0,0:0:0:0:
418,369,66639,2,0,P|461:276|465:163,1,179.999995231629,4|0,0:0|0:0,0:0:0:0:
350,306,67059,2,0,P|371:201|330:118,1,179.999995231629,4|0,0:1|0:0,0:0:0:0:
100,72,67487,6,0,B|116:27|173:31|196:19|196:19|174:67|171:116|176:172|176:172|162:244|138:301|76:324|68:247|11:259|22:169|114:169|146:143|178:174|178:174|232:233|232:233|238:287|307:312|350:292|368:221|373:130|301:117|235:121|231:216,1,1079.99999775696,4|0,0:0|0:0,0:0:0:0:
