osu file format v14

[General]
AudioFilename: audio.mp3
AudioLeadIn: 0
PreviewTime: 44116
Countdown: 0
SampleSet: Soft
StackLeniency: 0.3
Mode: 0
LetterboxInBreaks: 0
WidescreenStoryboard: 1

[Editor]
Bookmarks: 163,2409,19531,28112,36530
DistanceSpacing: 1.4
BeatDivisor: 4
GridSize: 32
TimelineZoom: 1.7

[Metadata]
Title:chase (TV Size)
TitleUnicode:chase (TV Size)
Artist:batta
ArtistUnicode:batta
Creator:Shiguma
Version:frogy's expert
Source:ジョジョの奇妙な冒険 ダイヤモンドは砕けない
Tags:JoJo's Bizarre Adventure Diamond is Unbreakable JoJo no Kimyou na Bouken Diamond wa Kudakenai opening 2 op 7 part 4 diamond is not crash Monarch frogyfro yaspo lewski Hailie DJ Lucky Cheri
BeatmapID:2251271
BeatmapSetID:671722

[Difficulty]
HPDrainRate:6
CircleSize:4
OverallDifficulty:8.7
ApproachRate:9.2
SliderMultiplier:0.799999999999999
SliderTickRate:1

[Events]
//Background and Video events
0,0,"diamond.jpg",0,0
//Break Periods
//Storyboard Layer 0 (Background)
//Storyboard Layer 1 (Fail)
//Storyboard Layer 2 (Pass)
//Storyboard Layer 3 (Foreground)
//Storyboard Layer 4 (Overlay)
//Storyboard Sound Samples

[TimingPoints]
163,550.45871559633,4,2,1,80,1,0
163,-80,4,2,1,80,0,0
254,250,4,2,1,80,1,0
254,-80,4,2,1,80,0,0
379,260.869565217391,4,2,1,80,1,0
379,-80,4,2,1,80,0,0
900,307.692307692308,4,2,1,80,1,0
900,-80,4,2,1,80,0,0
1053,250,4,2,1,80,1,0
1053,-80,4,2,1,80,0,0
1178,245.901639344262,4,2,1,80,1,0
1178,-80,4,2,1,80,0,0
1423,272.727272727273,4,2,1,80,1,0
1423,-80,4,2,1,80,0,0
1695,266.666666666667,4,2,1,80,1,0
1695,-80,4,2,1,80,0,0
1961,300,4,2,1,80,1,0
1961,-80,4,2,1,80,0,0
2261,297.029702970297,4,2,1,80,1,0
2261,-80,4,2,1,80,0,0
2409,263.157894736842,4,2,1,80,1,0
2409,-80,4,2,1,80,0,0
2935,247.933884297521,4,2,1,80,1,0
2935,-80,4,2,1,80,0,0
3182,279.06976744186,4,2,1,80,1,0
3182,-80,4,2,1,80,0,0
3461,259.74025974026,4,2,1,80,1,0
3461,-80,4,2,1,80,0,0
4499,264.31718061674,4,2,1,80,1,0
4499,-80,4,2,1,80,0,0
5291,281.69014084507,4,2,1,80,1,0
5291,-80,4,2,1,80,0,0
5572,266.666666666667,4,2,1,80,1,0
5572,-80,4,2,1,80,0,0
6105,263.157894736842,4,2,1,80,1,0
6105,-80,4,2,1,80,0,0
6368,269.058295964126,4,2,1,80,1,0
6368,-80,4,2,1,80,0,0
6637,267.857142857143,4,2,1,80,1,0
6637,-80,4,2,1,80,0,0
6904,267.857142857143,4,2,1,80,1,0
6904,-80,4,2,1,80,0,0
7439,297.029702970297,4,2,1,80,1,0
7439,-80,4,2,1,80,0,0
7736,265.486725663717,4,2,1,80,1,0
7736,-80,4,2,1,80,0,0
8001,270.27027027027,4,2,1,80,1,0
8001,-80,4,2,1,80,0,0
8271,256.410256410256,4,2,1,80,1,0
8271,-80,4,2,1,80,0,0
8527,270.27027027027,4,2,1,80,1,0
8527,-80,4,2,1,80,0,0
8797,266.666666666667,4,2,1,80,1,0
8797,-80,4,2,1,80,0,0
9730,307.692307692308,4,2,1,80,1,0
9730,-80,4,2,1,80,0,0
9883,262.008733624454,4,2,1,80,1,0
9883,-80,4,2,1,80,0,0
10407,270.27027027027,4,2,1,80,1,0
10407,-80,4,2,1,80,0,0
10947,275.229357798165,4,2,1,80,1,0
10947,-80,4,2,1,80,0,0
11497,256.410256410256,4,2,1,80,1,0
11497,-80,4,2,1,80,0,0
11753,283.018867924528,4,2,1,80,1,0
11753,-80,4,2,1,80,0,0
12036,258.620689655172,4,2,1,80,1,0
12036,-80,4,2,1,80,0,0
12553,270.27027027027,4,2,1,80,1,0
12553,-80,4,2,1,80,0,0
13093,270.27027027027,4,2,1,80,1,0
13093,-80,4,2,1,80,0,0
13633,258.620689655172,4,2,1,80,1,0
13633,-80,4,2,1,80,0,0
14020,260.869565217391,4,2,1,80,1,0
14020,-80,4,2,1,80,0,0
14150,260.869565217391,4,2,1,80,1,0
14150,-80,4,2,1,80,0,0
14932,283.018867924528,4,2,1,80,1,0
14932,-80,4,2,1,80,0,0
15215,267.857142857143,4,2,1,80,1,0
15215,-80,4,2,1,80,0,0
15750,272.727272727273,4,2,1,80,1,0
15750,-80,4,2,1,80,0,0
16022,268.456375838926,4,2,1,80,1,0
16022,-80,4,2,1,80,0,0
16290,275.229357798165,4,2,1,80,1,0
16290,-80,4,2,1,80,0,0
16565,267.857142857143,4,2,1,80,1,0
16565,-80,4,2,1,80,0,0
17368,279.06976744186,4,2,1,80,1,0
17368,-80,4,2,1,80,0,0
17647,260.869565217391,4,2,1,80,1,0
17647,-80,4,2,1,80,0,0
17907,275.229357798165,4,2,1,80,1,0
17907,-80,4,2,1,80,0,0
18457,265.486725663717,4,2,1,80,1,0
18457,-80,4,2,1,80,0,0
18722,258.620689655172,4,2,1,80,1,0
18722,-80,4,2,1,80,0,0
18980,307.692307692308,4,2,1,80,1,0
18980,-80,4,2,1,80,0,0
19133,265.486725663717,4,2,1,80,1,0
19133,-80,4,2,1,80,0,0
19531,263.157894736842,4,2,1,80,1,0
19531,-66.6666666666667,4,2,1,80,0,0
20583,272.727272727273,4,2,1,80,1,0
20583,-66.6666666666667,4,2,1,80,0,0
20855,272.727272727273,4,2,1,80,1,0
20855,-66.6666666666667,4,2,1,80,0,0
21127,263.157894736842,4,2,1,80,1,0
21127,-66.6666666666667,4,2,1,80,0,0
21390,260.869565217391,4,2,1,80,1,0
21390,-66.6666666666667,4,2,1,80,0,0
21650,285.714285714286,4,2,1,80,1,0
21650,-66.6666666666667,4,2,1,80,0,0
22221,260.869565217391,4,2,1,80,1,0
22221,-66.6666666666667,4,2,1,80,0,0
22481,271.493212669683,4,2,1,80,1,0
22481,-66.6666666666667,4,2,1,80,0,0
22752,258.620689655172,4,2,1,80,1,0
22752,-66.6666666666667,4,2,1,80,0,0
23010,265.486725663717,4,2,1,80,1,0
23010,-66.6666666666667,4,2,1,80,0,0
23540,274.599542334096,4,2,1,80,1,0
23540,-66.6666666666667,4,2,1,80,0,0
23814,263.157894736842,4,2,1,80,1,0
23814,-66.6666666666667,4,2,1,80,0,0
24866,270.27027027027,4,2,1,80,1,0
24866,-66.6666666666667,4,2,1,80,0,0
25676,266.666666666667,4,2,1,80,1,0
25676,-66.6666666666667,4,2,1,80,0,0
25942,279.06976744186,4,2,1,80,1,0
25942,-66.6666666666667,4,2,1,80,0,0
26221,273.972602739726,4,2,1,80,1,0
26221,-66.6666666666667,4,2,1,80,0,0
26494,265.486725663717,4,2,1,80,1,0
26494,-66.6666666666667,4,2,1,80,0,0
27024,266.666666666667,4,2,1,80,1,0
27024,-66.6666666666667,4,2,1,80,0,0
27557,277.777777777778,4,2,1,80,1,0
27557,-66.6666666666667,4,2,1,80,0,0
28112,269.058295964126,4,2,1,80,1,0
28112,-66.6666666666667,4,2,1,80,0,0
29188,254.237288135593,4,2,1,80,1,0
29188,-66.6666666666667,4,2,1,80,0,0
29442,265.486725663717,4,2,1,80,1,0
29442,-66.6666666666667,4,2,1,80,0,0
30238,265.486725663717,4,2,1,80,1,0
30238,-66.6666666666667,4,2,1,80,0,0
30503,267.857142857143,4,2,1,80,1,0
30503,-66.6666666666667,4,2,1,80,0,0
31306,273.972602739726,4,2,1,80,1,0
31306,-66.6666666666667,4,2,1,80,0,0
31579,271.493212669683,4,2,1,80,1,0
31579,-66.6666666666667,4,2,1,80,0,0
32121,260.869565217391,4,2,1,80,1,0
32121,-66.6666666666667,4,2,1,80,0,0
32381,270.27027027027,4,2,1,80,1,0
32381,-66.6666666666667,4,2,1,80,0,0
33191,266.075388026608,4,2,1,80,1,0
33191,-66.6666666666667,4,2,1,80,0,0
33457,265.486725663717,4,2,1,80,1,0
33457,-66.6666666666667,4,2,1,80,0,0
34518,269.058295964126,4,2,1,80,1,0
34518,-66.6666666666667,4,2,1,80,0,0
35056,266.666666666667,4,2,1,80,1,0
35056,-66.6666666666667,4,2,1,80,0,0
35589,269.058295964126,4,2,1,80,1,0
35589,-66.6666666666667,4,2,1,80,0,0
36530,279.06976744186,4,2,1,80,1,0
36530,-66.6666666666667,4,2,1,80,0,0
36809,266.666666666667,4,2,1,80,1,0
36809,-66.6666666666667,4,2,1,80,0,0
36942,275.229357798165,4,2,1,80,1,0
36942,-66.6666666666667,4,2,1,80,0,0
37217,263.157894736842,4,2,1,80,1,0
37217,-66.6666666666667,4,2,1,80,0,0
37611,283.018867924528,4,2,1,80,1,0
37611,-66.6666666666667,4,2,1,80,0,0
37894,258.620689655172,4,2,1,80,1,0
37894,-66.6666666666667,4,2,1,80,0,0
38023,260.869565217391,4,2,1,80,1,0
38023,-66.6666666666667,4,2,1,80,0,0
38675,288.461538461538,4,2,1,80,1,0
38675,-66.6666666666667,4,2,1,80,0,0
38963,226.415094339623,4,2,1,80,1,0
38963,-66.6666666666667,4,2,1,80,0,0
39076,283.018867924528,4,2,1,80,1,0
39076,-66.6666666666667,4,2,1,80,0,0
39359,259.74025974026,4,2,1,80,1,0
39359,-66.6666666666667,4,2,1,80,0,0
39748,281.69014084507,4,2,1,80,1,0
39748,-66.6666666666667,4,2,1,80,0,0
40029,230.769230769231,4,2,1,80,1,0
40029,-66.6666666666667,4,2,1,80,0,0
40144,275.229357798165,4,2,1,80,1,0
40144,-66.6666666666667,4,2,1,80,0,0
40419,260.869565217391,4,2,1,80,1,0
40419,-66.6666666666667,4,2,1,80,0,0
40810,280.373831775701,4,2,1,80,1,0
40810,-66.6666666666667,4,2,1,80,0,0
41090,260.869565217391,4,2,1,80,1,0
41090,-66.6666666666667,4,2,1,80,0,0
41220,292.682926829268,4,2,1,80,1,0
41220,-66.6666666666667,4,2,1,80,0,0
41512,258.620689655172,4,2,1,80,1,0
41512,-66.6666666666667,4,2,1,80,0,0
41770,250,4,2,1,80,1,0
41770,-66.6666666666667,4,2,1,80,0,0
41895,287.081339712919,4,2,1,80,1,0
41895,-66.6666666666667,4,2,1,80,0,0
42182,245.901639344262,4,2,1,80,1,0
42182,-66.6666666666667,4,2,1,80,0,0
42304,258.620689655172,4,2,1,80,1,0
42304,-66.6666666666667,4,2,1,80,0,0
42950,297.029702970297,4,2,1,80,1,0
42950,-66.6666666666667,4,2,1,80,0,0
43098,275.229357798165,4,2,1,80,1,0
43098,-66.6666666666667,4,2,1,80,0,0
43648,266.666666666667,4,2,1,80,1,0
43648,-66.6666666666667,4,2,1,80,0,0
44181,256.410256410256,4,2,1,80,1,0
44181,-400,4,2,1,80,0,0
44437,269.058295964126,4,2,1,80,1,0
44437,-400,4,2,1,80,0,0
44706,-400,4,2,1,80,0,0
45244,275.229357798165,4,2,1,80,1,1
45794,260.869565217391,4,2,1,80,1,1
46054,258.620689655172,4,2,1,80,1,1
46312,272.727272727273,4,2,1,80,1,1
46584,279.06976744186,4,2,1,80,1,1
46863,258.620689655172,4,2,1,80,1,1
47380,267.857142857143,4,2,1,80,1,1
48451,272.727272727273,4,2,1,80,1,1
49269,263.157894736842,4,2,1,80,1,1
49532,256.410256410256,4,2,1,80,1,1
50044,267.857142857143,4,2,1,80,1,1
50311,284.36018957346,4,2,1,80,1,1
50595,266.666666666667,4,2,1,80,1,1
51395,270.27027027027,4,2,1,80,1,1
51665,269.058295964126,4,2,1,80,1,1
52472,263.157894736842,4,2,1,80,1,1
52735,263.157894736842,4,2,1,80,1,1
53787,285.714285714286,4,2,1,80,1,1
54072,266.666666666667,4,2,1,80,1,1
54605,276.497695852535,4,2,1,80,1,1
54881,266.666666666667,4,2,1,80,1,1
55681,264.31718061674,4,2,1,80,1,1
55945,275.229357798165,4,2,1,80,1,1
56220,266.666666666667,4,2,1,80,1,1
57020,269.058295964126,4,2,1,80,1,1
57558,263.157894736842,4,2,1,80,1,1
57821,269.058295964126,4,2,1,80,1,1
58090,264.31718061674,4,2,1,80,1,1
58618,276.497695852535,4,2,1,80,1,1
59170,265.486725663717,4,2,1,80,1,1
60231,272.727272727273,4,2,1,80,1,0
61049,270.27027027027,4,2,1,80,1,0
61589,263.157894736842,4,2,1,80,1,0
62378,272.727272727273,4,2,1,80,1,0
62787,265.486725663717,4,2,1,80,1,0
63185,272.727272727273,4,2,1,80,1,0
63730,266.075388026608,4,2,1,80,1,0
64528,266.666666666667,4,2,1,80,1,0
65328,271.493212669683,4,2,1,80,1,0
65870,256.410256410256,4,2,1,80,1,0
66639,280.373831775701,4,2,1,70,1,0
67059,285.714285714286,4,2,1,80,1,0
67487,-133.333333333333,4,2,1,80,0,0

[Colours]
Combo1 : 134,173,206
Combo2 : 155,99,180
Combo3 : 214,112,112
Combo4 : 220,164,101

[HitObjects]
182,100,2409,6,0,L|175:150,1,49.9999999999999,6|0,0:0|0:0,0:0:0:0:
249,238,2672,1,8,0:0:0:0:
327,209,2803,1,0,0:0:0:0:
410,259,2935,1,2,0:0:0:0:
437,179,3058,2,0,L|510:169,1,49.9999999999999,2|8,0:0|0:0,0:0:0:0:
430,384,3321,2,0,L|398:330,1,49.9999999999999,6|0,0:0|0:0,0:0:0:0:
248,318,3590,1,2,0:0:0:0:
211,381,3720,2,0,L|149:373,1,49.9999999999999,8|0,0:0|0:0,0:0:0:0:
68,350,3980,5,2,0:0:0:0:
68,350,4110,1,2,0:0:0:0:
68,350,4240,1,8,0:0:0:0:
68,350,4370,2,0,L|79:289,1,49.9999999999999,0|6,0:0|0:0,0:0:0:0:
20,162,4631,5,0,0:0:0:0:
93,202,4763,2,0,L|149:176,1,49.9999999999999,8|2,0:0|0:0,0:0:0:0:
173,29,5027,1,2,0:0:0:0:
250,9,5159,2,0,L|251:78,1,49.9999999999999,2|8,0:0|0:0,0:0:0:0:
378,123,5431,1,6,0:0:0:0:
291,296,5705,2,0,L|222:320,1,49.9999999999999,2|8,0:0|0:0,0:0:0:0:
417,292,5972,1,0,0:0:0:0:
372,375,6105,2,0,L|494:361,1,99.9999999999999,2|8,0:0|0:0,0:0:0:0:
231,244,6502,5,0,0:0:0:0:
196,310,6637,2,0,L|240:333,1,49.9999999999999,6|0,0:0|0:0,0:0:0:0:
85,384,6904,1,8,0:0:0:0:
69,309,7037,1,2,0:0:0:0:
136,257,7171,1,2,0:0:0:0:
94,192,7305,2,0,L|117:131,1,49.9999999999999,2|8,0:0|0:0,0:0:0:0:
0,0,7587,2,0,L|17:67,1,49.9999999999999,6|0,0:0|0:0,0:0:0:0:
7,162,7868,1,2,0:0:0:0:
81,95,8001,2,0,L|139:106,1,49.9999999999999,8|0,0:0|0:0,0:0:0:0:
204,169,8271,5,2,0:0:0:0:
204,169,8399,1,2,0:0:0:0:
204,169,8527,1,8,0:0:0:0:
204,169,8662,1,0,0:0:0:0:
243,93,8797,6,0,L|253:32,1,49.9999999999999,6|0,0:0|0:0,0:0:0:0:
313,165,9063,2,0,L|266:207,1,49.9999999999999,8|2,0:0|0:0,0:0:0:0:
344,63,9330,1,2,0:0:0:0:
386,128,9463,2,0,L|446:121,1,49.9999999999999,2|8,0:0|0:0,0:0:0:0:
502,210,9730,1,6,0:0:0:0:
326,358,10014,5,2,0:0:0:0:
293,283,10145,1,12,0:0:0:0:
442,384,10276,1,8,0:0:0:0:
485,318,10407,1,6,0:0:0:0:
135,384,10677,2,0,L|49:366,1,74.9999999999999,12|0,0:0|0:0,0:0:0:0:
188,337,10947,6,0,L|245:325,1,49.9999999999999,6|0,0:0|0:0,0:0:0:0:
367,384,11222,1,8,0:0:0:0:
435,354,11359,1,2,0:0:0:0:
438,277,11497,1,2,0:0:0:0:
512,298,11625,2,0,L|521:365,1,49.9999999999999,2|8,0:0|0:0,0:0:0:0:
470,188,11894,2,0,L|484:130,1,49.9999999999999,6|0,0:0|0:0,0:0:0:0:
495,7,12165,1,2,0:0:0:0:
439,61,12294,2,0,L|377:45,1,49.9999999999999,8|0,0:0|0:0,0:0:0:0:
318,91,12553,5,2,0:0:0:0:
318,91,12688,1,2,0:0:0:0:
318,91,12823,1,8,0:0:0:0:
318,91,12958,2,0,L|327:27,1,49.9999999999999,0|6,0:0|0:0,0:0:0:0:
158,32,13228,5,0,0:0:0:0:
198,105,13363,2,0,L|172:161,1,49.9999999999999,8|2,0:0|0:0,0:0:0:0:
20,189,13633,1,2,0:0:0:0:
0,266,13762,2,0,L|69:267,1,49.9999999999999,2|8,0:0|0:0,0:0:0:0:
137,384,14020,1,6,0:0:0:0:
477,240,14280,5,2,0:0:0:0:
399,207,14410,1,8,0:0:0:0:
463,344,14541,1,8,0:0:0:0:
379,370,14671,1,2,0:0:0:0:
464,36,14932,2,0,L|518:-6,1,49.9999999999999,8|0,0:0|0:0,0:0:0:0:
278,55,15215,6,0,L|223:45,1,49.9999999999999,6|0,0:0|0:0,0:0:0:0:
106,0,15482,1,8,0:0:0:0:
116,78,15616,1,2,0:0:0:0:
61,143,15750,1,2,0:0:0:0:
141,174,15886,2,0,L|213:160,1,49.9999999999999,2|8,0:0|0:0,0:0:0:0:
71,338,16156,2,0,L|13:315,1,49.9999999999999,6|0,0:0|0:0,0:0:0:0:
167,375,16427,1,2,0:0:0:0:
203,305,16565,2,0,L|264:300,1,49.9999999999999,8|0,0:0|0:0,0:0:0:0:
335,370,16832,5,2,0:0:0:0:
335,370,16966,1,2,0:0:0:0:
335,370,17100,1,8,0:0:0:0:
335,370,17234,1,0,0:0:0:0:
409,318,17368,2,0,L|460:338,1,49.9999999999999,6|2,0:0|0:0,0:0:0:0:
285,79,17647,6,0,L|291:14,1,49.9999999999999,12|8,0:0|0:0,0:0:0:0:
153,335,17907,6,0,L|161:400,1,49.9999999999999,12|0,0:0|0:0,0:0:0:0:
24,135,18182,5,4,0:0:0:0:
243,252,18319,2,0,L|293:245,1,49.9999999999999,8|12,0:0|0:0,0:0:0:0:
64,342,18589,5,8,0:0:0:0:
130,197,18722,1,12,0:0:0:0:
25,56,18851,1,8,0:0:0:0:
41,140,18980,1,12,0:0:0:0:
223,80,19133,1,8,0:0:0:0:
327,221,19265,1,12,0:0:0:0:
497,205,19398,1,8,0:0:0:0:
431,299,19531,6,0,L|454:373,1,60.0000022888184,6|0,0:0|0:0,0:0:0:0:
357,256,19794,2,0,L|343:324,1,60.0000022888184,8|0,0:0|0:0,0:0:0:0:
257,305,20057,2,0,L|255:387,1,60.0000022888184,2|2,0:0|0:0,0:0:0:0:
223,183,20320,2,0,L|198:247,1,60.0000022888184,8|0,0:0|0:0,0:0:0:0:
90,147,20583,1,0,0:0:0:0:
161,106,20719,1,2,0:0:0:0:
55,68,20855,2,0,L|31:-12,1,60.0000022888184,8|0,0:0|0:0,0:0:0:0:
209,53,21127,2,0,L|338:-12,1,120.000004577637,2|8,0:0|0:0,0:0:0:0:
512,0,21520,5,0,0:0:0:0:
458,82,21650,2,0,L|468:2,1,60.0000022888184,6|0,0:0|0:0,0:0:0:0:
383,61,21935,2,0,L|370:-5,1,60.0000022888184,8|0,0:0|0:0,0:0:0:0:
290,122,22221,2,0,L|308:45,1,60.0000022888184,0|0,0:0|0:0,0:0:0:0:
129,126,22481,1,8,0:0:0:0:
197,98,22616,1,0,0:0:0:0:
113,43,22752,2,0,L|139:103,1,60.0000022888184,2|2,0:0|0:0,0:0:0:0:
155,301,23010,2,0,L|128:377,1,60.0000022888184,8|0,0:0|0:0,0:0:0:0:
262,255,23275,2,0,L|258:185,1,60.0000022888184,2|2,0:0|0:0,0:0:0:0:
359,1,23540,2,0,L|405:124,1,120.000004577637,8|6,0:0|0:0,0:0:0:0:
186,9,23945,5,0,0:0:0:0:
110,34,24077,2,0,L|45:17,1,60.0000022888184,8|0,0:0|0:0,0:0:0:0:
162,97,24340,2,0,L|79:110,1,60.0000022888184,0|2,0:0|0:0,0:0:0:0:
120,188,24603,2,0,L|40:185,1,60.0000022888184,8|0,0:0|0:0,0:0:0:0:
272,384,24866,2,0,L|342:377,1,60.0000022888184,2|2,0:0|0:0,0:0:0:0:
233,297,25136,2,0,L|305:315,1,60.0000022888184,8|0,0:0|0:0,0:0:0:0:
291,220,25406,2,0,L|363:201,1,60.0000022888184,0|0,0:0|0:0,0:0:0:0:
238,161,25676,2,0,L|196:100,1,60.0000022888184,8|0,0:0|0:0,0:0:0:0:
346,245,25942,6,0,L|338:321,1,60.0000022888184,6|0,0:0|0:0,0:0:0:0:
446,216,26221,2,0,L|453:139,1,60.0000022888184,8|2,0:0|0:0,0:0:0:0:
353,250,26494,6,0,L|345:326,1,60.0000022888184,2|2,0:0|0:0,0:0:0:0:
454,221,26759,2,0,L|461:144,1,60.0000022888184,8|0,0:0|0:0,0:0:0:0:
346,245,27024,6,0,L|338:321,1,60.0000022888184,2|2,0:0|0:0,0:0:0:0:
446,216,27290,1,8,0:0:0:0:
435,123,27424,1,8,0:0:0:0:
353,250,27557,6,0,L|345:326,1,60.0000022888184,0|2,0:0|0:0,0:0:0:0:
454,221,27834,2,0,L|461:144,1,60.0000022888184,8|0,0:0|0:0,0:0:0:0:
268,30,28112,6,0,L|350:15,1,60.0000022888184,6|2,0:0|0:0,0:0:0:0:
211,120,28381,1,8,0:0:0:0:
171,36,28515,2,0,L|113:18,1,60.0000022888184,2|0,0:0|0:0,0:0:0:0:
18,57,28784,2,0,L|-3:-14,1,60.0000022888184,2|8,0:0|0:0,0:0:0:0:
0,190,29053,1,2,0:0:0:0:
50,256,29188,2,0,L|38:331,1,60.0000022888184,2|2,0:0|0:0,0:0:0:0:
88,179,29442,2,0,L|64:119,1,60.0000022888184,8|0,0:0|0:0,0:0:0:0:
174,202,29707,5,2,0:0:0:0:
174,202,29840,1,2,0:0:0:0:
174,202,29973,1,8,0:0:0:0:
174,202,30105,2,0,L|158:271,1,60.0000022888184,8|6,0:0|0:0,0:0:0:0:
251,357,30370,5,2,0:0:0:0:
328,284,30503,2,0,L|409:308,1,60.0000022888184,8|0,0:0|0:0,0:0:0:0:
479,369,30770,1,2,0:0:0:0:
408,222,30904,2,0,L|396:153,1,60.0000022888184,2|8,0:0|0:0,0:0:0:0:
377,384,31172,1,0,0:0:0:0:
511,36,31442,1,2,0:0:0:0:
450,82,31579,2,0,L|390:30,1,60.0000022888184,8|0,0:0|0:0,0:0:0:0:
205,26,31850,2,0,L|281:22,1,60.0000022888184,2|2,0:0|0:0,0:0:0:0:
147,98,32121,2,0,L|269:126,1,120.000004577637,8|6,0:0|0:0,0:0:0:0:
64,4,32516,5,2,0:0:0:0:
1,51,32651,2,0,L|19:116,1,60.0000022888184,8|0,0:0|0:0,0:0:0:0:
145,231,32921,1,2,0:0:0:0:
57,204,33056,2,0,L|93:140,1,60.0000022888184,2|8,0:0|0:0,0:0:0:0:
57,292,33324,2,0,L|-13:312,1,60.0000022888184,0|2,0:0|0:0,0:0:0:0:
210,371,33589,1,2,0:0:0:0:
277,306,33722,2,0,L|354:318,1,60.0000022888184,8|0,0:0|0:0,0:0:0:0:
397,265,33987,5,2,0:0:0:0:
397,265,34120,1,2,0:0:0:0:
397,265,34253,1,8,0:0:0:0:
397,265,34386,1,0,0:0:0:0:
484,188,34518,6,0,L|503:129,1,60.0000022888184,6|0,0:0|0:0,0:0:0:0:
393,111,34787,2,0,L|404:180,1,60.0000022888184,8|0,0:0|0:0,0:0:0:0:
295,215,35056,2,0,L|328:140,1,60.0000022888184,2|2,0:0|0:0,0:0:0:0:
215,90,35322,2,0,L|247:164,1,60.0000022888184,8|0,0:0|0:0,0:0:0:0:
118,80,35589,1,2,0:0:0:0:
133,0,35723,1,0,0:0:0:0:
28,184,35858,5,12,0:0:0:0:
90,341,35992,1,8,0:0:0:0:
261,297,36127,1,12,0:0:0:0:
211,228,36261,1,8,0:0:0:0:
209,384,36396,1,8,0:0:0:0:
282,183,36530,6,0,L|361:199,1,60.0000022888184,6|0,0:0|0:0,0:0:0:0:
392,266,36809,1,0,0:0:0:0:
353,101,36942,1,8,0:0:0:0:
286,66,37217,5,2,0:0:0:0:
275,60,37348,1,2,0:0:0:0:
269,45,37480,1,8,0:0:0:0:
503,84,37611,6,0,L|426:74,1,60.0000022888184,6|0,0:0|0:0,0:0:0:0:
390,12,37894,1,0,0:0:0:0:
345,191,38023,1,8,0:0:0:0:
316,266,38283,5,2,0:0:0:0:
330,281,38414,1,2,0:0:0:0:
346,287,38544,1,8,0:0:0:0:
433,231,38675,6,0,L|445:158,1,60.0000022888184,6|0,0:0|0:0,0:0:0:0:
512,127,38963,1,0,0:0:0:0:
321,143,39076,1,8,0:0:0:0:
362,207,39359,5,2,0:0:0:0:
376,221,39488,1,2,0:0:0:0:
382,241,39618,1,8,0:0:0:0:
220,140,39748,6,0,L|232:67,1,60.0000022888184,6|0,0:0|0:0,0:0:0:0:
299,36,40029,1,0,0:0:0:0:
108,52,40144,1,8,0:0:0:0:
149,116,40419,5,2,0:0:0:0:
163,130,40549,1,2,0:0:0:0:
169,150,40679,1,8,0:0:0:0:
0,76,40810,6,0,L|85:69,1,60.0000022888184,6|0,0:0|0:0,0:0:0:0:
90,0,41090,1,0,0:0:0:0:
69,208,41220,1,8,0:0:0:0:
15,263,41512,5,2,0:0:0:0:
8,279,41641,1,2,0:0:0:0:
17,293,41770,1,8,0:0:0:0:
142,176,41895,6,0,L|227:183,1,60.0000022888184,6|0,0:0|0:0,0:0:0:0:
232,252,42182,1,0,0:0:0:0:
211,44,42304,1,8,0:0:0:0:
280,7,42562,5,2,0:0:0:0:
292,0,42691,1,2,0:0:0:0:
306,0,42821,1,8,0:0:0:0:
183,113,42950,1,2,0:0:0:0:
53,47,43098,6,0,L|16:0,1,60.0000022888184,12|0,0:0|0:0,0:0:0:0:
18,315,43373,6,0,L|13:382,1,60.0000022888184,12|8,0:0|0:0,0:0:0:0:
456,321,43648,6,0,L|507:389,1,60.0000022888184,12|8,0:0|0:0,0:0:0:0:
465,49,43914,6,0,L|507:-12,1,60.0000022888184,12|8,0:0|0:0,0:0:0:0:
101,30,44181,6,0,L|79:22,1,20,4|0,0:0|0:0,0:0:0:0:
87,7,44706,2,0,L|65:-1,1,20,0|0,0:0|0:0,0:0:0:0:
184,1,45244,6,0,L|140:20,1,40,6|0,0:0|0:0,0:0:0:0:
212,83,45519,1,8,0:0:0:0:
352,129,45656,1,2,0:0:0:0:
472,15,45794,5,2,0:0:0:0:
451,217,45924,1,2,0:0:0:0:
310,314,46054,2,0,L|363:386,1,79.9999999999999,8|6,0:0|0:0,0:0:0:0:
351,198,46448,1,0,0:0:0:0:
296,145,46584,2,0,L|310:102,1,40,8|2,0:0|0:0,0:0:0:0:
199,250,46863,2,0,L|203:308,1,40,2|2,0:0|0:0,0:0:0:0:
58,183,47121,2,0,L|39:130,1,40,8|0,0:0|0:0,0:0:0:0:
37,349,47380,6,0,L|14:392,1,40,6|0,0:0|0:0,0:0:0:0:
167,318,47647,1,8,0:0:0:0:
66,238,47781,1,2,0:0:0:0:
67,35,47915,5,2,0:0:0:0:
245,149,48049,1,2,0:0:0:0:
389,77,48183,2,0,L|411:-15,1,79.9999999999999,8|6,0:0|0:0,0:0:0:0:
456,190,48587,1,0,0:0:0:0:
400,259,48723,2,0,L|408:312,1,40,8|2,0:0|0:0,0:0:0:0:
332,167,48996,2,0,L|351:121,1,40,2|2,0:0|0:0,0:0:0:0:
251,310,49269,2,0,L|254:364,1,40,8|0,0:0|0:0,0:0:0:0:
197,94,49532,6,0,L|157:81,1,40,6|0,0:0|0:0,0:0:0:0:
237,14,49788,1,8,0:0:0:0:
312,67,49916,1,2,0:0:0:0:
277,255,50044,5,2,0:0:0:0:
465,307,50177,1,2,0:0:0:0:
505,175,50311,2,0,L|487:96,1,79.9999999999999,8|6,0:0|0:0,0:0:0:0:
401,249,50728,1,0,0:0:0:0:
451,311,50861,2,0,L|435:360,1,40,8|2,0:0|0:0,0:0:0:0:
367,158,51128,1,2,0:0:0:0:
293,198,51261,1,2,0:0:0:0:
446,186,51395,2,0,L|463:133,1,40,8|0,0:0|0:0,0:0:0:0:
324,294,51665,2,0,L|336:344,1,40,6|0,0:0|0:0,0:0:0:0:
210,197,51934,2,0,L|127:183,1,79.9999999999999,8|2,0:0|0:0,0:0:0:0:
10,326,52337,5,2,0:0:0:0:
34,250,52472,2,0,L|81:246,1,40,12|0,0:0|0:0,0:0:0:0:
262,356,52735,2,0,L|311:343,1,40,6|2,0:0|0:0,0:0:0:0:
433,206,52998,1,12,0:0:0:0:
512,384,53129,1,10,0:0:0:0:
463,316,53261,2,0,L|441:355,1,40,6|2,0:0|0:0,0:0:0:0:
324,252,53524,2,0,L|323:296,1,40,12|0,0:0|0:0,0:0:0:0:
7,292,53787,6,0,L|11:347,1,40,6|0,0:0|0:0,0:0:0:0:
119,218,54072,1,8,0:0:0:0:
63,88,54205,1,2,0:0:0:0:
303,1,54338,5,2,0:0:0:0:
258,187,54472,1,2,0:0:0:0:
432,271,54605,2,0,L|524:274,1,79.9999999999999,8|6,0:0|0:0,0:0:0:0:
306,318,55014,1,0,0:0:0:0:
352,384,55147,2,0,L|394:365,1,40,8|2,0:0|0:0,0:0:0:0:
219,300,55414,2,0,L|176:321,1,40,2|2,0:0|0:0,0:0:0:0:
309,173,55681,2,0,L|364:182,1,40,8|0,0:0|0:0,0:0:0:0:
197,44,55945,6,0,L|180:-5,1,40,6|0,0:0|0:0,0:0:0:0:
284,53,56220,1,8,0:0:0:0:
330,190,56353,1,2,0:0:0:0:
109,299,56486,5,2,0:0:0:0:
148,89,56620,1,2,0:0:0:0:
11,2,56753,2,0,L|20:87,1,79.9999999999999,8|6,0:0|0:0,0:0:0:0:
154,213,57154,1,0,0:0:0:0:
198,147,57289,2,0,L|244:146,1,40,8|0,0:0|0:0,0:0:0:0:
111,194,57558,1,2,0:0:0:0:
116,275,57689,1,2,0:0:0:0:
37,152,57821,2,0,L|-13:134,1,40,8|0,0:0|0:0,0:0:0:0:
69,0,58090,2,0,L|111:83,1,79.9999999999999,6|8,0:0|0:0,0:0:0:0:
352,98,58486,1,0,0:0:0:0:
295,44,58618,2,0,L|307:-8,1,40,2|2,0:0|0:0,0:0:0:0:
463,23,58894,2,0,L|422:43,1,40,8|0,0:0|0:0,0:0:0:0:
497,172,59170,2,0,L|515:268,1,79.9999999999999,6|12,0:0|0:0,0:0:0:0:
294,350,59568,5,8,0:0:0:0:
153,272,59700,1,12,0:0:0:0:
3,359,59833,1,8,0:0:0:0:
128,354,59966,1,12,0:0:0:0:
153,272,60099,1,8,0:0:0:0:
145,263,60231,6,0,L|66:228,1,79.9999999999999,6|0,0:0|0:0,0:0:0:0:
363,350,60640,2,0,L|452:340,1,79.9999999999999,12|0,0:0|0:0,0:0:0:0:
102,331,61049,2,0,B|2:388|2:388|13:343,1,160,6|0,0:0|0:0,0:0:0:0:
189,365,61852,5,8,0:0:0:0:
155,203,61984,1,8,0:0:0:0:
223,26,62115,1,8,0:0:0:0:
409,175,62378,6,0,L|498:195,1,79.9999999999999,6|0,0:0|0:0,0:0:0:0:
227,119,62787,2,0,L|145:152,1,79.9999999999999,12|0,0:0|0:0,0:0:0:0:
386,77,63185,2,0,B|469:41|469:41|401:-8,1,160,6|0,0:0|0:0,0:0:0:0:
344,338,63996,6,0,L|339:365,4,20,8|8|8|8|8,0:0|0:0|0:0|0:0|0:0,0:0:0:0:
341,358,64528,6,0,L|433:341,1,79.9999999999999,6|0,0:0|0:0,0:0:0:0:
183,287,64928,2,0,L|96:265,1,79.9999999999999,12|0,0:0|0:0,0:0:0:0:
409,96,65328,2,0,B|466:23|466:23|476:102,1,160,6|0,0:0|0:0,0:0:0:0:
163,3,66126,5,8,0:0:0:0:
261,144,66254,2,0,L|341:137,1,79.9999999999999,2|8,0:0|0:0,0:0:0:0:
252,129,66639,6,0,L|183:78,1,79.9999999999999,6|0,0:0|0:0,0:0:0:0:
308,254,67059,2,0,L|320:341,1,79.9999999999999,12|0,0:0|0:0,0:0:0:0:
387,33,67487,2,0,B|492:26|492:26|407:271,2,360.00001373291,12|0|0,0:0|0:0|0:0,0:0:0:0:
