osu file format v14

[General]
AudioFilename: audio.mp3
AudioLeadIn: 0
PreviewTime: -1
Countdown: 0
SampleSet: None
StackLeniency: 0.7
Mode: 3
LetterboxInBreaks: 0
SpecialStyle: 0
WidescreenStoryboard: 1

[Editor]
DistanceSpacing: 0.8
BeatDivisor: 6
GridSize: 32
TimelineZoom: 2.899999

[Metadata]
Title:Second fall
TitleUnicode:Second fall
Artist:banshi
ArtistUnicode:banshi
Creator:Alsty-
Version:Equinox
Source:
Tags:
BeatmapID:2811692
BeatmapSetID:491602

[Difficulty]
HPDrainRate:8
CircleSize:7
OverallDifficulty:7
ApproachRate:5
SliderMultiplier:1.4
SliderTickRate:1

[Events]
//Background and Video events
0,0,"anime_series_girl_beautiful_cute_Vocaloid_piano_Hatsune_Miku_1366x768.jpg",0,0
//Break Periods
//Storyboard Layer 0 (Background)
//Storyboard Layer 1 (Fail)
//Storyboard Layer 2 (Pass)
//Storyboard Layer 3 (Foreground)
//Storyboard Layer 4 (Overlay)
//Storyboard Sound Samples

[TimingPoints]
1965,312.5,4,1,0,12,1,0

[HitObjects]
36,192,1965,128,0,2590:0:0:0:0:
109,192,1965,128,0,2590:0:0:0:0:
402,192,2590,128,0,2746:0:0:0:0:
475,192,2590,128,0,2902:0:0:0:0:
182,192,2590,128,0,2902:0:0:0:0:
329,192,2746,128,0,3058:0:0:0:0:
36,192,2902,128,0,3215:0:0:0:0:
256,192,3058,128,0,3371:0:0:0:0:
402,192,3215,128,0,3527:0:0:0:0:
475,192,3215,128,0,3527:0:0:0:0:
182,192,3371,128,0,3527:0:0:0:0:
329,192,3527,128,0,3683:0:0:0:0:
36,192,3527,128,0,3683:0:0:0:0:
109,192,3683,128,0,3840:0:0:0:0:
402,192,3683,128,0,3840:0:0:0:0:
256,192,3840,128,0,3996:0:0:0:0:
182,192,3840,128,0,3996:0:0:0:0:
475,192,3840,128,0,4308:0:0:0:0:
109,192,3996,128,0,4152:0:0:0:0:
329,192,4152,128,0,4465:0:0:0:0:
36,192,4152,128,0,4465:0:0:0:0:
182,192,4465,128,0,4777:0:0:0:0:
402,192,4465,128,0,4777:0:0:0:0:
109,192,4621,128,0,4777:0:0:0:0:
256,192,4777,128,0,4933:0:0:0:0:
475,192,4933,128,0,5090:0:0:0:0:
182,192,4933,128,0,5090:0:0:0:0:
402,192,5011,128,0,5168:0:0:0:0:
109,192,5011,128,0,5168:0:0:0:0:
36,192,5090,128,0,5246:0:0:0:0:
329,192,5090,128,0,5246:0:0:0:0:
256,192,5246,128,0,5558:0:0:0:0:
475,192,5402,128,0,5558:0:0:0:0:
36,192,5558,128,0,5793:0:0:0:0:
109,192,5558,128,0,5793:0:0:0:0:
329,192,5715,128,0,6027:0:0:0:0:
475,192,5715,128,0,6027:0:0:0:0:
36,192,5871,128,0,6027:0:0:0:0:
109,192,5871,128,0,6027:0:0:0:0:
182,192,6027,128,0,6183:0:0:0:0:
256,192,6027,128,0,6183:0:0:0:0:
402,192,6183,128,0,6340:0:0:0:0:
329,192,6183,128,0,6340:0:0:0:0:
109,192,6340,128,0,6496:0:0:0:0:
36,192,6340,128,0,6496:0:0:0:0:
475,192,6340,128,0,6652:0:0:0:0:
182,192,6496,128,0,6808:0:0:0:0:
256,192,6652,128,0,6965:0:0:0:0:
329,192,6808,128,0,6965:0:0:0:0:
36,192,6965,128,0,7199:0:0:0:0:
182,192,6965,128,0,7199:0:0:0:0:
402,192,6965,128,0,7277:0:0:0:0:
182,192,7277,128,0,7590:0:0:0:0:
36,192,7277,128,0,7433:0:0:0:0:
256,192,7433,128,0,7590:0:0:0:0:
109,192,7590,128,0,7746:0:0:0:0:
475,192,7590,128,0,7902:0:0:0:0:
36,192,7746,128,0,8058:0:0:0:0:
182,192,7902,128,0,8215:0:0:0:0:
329,192,8058,128,0,8371:0:0:0:0:
475,192,8215,128,0,8527:0:0:0:0:
109,192,8215,128,0,8527:0:0:0:0:
256,192,8371,128,0,8527:0:0:0:0:
182,192,8527,128,0,8683:0:0:0:0:
36,192,8683,128,0,8840:0:0:0:0:
329,192,8683,128,0,8840:0:0:0:0:
256,192,8683,128,0,8840:0:0:0:0:
109,192,8840,128,0,8996:0:0:0:0:
402,192,8840,128,0,8996:0:0:0:0:
475,192,8840,128,0,9152:0:0:0:0:
329,192,8996,128,0,9308:0:0:0:0:
256,192,9152,128,0,9308:0:0:0:0:
36,192,9152,128,0,9308:0:0:0:0:
182,192,9308,128,0,9465:0:0:0:0:
109,192,9465,128,0,9621:0:0:0:0:
475,192,9465,128,0,9777:0:0:0:0:
402,192,9465,128,0,9777:0:0:0:0:
256,192,9621,128,0,9777:0:0:0:0:
182,192,9777,128,0,9933:0:0:0:0:
36,192,9777,128,0,9933:0:0:0:0:
182,192,10090,128,0,10246:0:0:0:0:
36,192,10090,128,0,10246:0:0:0:0:
402,192,10090,128,0,10402:0:0:0:0:
475,192,10090,128,0,10402:0:0:0:0:
329,192,10246,128,0,10402:0:0:0:0:
109,192,10402,128,0,10558:0:0:0:0:
256,192,10402,128,0,10558:0:0:0:0:
182,192,10558,128,0,10715:0:0:0:0:
36,192,10558,128,0,10715:0:0:0:0:
256,192,10715,128,0,10871:0:0:0:0:
402,192,10715,128,0,10871:0:0:0:0:
329,192,10871,128,0,11027:0:0:0:0:
475,192,10871,128,0,11027:0:0:0:0:
36,192,11027,128,0,11340:0:0:0:0:
182,192,11027,128,0,11183:0:0:0:0:
109,192,11183,128,0,11340:0:0:0:0:
256,192,11340,128,0,11652:0:0:0:0:
475,192,11340,128,0,11652:0:0:0:0:
402,192,11340,128,0,11496:0:0:0:0:
182,192,11496,128,0,11652:0:0:0:0:
36,192,11496,128,0,11808:0:0:0:0:
329,192,11652,128,0,11965:0:0:0:0:
402,192,11808,128,0,11965:0:0:0:0:
109,192,11808,128,0,12121:0:0:0:0:
182,192,11965,128,0,12277:0:0:0:0:
475,192,12121,128,0,12433:0:0:0:0:
109,192,12277,128,0,12433:0:0:0:0:
36,192,12277,128,0,12433:0:0:0:0:
256,192,12433,128,0,12746:0:0:0:0:
329,192,12433,128,0,12590:0:0:0:0:
402,192,12590,128,0,12746:0:0:0:0:
475,192,12590,128,0,12746:0:0:0:0:
182,192,12746,128,0,12902:0:0:0:0:
36,192,12746,128,0,12902:0:0:0:0:
109,192,12902,128,0,13058:0:0:0:0:
256,192,12902,128,0,13058:0:0:0:0:
182,192,13058,128,0,13215:0:0:0:0:
329,192,13058,128,0,13215:0:0:0:0:
256,192,13215,128,0,13371:0:0:0:0:
402,192,13215,128,0,13371:0:0:0:0:
475,192,13215,128,0,13527:0:0:0:0:
36,192,13371,128,0,13527:0:0:0:0:
182,192,13371,128,0,13527:0:0:0:0:
109,192,13527,128,0,13683:0:0:0:0:
256,192,13527,128,0,13683:0:0:0:0:
182,192,13683,128,0,13840:0:0:0:0:
329,192,13683,128,0,13840:0:0:0:0:
256,192,13840,128,0,13996:0:0:0:0:
475,192,13840,128,0,14152:0:0:0:0:
402,192,13996,128,0,14152:0:0:0:0:
329,192,14152,128,0,14308:0:0:0:0:
182,192,14152,128,0,14308:0:0:0:0:
36,192,14152,128,0,14465:0:0:0:0:
109,192,14308,128,0,14465:0:0:0:0:
475,192,14465,128,0,14777:0:0:0:0:
256,192,14465,128,0,14621:0:0:0:0:
402,192,14465,128,0,14777:0:0:0:0:
182,192,14621,128,0,14777:0:0:0:0:
256,192,14777,128,0,14933:0:0:0:0:
36,192,14933,128,0,15090:0:0:0:0:
329,192,14933,128,0,15090:0:0:0:0:
475,192,15011,128,0,15246:0:0:0:0:
182,192,15011,128,0,15246:0:0:0:0:
402,192,15090,128,0,15246:0:0:0:0:
109,192,15090,128,0,15246:0:0:0:0:
256,192,15246,128,0,15402:0:0:0:0:
36,192,15402,128,0,15558:0:0:0:0:
329,192,15402,128,0,15558:0:0:0:0:
256,192,15558,128,0,15715:0:0:0:0:
109,192,15558,128,0,15715:0:0:0:0:
182,192,15715,128,0,15871:0:0:0:0:
402,192,15715,128,0,15871:0:0:0:0:
329,192,15871,128,0,16027:0:0:0:0:
475,192,15871,128,0,16183:0:0:0:0:
256,192,16027,128,0,16183:0:0:0:0:
182,192,16183,128,0,16340:0:0:0:0:
36,192,16183,128,0,16340:0:0:0:0:
109,192,16340,128,0,16496:0:0:0:0:
329,192,16340,128,0,16496:0:0:0:0:
402,192,16340,128,0,16652:0:0:0:0:
256,192,16496,128,0,16652:0:0:0:0:
182,192,16652,128,0,16808:0:0:0:0:
36,192,16808,128,0,16965:0:0:0:0:
329,192,16808,128,0,16965:0:0:0:0:
109,192,16965,128,0,17121:0:0:0:0:
402,192,16965,128,0,17121:0:0:0:0:
475,192,16965,128,0,17277:0:0:0:0:
36,192,17277,128,0,17590:0:0:0:0:
329,192,17277,128,0,17433:0:0:0:0:
402,192,17433,128,0,17590:0:0:0:0:
475,192,17590,128,0,17746:0:0:0:0:
256,192,17590,128,0,17746:0:0:0:0:
109,192,17590,128,0,17902:0:0:0:0:
182,192,17746,128,0,18058:0:0:0:0:
329,192,17902,128,0,18215:0:0:0:0:
475,192,18058,128,0,18371:0:0:0:0:
256,192,18215,128,0,18527:0:0:0:0:
36,192,18215,128,0,18527:0:0:0:0:
329,192,18527,128,0,18683:0:0:0:0:
182,192,18527,128,0,18683:0:0:0:0:
109,192,18683,128,0,18840:0:0:0:0:
402,192,18683,128,0,18840:0:0:0:0:
256,192,18840,128,0,18996:0:0:0:0:
475,192,18840,128,0,18996:0:0:0:0:
36,192,18840,128,0,18996:0:0:0:0:
182,192,18996,128,0,19308:0:0:0:0:
402,192,19152,128,0,19308:0:0:0:0:
329,192,19152,128,0,19308:0:0:0:0:
256,192,19308,128,0,19465:0:0:0:0:
109,192,19465,128,0,19621:0:0:0:0:
36,192,19465,128,0,19621:0:0:0:0:
475,192,19465,128,0,19777:0:0:0:0:
329,192,19621,128,0,19777:0:0:0:0:
402,192,19621,128,0,19777:0:0:0:0:
182,192,19777,128,0,19933:0:0:0:0:
256,192,19777,128,0,19933:0:0:0:0:
36,192,19933,128,0,20246:0:0:0:0:
109,192,19933,128,0,20246:0:0:0:0:
329,192,20090,128,0,20402:0:0:0:0:
402,192,20090,128,0,20402:0:0:0:0:
475,192,20090,128,0,20402:0:0:0:0:
182,192,20402,128,0,20558:0:0:0:0:
36,192,20402,128,0,20558:0:0:0:0:
256,192,20558,128,0,20715:0:0:0:0:
475,192,20558,128,0,20871:0:0:0:0:
109,192,20715,128,0,21808:0:0:0:0:
402,192,20715,128,0,21808:0:0:0:0:
182,192,21965,128,0,22199:0:0:0:0:
329,192,21965,128,0,22199:0:0:0:0:
475,192,21965,128,0,22199:0:0:0:0:
109,192,22277,128,0,22511:0:0:0:0:
256,192,22277,128,0,22511:0:0:0:0:
402,192,22277,128,0,22511:0:0:0:0:
329,192,22590,128,0,22746:0:0:0:0:
182,192,22590,128,0,22746:0:0:0:0:
36,192,22590,128,0,22902:0:0:0:0:
475,192,22746,128,0,22902:0:0:0:0:
109,192,22902,128,0,23058:0:0:0:0:
256,192,22902,128,0,23058:0:0:0:0:
182,192,23058,128,0,23215:0:0:0:0:
329,192,23058,128,0,23215:0:0:0:0:
256,192,23215,128,0,23371:0:0:0:0:
475,192,23215,128,0,23371:0:0:0:0:
36,192,23215,128,0,23371:0:0:0:0:
402,192,23371,128,0,23683:0:0:0:0:
182,192,23371,128,0,23527:0:0:0:0:
109,192,23527,128,0,23840:0:0:0:0:
329,192,23683,128,0,23840:0:0:0:0:
475,192,23840,128,0,24152:0:0:0:0:
256,192,23840,128,0,23996:0:0:0:0:
182,192,23996,128,0,24152:0:0:0:0:
109,192,24152,128,0,24308:0:0:0:0:
329,192,24308,128,0,24465:0:0:0:0:
402,192,24308,128,0,24465:0:0:0:0:
36,192,24308,128,0,24465:0:0:0:0:
256,192,24465,128,0,24621:0:0:0:0:
182,192,24465,128,0,24621:0:0:0:0:
109,192,24621,128,0,24777:0:0:0:0:
475,192,24621,128,0,24777:0:0:0:0:
36,192,24777,128,0,24933:0:0:0:0:
402,192,24777,128,0,24933:0:0:0:0:
182,192,24933,128,0,25090:0:0:0:0:
329,192,24933,128,0,25090:0:0:0:0:
109,192,25090,128,0,25402:0:0:0:0:
402,192,25090,128,0,25246:0:0:0:0:
475,192,25090,128,0,25246:0:0:0:0:
256,192,25246,128,0,25402:0:0:0:0:
329,192,25402,128,0,25558:0:0:0:0:
475,192,25402,128,0,25715:0:0:0:0:
182,192,25558,128,0,25715:0:0:0:0:
36,192,25558,128,0,25715:0:0:0:0:
256,192,25715,128,0,25871:0:0:0:0:
329,192,25871,128,0,26027:0:0:0:0:
109,192,25871,128,0,26183:0:0:0:0:
475,192,25871,128,0,26027:0:0:0:0:
182,192,26027,128,0,26183:0:0:0:0:
402,192,26183,128,0,26496:0:0:0:0:
256,192,26183,128,0,26340:0:0:0:0:
36,192,26183,128,0,26340:0:0:0:0:
329,192,26340,128,0,26496:0:0:0:0:
109,192,26340,128,0,26496:0:0:0:0:
475,192,26496,128,0,26652:0:0:0:0:
182,192,26496,128,0,26808:0:0:0:0:
256,192,26652,128,0,26808:0:0:0:0:
329,192,26808,128,0,26965:0:0:0:0:
402,192,26965,128,0,27121:0:0:0:0:
475,192,26965,128,0,27277:0:0:0:0:
182,192,27121,128,0,27277:0:0:0:0:
329,192,27121,128,0,27277:0:0:0:0:
256,192,27277,128,0,27433:0:0:0:0:
109,192,27277,128,0,27433:0:0:0:0:
182,192,27433,128,0,27590:0:0:0:0:
36,192,27433,128,0,27590:0:0:0:0:
329,192,27590,128,0,27746:0:0:0:0:
475,192,27590,128,0,28215:0:0:0:0:
402,192,27590,128,0,27902:0:0:0:0:
256,192,27746,128,0,28058:0:0:0:0:
182,192,27746,128,0,27902:0:0:0:0:
109,192,27902,128,0,28215:0:0:0:0:
36,192,27902,128,0,28058:0:0:0:0:
329,192,28058,128,0,28215:0:0:0:0:
182,192,28215,128,0,28527:0:0:0:0:
36,192,28215,128,0,28527:0:0:0:0:
402,192,28215,128,0,28527:0:0:0:0:
329,192,28527,128,0,28683:0:0:0:0:
256,192,28683,128,0,28840:0:0:0:0:
182,192,28840,128,0,28996:0:0:0:0:
36,192,28840,128,0,28996:0:0:0:0:
475,192,28840,128,0,28996:0:0:0:0:
329,192,28996,128,0,29152:0:0:0:0:
109,192,29152,128,0,29308:0:0:0:0:
36,192,29152,128,0,29465:0:0:0:0:
402,192,29308,128,0,29621:0:0:0:0:
475,192,29308,128,0,29465:0:0:0:0:
256,192,29465,128,0,29777:0:0:0:0:
182,192,29465,128,0,29621:0:0:0:0:
109,192,29465,128,0,29621:0:0:0:0:
329,192,29621,128,0,29933:0:0:0:0:
36,192,29621,128,0,29777:0:0:0:0:
475,192,29777,128,0,30090:0:0:0:0:
182,192,29777,128,0,29933:0:0:0:0:
109,192,29933,128,0,30090:0:0:0:0:
256,192,30090,128,0,30402:0:0:0:0:
36,192,30090,128,0,30246:0:0:0:0:
402,192,30090,128,0,30246:0:0:0:0:
109,192,30246,128,0,30402:0:0:0:0:
182,192,30402,128,0,30715:0:0:0:0:
475,192,30558,128,0,30715:0:0:0:0:
329,192,30558,128,0,30871:0:0:0:0:
402,192,30715,128,0,30871:0:0:0:0:
256,192,30871,128,0,31027:0:0:0:0:
475,192,30871,128,0,31027:0:0:0:0:
182,192,31027,128,0,31183:0:0:0:0:
36,192,31027,128,0,31183:0:0:0:0:
109,192,31183,128,0,31340:0:0:0:0:
256,192,31183,128,0,31340:0:0:0:0:
182,192,31340,128,0,31496:0:0:0:0:
329,192,31340,128,0,31496:0:0:0:0:
475,192,31340,128,0,31496:0:0:0:0:
256,192,31496,128,0,31652:0:0:0:0:
402,192,31496,128,0,31652:0:0:0:0:
182,192,31652,128,0,31808:0:0:0:0:
329,192,31652,128,0,31808:0:0:0:0:
256,192,31808,128,0,31965:0:0:0:0:
109,192,31808,128,0,31965:0:0:0:0:
36,192,31808,128,0,32121:0:0:0:0:
402,192,31965,128,0,32121:0:0:0:0:
475,192,31965,128,0,32121:0:0:0:0:
329,192,32121,128,0,32199:0:0:0:0:
182,192,32121,128,0,32199:0:0:0:0:
182,192,32277,128,0,32433:0:0:0:0:
329,192,32277,128,0,32433:0:0:0:0:
109,192,32433,128,0,32590:0:0:0:0:
402,192,32433,128,0,32590:0:0:0:0:
256,192,32590,128,0,32746:0:0:0:0:
36,192,32590,128,0,32746:0:0:0:0:
182,192,32590,128,0,32746:0:0:0:0:
475,192,32590,128,0,33215:0:0:0:0:
329,192,32746,128,0,33058:0:0:0:0:
109,192,32902,128,0,33215:0:0:0:0:
182,192,33058,128,0,33215:0:0:0:0:
256,192,33215,128,0,33371:0:0:0:0:
402,192,33215,128,0,33371:0:0:0:0:
109,192,33371,128,0,33527:0:0:0:0:
36,192,33371,128,0,33527:0:0:0:0:
182,192,33527,128,0,33683:0:0:0:0:
256,192,33527,128,0,33683:0:0:0:0:
329,192,33683,128,0,33840:0:0:0:0:
402,192,33683,128,0,33840:0:0:0:0:
182,192,33840,128,0,33996:0:0:0:0:
36,192,33840,128,0,33996:0:0:0:0:
475,192,33840,128,0,34152:0:0:0:0:
256,192,33996,128,0,34152:0:0:0:0:
329,192,34152,128,0,34308:0:0:0:0:
402,192,34152,128,0,34308:0:0:0:0:
182,192,34308,128,0,34465:0:0:0:0:
256,192,34308,128,0,34465:0:0:0:0:
109,192,34465,128,0,34621:0:0:0:0:
36,192,34465,128,0,34777:0:0:0:0:
475,192,34465,128,0,34621:0:0:0:0:
256,192,34621,128,0,34777:0:0:0:0:
402,192,34621,128,0,34777:0:0:0:0:
329,192,34777,128,0,34933:0:0:0:0:
182,192,34777,128,0,34933:0:0:0:0:
256,192,34933,128,0,35090:0:0:0:0:
109,192,34933,128,0,35090:0:0:0:0:
402,192,35090,128,0,35246:0:0:0:0:
475,192,35090,128,0,35402:0:0:0:0:
36,192,35090,128,0,35246:0:0:0:0:
329,192,35246,128,0,35402:0:0:0:0:
182,192,35402,128,0,35558:0:0:0:0:
109,192,35402,128,0,35715:0:0:0:0:
329,192,35558,128,0,35715:0:0:0:0:
402,192,35558,128,0,35871:0:0:0:0:
256,192,35715,128,0,35871:0:0:0:0:
182,192,35871,128,0,36183:0:0:0:0:
475,192,35871,128,0,36027:0:0:0:0:
109,192,36027,128,0,36183:0:0:0:0:
36,192,36183,128,0,36496:0:0:0:0:
329,192,36183,128,0,36340:0:0:0:0:
402,192,36340,128,0,36496:0:0:0:0:
329,192,36652,128,0,36808:0:0:0:0:
475,192,36652,128,0,36808:0:0:0:0:
109,192,36652,128,0,36808:0:0:0:0:
256,192,36808,128,0,36965:0:0:0:0:
182,192,36965,128,0,37121:0:0:0:0:
36,192,36965,128,0,37121:0:0:0:0:
402,192,36965,128,0,37121:0:0:0:0:
329,192,37121,128,0,37277:0:0:0:0:
256,192,37277,128,0,37433:0:0:0:0:
402,192,37277,128,0,37433:0:0:0:0:
475,192,37277,128,0,37590:0:0:0:0:
109,192,37277,128,0,37433:0:0:0:0:
182,192,37433,128,0,37590:0:0:0:0:
329,192,37590,128,0,37746:0:0:0:0:
402,192,37590,128,0,37746:0:0:0:0:
109,192,37590,128,0,37746:0:0:0:0:
36,192,37590,128,0,37902:0:0:0:0:
256,192,37746,128,0,37902:0:0:0:0:
182,192,37902,128,0,38058:0:0:0:0:
109,192,37902,128,0,38215:0:0:0:0:
402,192,38058,128,0,38215:0:0:0:0:
475,192,38058,128,0,38215:0:0:0:0:
329,192,38058,128,0,38215:0:0:0:0:
256,192,38215,128,0,38371:0:0:0:0:
182,192,38371,128,0,38527:0:0:0:0:
329,192,38527,128,0,38683:0:0:0:0:
475,192,38527,128,0,38840:0:0:0:0:
109,192,38527,128,0,38683:0:0:0:0:
36,192,38527,128,0,38683:0:0:0:0:
256,192,38683,128,0,38840:0:0:0:0:
329,192,38840,128,0,38996:0:0:0:0:
402,192,38840,128,0,38996:0:0:0:0:
182,192,38840,128,0,38996:0:0:0:0:
36,192,38840,128,0,39152:0:0:0:0:
109,192,38996,128,0,39152:0:0:0:0:
402,192,39152,128,0,39308:0:0:0:0:
256,192,39152,128,0,39308:0:0:0:0:
329,192,39308,128,0,39465:0:0:0:0:
475,192,39308,128,0,39465:0:0:0:0:
256,192,39465,128,0,39621:0:0:0:0:
109,192,39465,128,0,39621:0:0:0:0:
182,192,39621,128,0,39777:0:0:0:0:
36,192,39621,128,0,39777:0:0:0:0:
256,192,39777,128,0,39933:0:0:0:0:
475,192,39777,128,0,40090:0:0:0:0:
402,192,39933,128,0,40090:0:0:0:0:
182,192,39933,128,0,40090:0:0:0:0:
36,192,40090,128,0,40402:0:0:0:0:
329,192,40090,128,0,40402:0:0:0:0:
109,192,40090,128,0,40402:0:0:0:0:
256,192,40402,128,0,41496:0:0:0:0:
402,192,40558,128,0,41418:0:0:0:0:
475,192,40558,128,0,41340:0:0:0:0:
182,192,40715,128,0,41574:0:0:0:0:
36,192,40715,128,0,41652:0:0:0:0:
475,192,41965,128,0,42590:0:0:0:0:
329,192,41965,128,0,42277:0:0:0:0:
109,192,41965,128,0,42277:0:0:0:0:
36,192,42277,128,0,42590:0:0:0:0:
256,192,42277,128,0,42590:0:0:0:0:
402,192,42590,128,0,43371:0:0:0:0:
182,192,42590,128,0,43371:0:0:0:0:
109,192,42590,128,0,43371:0:0:0:0:
36,192,43527,128,0,44152:0:0:0:0:
182,192,43527,128,0,44152:0:0:0:0:
329,192,43527,128,0,44152:0:0:0:0:
256,192,44152,128,0,44621:0:0:0:0:
109,192,44152,128,0,44621:0:0:0:0:
475,192,44152,128,0,44621:0:0:0:0:
182,192,44777,128,0,44933:0:0:0:0:
402,192,44777,128,0,45090:0:0:0:0:
256,192,45090,128,0,45402:0:0:0:0:
329,192,45090,128,0,45402:0:0:0:0:
36,192,45090,128,0,45402:0:0:0:0:
402,192,45402,128,0,45558:0:0:0:0:
475,192,45402,128,0,45558:0:0:0:0:
182,192,45558,128,0,46808:0:0:0:0:
36,192,45558,128,0,46808:0:0:0:0:
329,192,45715,128,0,46808:0:0:0:0:
475,192,45715,128,0,46808:0:0:0:0:
36,192,46965,128,0,47277:0:0:0:0:
256,192,46965,128,0,47277:0:0:0:0:
182,192,47277,128,0,47590:0:0:0:0:
402,192,47277,128,0,47590:0:0:0:0:
109,192,47590,128,0,47902:0:0:0:0:
36,192,47590,128,0,47902:0:0:0:0:
329,192,47590,128,0,47746:0:0:0:0:
475,192,47590,128,0,47746:0:0:0:0:
329,192,47902,128,0,48371:0:0:0:0:
475,192,47902,128,0,48371:0:0:0:0:
182,192,48058,128,0,48371:0:0:0:0:
109,192,48527,128,0,48996:0:0:0:0:
182,192,48527,128,0,48996:0:0:0:0:
402,192,48527,128,0,48996:0:0:0:0:
475,192,48527,128,0,48996:0:0:0:0:
329,192,49152,128,0,49621:0:0:0:0:
36,192,49152,128,0,49621:0:0:0:0:
402,192,49777,128,0,50011:0:0:0:0:
109,192,49777,128,0,50011:0:0:0:0:
475,192,50090,128,0,50871:0:0:0:0:
402,192,50090,128,0,50871:0:0:0:0:
256,192,50090,128,0,50871:0:0:0:0:
109,192,50090,128,0,50871:0:0:0:0:
182,192,51027,128,0,51965:0:0:0:0:
36,192,51027,128,0,51965:0:0:0:0:
256,192,51965,128,0,52121:0:0:0:0:
109,192,51965,128,0,52121:0:0:0:0:
475,192,51965,128,0,52277:0:0:0:0:
402,192,51965,128,0,52277:0:0:0:0:
329,192,52277,128,0,52590:0:0:0:0:
182,192,52277,128,0,52590:0:0:0:0:
109,192,52590,128,0,52902:0:0:0:0:
36,192,52590,128,0,52902:0:0:0:0:
402,192,52590,128,0,52746:0:0:0:0:
256,192,52590,128,0,52746:0:0:0:0:
182,192,52902,128,0,53371:0:0:0:0:
329,192,52902,128,0,53371:0:0:0:0:
256,192,53527,128,0,53840:0:0:0:0:
402,192,53527,128,0,53840:0:0:0:0:
329,192,53840,128,0,54152:0:0:0:0:
475,192,53840,128,0,54152:0:0:0:0:
182,192,53840,128,0,53996:0:0:0:0:
36,192,53840,128,0,53996:0:0:0:0:
256,192,54152,128,0,54777:0:0:0:0:
109,192,54152,128,0,54777:0:0:0:0:
475,192,54777,128,0,55011:0:0:0:0:
329,192,54777,128,0,55011:0:0:0:0:
329,192,55090,128,0,55715:0:0:0:0:
402,192,55090,128,0,55715:0:0:0:0:
475,192,55090,128,0,55715:0:0:0:0:
36,192,55090,128,0,55715:0:0:0:0:
109,192,55715,128,0,56340:0:0:0:0:
256,192,55715,128,0,56340:0:0:0:0:
475,192,56340,128,0,56965:0:0:0:0:
329,192,56340,128,0,56965:0:0:0:0:
182,192,56340,128,0,56965:0:0:0:0:
36,192,56340,128,0,56965:0:0:0:0:
256,192,56965,128,0,57590:0:0:0:0:
402,192,56965,128,0,57590:0:0:0:0:
475,192,57590,128,0,58058:0:0:0:0:
182,192,57590,128,0,58058:0:0:0:0:
109,192,57590,128,0,58058:0:0:0:0:
36,192,57590,128,0,58058:0:0:0:0:
329,192,58058,128,0,58840:0:0:0:0:
402,192,58058,128,0,58840:0:0:0:0:
256,192,58840,128,0,59465:0:0:0:0:
182,192,58840,128,0,59465:0:0:0:0:
109,192,58840,128,0,59465:0:0:0:0:
36,192,58840,128,0,59465:0:0:0:0:
36,192,59621,128,0,59777:0:0:0:0:
256,192,59621,128,0,59777:0:0:0:0:
109,192,59777,128,0,59933:0:0:0:0:
329,192,59777,128,0,59933:0:0:0:0:
182,192,59933,128,0,60090:0:0:0:0:
402,192,59933,128,0,60090:0:0:0:0:
256,192,60090,128,0,60246:0:0:0:0:
36,192,60090,128,0,60246:0:0:0:0:
475,192,60090,128,0,60246:0:0:0:0:
402,192,60350,128,0,60558:0:0:0:0:
475,192,60350,128,0,60558:0:0:0:0:
256,192,60350,128,0,60558:0:0:0:0:
36,192,60350,128,0,60558:0:0:0:0:
109,192,60558,128,0,60715:0:0:0:0:
329,192,60558,128,0,60715:0:0:0:0:
402,192,60715,128,0,61027:0:0:0:0:
182,192,60715,128,0,61027:0:0:0:0:
256,192,61027,128,0,61340:0:0:0:0:
475,192,61027,128,0,61340:0:0:0:0:
36,192,61340,128,0,61652:0:0:0:0:
182,192,61340,128,0,61496:0:0:0:0:
329,192,61340,128,0,61496:0:0:0:0:
256,192,61496,128,0,61652:0:0:0:0:
402,192,61496,128,0,61652:0:0:0:0:
109,192,61496,128,0,61808:0:0:0:0:
182,192,61652,128,0,61808:0:0:0:0:
329,192,61652,128,0,61808:0:0:0:0:
475,192,61652,128,0,61965:0:0:0:0:
36,192,61808,128,0,61965:0:0:0:0:
402,192,61808,128,0,62121:0:0:0:0:
256,192,61965,128,0,62121:0:0:0:0:
182,192,62121,128,0,62277:0:0:0:0:
109,192,62277,128,0,62433:0:0:0:0:
36,192,62277,128,0,62590:0:0:0:0:
329,192,62433,128,0,62590:0:0:0:0:
475,192,62590,128,0,62902:0:0:0:0:
402,192,62590,128,0,62746:0:0:0:0:
256,192,62590,128,0,62746:0:0:0:0:
182,192,62746,128,0,62902:0:0:0:0:
36,192,62902,128,0,63058:0:0:0:0:
329,192,62902,128,0,63058:0:0:0:0:
402,192,63058,128,0,63215:0:0:0:0:
109,192,63058,128,0,63215:0:0:0:0:
182,192,63215,128,0,63371:0:0:0:0:
475,192,63215,128,0,63371:0:0:0:0:
256,192,63371,128,0,63527:0:0:0:0:
36,192,63371,128,0,63527:0:0:0:0:
109,192,63527,128,0,63683:0:0:0:0:
329,192,63527,128,0,63683:0:0:0:0:
182,192,63683,128,0,63840:0:0:0:0:
402,192,63683,128,0,63840:0:0:0:0:
256,192,63840,128,0,63996:0:0:0:0:
329,192,63840,128,0,63996:0:0:0:0:
475,192,63840,128,0,64152:0:0:0:0:
109,192,63996,128,0,64152:0:0:0:0:
182,192,64152,128,0,64308:0:0:0:0:
256,192,64152,128,0,64308:0:0:0:0:
36,192,64308,128,0,64465:0:0:0:0:
182,192,64465,128,0,64621:0:0:0:0:
109,192,64465,128,0,64777:0:0:0:0:
329,192,64621,128,0,64777:0:0:0:0:
475,192,64777,128,0,64933:0:0:0:0:
402,192,64777,128,0,64933:0:0:0:0:
256,192,64933,128,0,65090:0:0:0:0:
182,192,64933,128,0,65090:0:0:0:0:
109,192,65011,128,0,65168:0:0:0:0:
329,192,65011,128,0,65168:0:0:0:0:
36,192,65090,128,0,65246:0:0:0:0:
402,192,65090,128,0,65402:0:0:0:0:
475,192,65090,128,0,65246:0:0:0:0:
182,192,65246,128,0,65402:0:0:0:0:
256,192,65402,128,0,65558:0:0:0:0:
109,192,65402,128,0,65558:0:0:0:0:
182,192,65558,128,0,65715:0:0:0:0:
329,192,65558,128,0,65715:0:0:0:0:
402,192,65715,128,0,65871:0:0:0:0:
475,192,65715,128,0,66027:0:0:0:0:
36,192,65715,128,0,65871:0:0:0:0:
256,192,65871,128,0,66027:0:0:0:0:
182,192,66027,128,0,66183:0:0:0:0:
329,192,66027,128,0,66183:0:0:0:0:
109,192,66183,128,0,66340:0:0:0:0:
402,192,66183,128,0,66340:0:0:0:0:
36,192,66340,128,0,66652:0:0:0:0:
182,192,66340,128,0,66496:0:0:0:0:
256,192,66340,128,0,66652:0:0:0:0:
475,192,66496,128,0,66652:0:0:0:0:
329,192,66652,128,0,66808:0:0:0:0:
109,192,66652,128,0,66808:0:0:0:0:
256,192,66808,128,0,66965:0:0:0:0:
402,192,66808,128,0,66965:0:0:0:0:
182,192,66965,128,0,67121:0:0:0:0:
36,192,66965,128,0,67121:0:0:0:0:
475,192,66965,128,0,67121:0:0:0:0:
256,192,67121,128,0,67277:0:0:0:0:
329,192,67277,128,0,67433:0:0:0:0:
475,192,67277,128,0,67433:0:0:0:0:
36,192,67277,128,0,67433:0:0:0:0:
109,192,67433,128,0,67746:0:0:0:0:
182,192,67590,128,0,67746:0:0:0:0:
402,192,67590,128,0,67746:0:0:0:0:
475,192,67590,128,0,67746:0:0:0:0:
329,192,67746,128,0,67902:0:0:0:0:
256,192,67902,128,0,68058:0:0:0:0:
36,192,67902,128,0,68058:0:0:0:0:
109,192,68058,128,0,68215:0:0:0:0:
329,192,68058,128,0,68215:0:0:0:0:
182,192,68215,128,0,68371:0:0:0:0:
402,192,68215,128,0,68371:0:0:0:0:
36,192,68371,128,0,68527:0:0:0:0:
329,192,68371,128,0,68527:0:0:0:0:
109,192,68527,128,0,68683:0:0:0:0:
402,192,68527,128,0,68683:0:0:0:0:
182,192,68683,128,0,68840:0:0:0:0:
475,192,68683,128,0,68840:0:0:0:0:
256,192,68840,128,0,68996:0:0:0:0:
329,192,68840,128,0,68996:0:0:0:0:
36,192,68840,128,0,69152:0:0:0:0:
402,192,68996,128,0,69152:0:0:0:0:
475,192,69152,128,0,69308:0:0:0:0:
182,192,69152,128,0,69308:0:0:0:0:
109,192,69152,128,0,69308:0:0:0:0:
256,192,69308,128,0,69465:0:0:0:0:
329,192,69465,128,0,69621:0:0:0:0:
36,192,69465,128,0,69621:0:0:0:0:
182,192,69621,128,0,69777:0:0:0:0:
402,192,69621,128,0,69777:0:0:0:0:
475,192,69621,128,0,69777:0:0:0:0:
256,192,69777,128,0,69933:0:0:0:0:
329,192,69777,128,0,69933:0:0:0:0:
36,192,69777,128,0,69933:0:0:0:0:
109,192,69933,128,0,70090:0:0:0:0:
182,192,69933,128,0,70090:0:0:0:0:
475,192,69933,128,0,70246:0:0:0:0:
402,192,70090,128,0,70246:0:0:0:0:
36,192,70090,128,0,70246:0:0:0:0:
329,192,70090,128,0,70246:0:0:0:0:
256,192,70246,128,0,70402:0:0:0:0:
182,192,70402,128,0,70558:0:0:0:0:
36,192,70402,128,0,70558:0:0:0:0:
402,192,70558,128,0,70715:0:0:0:0:
475,192,70558,128,0,70715:0:0:0:0:
109,192,70715,128,0,70871:0:0:0:0:
256,192,70715,128,0,70871:0:0:0:0:
329,192,70715,128,0,71027:0:0:0:0:
182,192,70871,128,0,71027:0:0:0:0:
36,192,71027,128,0,71183:0:0:0:0:
109,192,71183,128,0,71340:0:0:0:0:
182,192,71340,128,0,71496:0:0:0:0:
329,192,71340,128,0,71496:0:0:0:0:
475,192,71340,128,0,71652:0:0:0:0:
109,192,71652,128,0,71808:0:0:0:0:
256,192,71652,128,0,71808:0:0:0:0:
402,192,71652,128,0,71808:0:0:0:0:
329,192,71808,128,0,71965:0:0:0:0:
475,192,71808,128,0,71965:0:0:0:0:
182,192,71808,128,0,71965:0:0:0:0:
36,192,71965,128,0,72277:0:0:0:0:
109,192,71965,128,0,72121:0:0:0:0:
256,192,71965,128,0,72121:0:0:0:0:
182,192,72277,128,0,72433:0:0:0:0:
329,192,72277,128,0,72433:0:0:0:0:
256,192,72433,128,0,72590:0:0:0:0:
402,192,72433,128,0,72590:0:0:0:0:
475,192,72590,128,0,72746:0:0:0:0:
109,192,72590,128,0,72746:0:0:0:0:
36,192,72590,128,0,72746:0:0:0:0:
182,192,72746,128,0,72902:0:0:0:0:
329,192,72746,128,0,72902:0:0:0:0:
109,192,72902,128,0,73058:0:0:0:0:
402,192,72902,128,0,73058:0:0:0:0:
36,192,73058,128,0,73215:0:0:0:0:
256,192,73058,128,0,73215:0:0:0:0:
329,192,73215,128,0,73371:0:0:0:0:
475,192,73215,128,0,73371:0:0:0:0:
182,192,73215,128,0,73371:0:0:0:0:
109,192,73371,128,0,73527:0:0:0:0:
36,192,73371,128,0,73527:0:0:0:0:
256,192,73527,128,0,73683:0:0:0:0:
402,192,73527,128,0,73683:0:0:0:0:
182,192,73683,128,0,73840:0:0:0:0:
109,192,73683,128,0,73840:0:0:0:0:
329,192,73840,128,0,73996:0:0:0:0:
402,192,73840,128,0,73996:0:0:0:0:
475,192,73840,128,0,74152:0:0:0:0:
36,192,73996,128,0,74152:0:0:0:0:
256,192,74152,128,0,74308:0:0:0:0:
329,192,74152,128,0,74465:0:0:0:0:
182,192,74152,128,0,74308:0:0:0:0:
109,192,74308,128,0,74465:0:0:0:0:
402,192,74465,128,0,74621:0:0:0:0:
475,192,74465,128,0,74777:0:0:0:0:
36,192,74465,128,0,74621:0:0:0:0:
109,192,74621,128,0,74777:0:0:0:0:
182,192,74777,128,0,74933:0:0:0:0:
329,192,74777,128,0,74933:0:0:0:0:
402,192,74777,128,0,74933:0:0:0:0:
109,192,74933,128,0,75090:0:0:0:0:
256,192,74933,128,0,75090:0:0:0:0:
36,192,74933,128,0,75246:0:0:0:0:
182,192,75090,128,0,75246:0:0:0:0:
329,192,75090,128,0,75246:0:0:0:0:
475,192,75090,128,0,75246:0:0:0:0:
109,192,75246,128,0,75402:0:0:0:0:
402,192,75246,128,0,75402:0:0:0:0:
182,192,75402,128,0,75558:0:0:0:0:
329,192,75402,128,0,75558:0:0:0:0:
109,192,75558,128,0,75715:0:0:0:0:
402,192,75558,128,0,75715:0:0:0:0:
256,192,75715,128,0,75871:0:0:0:0:
36,192,75715,128,0,75871:0:0:0:0:
182,192,75871,128,0,76027:0:0:0:0:
109,192,75871,128,0,76027:0:0:0:0:
329,192,76027,128,0,76183:0:0:0:0:
475,192,76027,128,0,76183:0:0:0:0:
256,192,76183,128,0,76340:0:0:0:0:
402,192,76183,128,0,76340:0:0:0:0:
329,192,76340,128,0,76496:0:0:0:0:
182,192,76340,128,0,76652:0:0:0:0:
109,192,76496,128,0,76652:0:0:0:0:
256,192,76652,128,0,76965:0:0:0:0:
402,192,76652,128,0,76808:0:0:0:0:
36,192,76808,128,0,76965:0:0:0:0:
329,192,76965,128,0,77277:0:0:0:0:
109,192,76965,128,0,77121:0:0:0:0:
182,192,77121,128,0,77277:0:0:0:0:
402,192,77121,128,0,77277:0:0:0:0:
256,192,77277,128,0,77433:0:0:0:0:
36,192,77277,128,0,77433:0:0:0:0:
109,192,77433,128,0,77590:0:0:0:0:
329,192,77433,128,0,77590:0:0:0:0:
182,192,77590,128,0,77746:0:0:0:0:
402,192,77590,128,0,77746:0:0:0:0:
256,192,77590,128,0,77746:0:0:0:0:
475,192,77590,128,0,78058:0:0:0:0:
109,192,77746,128,0,77902:0:0:0:0:
36,192,77902,128,0,78058:0:0:0:0:
109,192,78058,128,0,78215:0:0:0:0:
256,192,78058,128,0,78215:0:0:0:0:
402,192,78058,128,0,78215:0:0:0:0:
182,192,78215,128,0,78371:0:0:0:0:
329,192,78215,128,0,78371:0:0:0:0:
256,192,78527,128,0,78683:0:0:0:0:
36,192,78527,128,0,78683:0:0:0:0:
109,192,78683,128,0,78840:0:0:0:0:
329,192,78683,128,0,78840:0:0:0:0:
475,192,78683,128,0,78996:0:0:0:0:
182,192,78840,128,0,78996:0:0:0:0:
402,192,78840,128,0,78996:0:0:0:0:
36,192,78996,128,0,79308:0:0:0:0:
256,192,79152,128,0,79308:0:0:0:0:
402,192,79152,128,0,79308:0:0:0:0:
109,192,79308,128,0,79621:0:0:0:0:
182,192,79465,128,0,79621:0:0:0:0:
329,192,79465,128,0,79621:0:0:0:0:
475,192,79465,128,0,79621:0:0:0:0:
256,192,79621,128,0,79777:0:0:0:0:
402,192,79621,128,0,79777:0:0:0:0:
182,192,79777,128,0,79933:0:0:0:0:
36,192,79777,128,0,79933:0:0:0:0:
329,192,79933,128,0,80090:0:0:0:0:
475,192,79933,128,0,80246:0:0:0:0:
109,192,80090,128,0,80246:0:0:0:0:
36,192,80090,128,0,80246:0:0:0:0:
256,192,80090,128,0,80246:0:0:0:0:
402,192,80246,128,0,80402:0:0:0:0:
182,192,80402,128,0,80558:0:0:0:0:
329,192,80558,128,0,80715:0:0:0:0:
475,192,80558,128,0,80715:0:0:0:0:
36,192,80558,128,0,80715:0:0:0:0:
109,192,80715,128,0,80871:0:0:0:0:
256,192,80715,128,0,80871:0:0:0:0:
182,192,80871,128,0,81027:0:0:0:0:
36,192,80871,128,0,81027:0:0:0:0:
329,192,81027,128,0,81183:0:0:0:0:
475,192,81027,128,0,81340:0:0:0:0:
402,192,81183,128,0,81340:0:0:0:0:
256,192,81340,128,0,81496:0:0:0:0:
36,192,81340,128,0,81496:0:0:0:0:
109,192,81496,128,0,81652:0:0:0:0:
329,192,81496,128,0,81652:0:0:0:0:
182,192,81652,128,0,81808:0:0:0:0:
475,192,81652,128,0,81808:0:0:0:0:
402,192,81808,128,0,81965:0:0:0:0:
256,192,81965,128,0,82121:0:0:0:0:
36,192,81965,128,0,82277:0:0:0:0:
329,192,81965,128,0,82121:0:0:0:0:
182,192,82277,128,0,82590:0:0:0:0:
109,192,82277,128,0,82433:0:0:0:0:
329,192,82433,128,0,82590:0:0:0:0:
475,192,82590,128,0,82902:0:0:0:0:
402,192,82590,128,0,82746:0:0:0:0:
256,192,82590,128,0,82746:0:0:0:0:
36,192,82590,128,0,82746:0:0:0:0:
329,192,82746,128,0,82902:0:0:0:0:
182,192,82902,128,0,83058:0:0:0:0:
36,192,82902,128,0,83058:0:0:0:0:
109,192,83058,128,0,83215:0:0:0:0:
256,192,83058,128,0,83215:0:0:0:0:
182,192,83215,128,0,83371:0:0:0:0:
329,192,83215,128,0,83371:0:0:0:0:
256,192,83371,128,0,83527:0:0:0:0:
109,192,83371,128,0,83527:0:0:0:0:
329,192,83527,128,0,83683:0:0:0:0:
475,192,83527,128,0,83683:0:0:0:0:
182,192,83683,128,0,83840:0:0:0:0:
36,192,83683,128,0,83840:0:0:0:0:
109,192,83840,128,0,83996:0:0:0:0:
256,192,83840,128,0,83996:0:0:0:0:
402,192,83840,128,0,83996:0:0:0:0:
329,192,83996,128,0,84152:0:0:0:0:
475,192,84152,128,0,84308:0:0:0:0:
182,192,84152,128,0,84308:0:0:0:0:
402,192,84308,128,0,84465:0:0:0:0:
109,192,84308,128,0,84465:0:0:0:0:
329,192,84465,128,0,84621:0:0:0:0:
256,192,84465,128,0,84621:0:0:0:0:
36,192,84465,128,0,84777:0:0:0:0:
475,192,84777,128,0,84933:0:0:0:0:
109,192,84777,128,0,84933:0:0:0:0:
182,192,84933,128,0,85090:0:0:0:0:
256,192,84933,128,0,85090:0:0:0:0:
329,192,85011,128,0,85168:0:0:0:0:
402,192,85011,128,0,85168:0:0:0:0:
475,192,85090,128,0,85246:0:0:0:0:
36,192,85090,128,0,85402:0:0:0:0:
109,192,85246,128,0,85558:0:0:0:0:
256,192,85402,128,0,85558:0:0:0:0:
182,192,85558,128,0,85715:0:0:0:0:
402,192,85558,128,0,85715:0:0:0:0:
329,192,85715,128,0,85871:0:0:0:0:
475,192,85715,128,0,85871:0:0:0:0:
109,192,85715,128,0,85871:0:0:0:0:
36,192,85715,128,0,85871:0:0:0:0:
256,192,85871,128,0,86027:0:0:0:0:
182,192,86027,128,0,86183:0:0:0:0:
402,192,86027,128,0,86183:0:0:0:0:
329,192,86183,128,0,86340:0:0:0:0:
109,192,86183,128,0,86340:0:0:0:0:
402,192,86340,128,0,86496:0:0:0:0:
475,192,86340,128,0,86496:0:0:0:0:
256,192,86340,128,0,86496:0:0:0:0:
36,192,86340,128,0,86496:0:0:0:0:
182,192,86496,128,0,86652:0:0:0:0:
256,192,86652,128,0,86808:0:0:0:0:
329,192,86808,128,0,86965:0:0:0:0:
475,192,86808,128,0,86965:0:0:0:0:
109,192,86808,128,0,86965:0:0:0:0:
36,192,86808,128,0,86965:0:0:0:0:
402,192,86965,128,0,87121:0:0:0:0:
256,192,87121,128,0,87277:0:0:0:0:
36,192,87121,128,0,87277:0:0:0:0:
182,192,87277,128,0,87433:0:0:0:0:
109,192,87277,128,0,87433:0:0:0:0:
256,192,87433,128,0,87590:0:0:0:0:
329,192,87590,128,0,87746:0:0:0:0:
475,192,87590,128,0,87746:0:0:0:0:
402,192,87590,128,0,87746:0:0:0:0:
36,192,87590,128,0,87902:0:0:0:0:
182,192,87746,128,0,87902:0:0:0:0:
109,192,87902,128,0,88058:0:0:0:0:
256,192,87902,128,0,88058:0:0:0:0:
329,192,88058,128,0,88215:0:0:0:0:
475,192,88058,128,0,88215:0:0:0:0:
402,192,88215,128,0,88371:0:0:0:0:
182,192,88215,128,0,88371:0:0:0:0:
36,192,88215,128,0,88371:0:0:0:0:
256,192,88371,128,0,88527:0:0:0:0:
329,192,88371,128,0,88527:0:0:0:0:
402,192,88527,128,0,88683:0:0:0:0:
182,192,88527,128,0,88683:0:0:0:0:
109,192,88683,128,0,88840:0:0:0:0:
475,192,88683,128,0,88840:0:0:0:0:
256,192,88840,128,0,88996:0:0:0:0:
402,192,88840,128,0,88996:0:0:0:0:
36,192,88840,128,0,89152:0:0:0:0:
329,192,88996,128,0,89152:0:0:0:0:
256,192,89152,128,0,89308:0:0:0:0:
109,192,89152,128,0,89308:0:0:0:0:
182,192,89308,128,0,89465:0:0:0:0:
402,192,89465,128,0,89621:0:0:0:0:
329,192,89465,128,0,89777:0:0:0:0:
36,192,89465,128,0,89621:0:0:0:0:
182,192,89621,128,0,89777:0:0:0:0:
475,192,89621,128,0,89777:0:0:0:0:
402,192,89777,128,0,89933:0:0:0:0:
109,192,89777,128,0,89933:0:0:0:0:
256,192,89777,128,0,89933:0:0:0:0:
329,192,89933,128,0,90090:0:0:0:0:
36,192,89933,128,0,90090:0:0:0:0:
109,192,90090,128,0,90246:0:0:0:0:
402,192,90090,128,0,90246:0:0:0:0:
182,192,90090,128,0,90246:0:0:0:0:
475,192,90090,128,0,90402:0:0:0:0:
256,192,90246,128,0,90402:0:0:0:0:
329,192,90402,128,0,90558:0:0:0:0:
36,192,90402,128,0,90558:0:0:0:0:
109,192,90558,128,0,90715:0:0:0:0:
182,192,90715,128,0,90871:0:0:0:0:
475,192,90715,128,0,90871:0:0:0:0:
402,192,90871,128,0,91027:0:0:0:0:
329,192,91027,128,0,91183:0:0:0:0:
109,192,91183,128,0,91340:0:0:0:0:
36,192,91183,128,0,91340:0:0:0:0:
182,192,91340,128,0,91496:0:0:0:0:
402,192,91340,128,0,91496:0:0:0:0:
475,192,91340,128,0,91496:0:0:0:0:
329,192,91496,128,0,91652:0:0:0:0:
402,192,91652,128,0,91808:0:0:0:0:
475,192,91652,128,0,91808:0:0:0:0:
109,192,91652,128,0,91808:0:0:0:0:
36,192,91652,128,0,91808:0:0:0:0:
182,192,91808,128,0,91965:0:0:0:0:
256,192,91808,128,0,91965:0:0:0:0:
329,192,91808,128,0,91965:0:0:0:0:
109,192,91965,128,0,92121:0:0:0:0:
402,192,91965,128,0,92121:0:0:0:0:
475,192,91965,128,0,92121:0:0:0:0:
36,192,91965,128,0,92277:0:0:0:0:
329,192,92277,128,0,92590:0:0:0:0:
182,192,92277,128,0,92433:0:0:0:0:
256,192,92433,128,0,92590:0:0:0:0:
475,192,92590,128,0,92746:0:0:0:0:
109,192,92590,128,0,92746:0:0:0:0:
36,192,92590,128,0,92746:0:0:0:0:
182,192,92746,128,0,92902:0:0:0:0:
329,192,92746,128,0,92902:0:0:0:0:
109,192,92902,128,0,93058:0:0:0:0:
402,192,92902,128,0,93058:0:0:0:0:
36,192,93058,128,0,93215:0:0:0:0:
256,192,93058,128,0,93215:0:0:0:0:
329,192,93215,128,0,93371:0:0:0:0:
475,192,93215,128,0,93371:0:0:0:0:
182,192,93215,128,0,93371:0:0:0:0:
109,192,93371,128,0,93527:0:0:0:0:
36,192,93371,128,0,93527:0:0:0:0:
256,192,93527,128,0,93683:0:0:0:0:
402,192,93527,128,0,93683:0:0:0:0:
182,192,93683,128,0,93840:0:0:0:0:
109,192,93683,128,0,93840:0:0:0:0:
329,192,93840,128,0,93996:0:0:0:0:
402,192,93840,128,0,93996:0:0:0:0:
475,192,93840,128,0,94152:0:0:0:0:
36,192,93996,128,0,94152:0:0:0:0:
256,192,94152,128,0,94308:0:0:0:0:
329,192,94152,128,0,94465:0:0:0:0:
182,192,94152,128,0,94308:0:0:0:0:
109,192,94308,128,0,94465:0:0:0:0:
402,192,94465,128,0,94621:0:0:0:0:
475,192,94465,128,0,94777:0:0:0:0:
36,192,94465,128,0,94621:0:0:0:0:
109,192,94621,128,0,94777:0:0:0:0:
182,192,94777,128,0,94933:0:0:0:0:
329,192,94777,128,0,94933:0:0:0:0:
402,192,94777,128,0,94933:0:0:0:0:
109,192,94933,128,0,95090:0:0:0:0:
256,192,94933,128,0,95090:0:0:0:0:
36,192,94933,128,0,95246:0:0:0:0:
182,192,95090,128,0,95246:0:0:0:0:
329,192,95090,128,0,95246:0:0:0:0:
475,192,95090,128,0,95246:0:0:0:0:
402,192,95246,128,0,95402:0:0:0:0:
109,192,95402,128,0,95558:0:0:0:0:
329,192,95402,128,0,95558:0:0:0:0:
182,192,95558,128,0,95715:0:0:0:0:
402,192,95558,128,0,95715:0:0:0:0:
256,192,95715,128,0,95871:0:0:0:0:
36,192,95715,128,0,95871:0:0:0:0:
182,192,95871,128,0,96027:0:0:0:0:
109,192,95871,128,0,96027:0:0:0:0:
475,192,95871,128,0,96183:0:0:0:0:
329,192,96027,128,0,96183:0:0:0:0:
402,192,96027,128,0,96183:0:0:0:0:
36,192,96183,128,0,96496:0:0:0:0:
256,192,96183,128,0,96340:0:0:0:0:
182,192,96183,128,0,96340:0:0:0:0:
109,192,96340,128,0,96496:0:0:0:0:
402,192,96340,128,0,96496:0:0:0:0:
182,192,96496,128,0,96652:0:0:0:0:
329,192,96496,128,0,96652:0:0:0:0:
402,192,96652,128,0,96808:0:0:0:0:
475,192,96652,128,0,96965:0:0:0:0:
109,192,96808,128,0,96965:0:0:0:0:
182,192,96965,128,0,97121:0:0:0:0:
329,192,96965,128,0,97121:0:0:0:0:
36,192,96965,128,0,97121:0:0:0:0:
182,192,97277,128,0,97433:0:0:0:0:
329,192,97277,128,0,97433:0:0:0:0:
109,192,97433,128,0,97590:0:0:0:0:
402,192,97433,128,0,97590:0:0:0:0:
256,192,97590,128,0,97746:0:0:0:0:
36,192,97590,128,0,97746:0:0:0:0:
475,192,97590,128,0,98058:0:0:0:0:
329,192,97902,128,0,98058:0:0:0:0:
182,192,98058,128,0,98215:0:0:0:0:
36,192,98058,128,0,98215:0:0:0:0:
402,192,98215,128,0,98527:0:0:0:0:
256,192,98527,128,0,98683:0:0:0:0:
36,192,98527,128,0,98683:0:0:0:0:
109,192,98683,128,0,98840:0:0:0:0:
329,192,98683,128,0,98840:0:0:0:0:
182,192,98840,128,0,98996:0:0:0:0:
402,192,98840,128,0,98996:0:0:0:0:
475,192,98840,128,0,98996:0:0:0:0:
256,192,98996,128,0,99152:0:0:0:0:
109,192,99152,128,0,99308:0:0:0:0:
36,192,99152,128,0,99465:0:0:0:0:
182,192,99465,128,0,99621:0:0:0:0:
329,192,99465,128,0,99621:0:0:0:0:
475,192,99465,128,0,99621:0:0:0:0:
256,192,99777,128,0,99933:0:0:0:0:
109,192,99777,128,0,99933:0:0:0:0:
402,192,99777,128,0,99933:0:0:0:0:
329,192,100090,128,0,100246:0:0:0:0:
402,192,100090,128,0,100246:0:0:0:0:
36,192,100090,128,0,100402:0:0:0:0:
182,192,100090,128,0,100402:0:0:0:0:
109,192,100715,128,0,100871:0:0:0:0:
402,192,100715,128,0,101027:0:0:0:0:
182,192,101027,128,0,101183:0:0:0:0:
256,192,101027,128,0,101183:0:0:0:0:
36,192,101027,128,0,101496:0:0:0:0:
402,192,101340,128,0,101496:0:0:0:0:
329,192,101340,128,0,101496:0:0:0:0:
475,192,101340,128,0,101965:0:0:0:0:
182,192,101965,128,0,102277:0:0:0:0:
36,192,101965,128,0,102277:0:0:0:0:
329,192,102590,128,0,103215:0:0:0:0:
475,192,102590,128,0,103215:0:0:0:0:
256,192,102590,128,0,103215:0:0:0:0:
402,192,103058,128,0,103215:0:0:0:0:
182,192,103215,128,0,103527:0:0:0:0:
36,192,103215,128,0,103527:0:0:0:0:
109,192,103527,128,0,103683:0:0:0:0:
256,192,103527,128,0,103683:0:0:0:0:
475,192,103527,128,0,103683:0:0:0:0:
182,192,103683,128,0,103840:0:0:0:0:
329,192,103683,128,0,103840:0:0:0:0:
402,192,103683,128,0,103840:0:0:0:0:
109,192,103840,128,0,103996:0:0:0:0:
36,192,103840,128,0,103996:0:0:0:0:
475,192,103840,128,0,104152:0:0:0:0:
256,192,103840,128,0,104152:0:0:0:0:
329,192,104152,128,0,104308:0:0:0:0:
402,192,104152,128,0,104308:0:0:0:0:
182,192,104465,128,0,104621:0:0:0:0:
36,192,104777,128,0,104933:0:0:0:0:
402,192,105402,128,0,105715:0:0:0:0:
182,192,105715,128,0,106027:0:0:0:0:
36,192,105715,128,0,106340:0:0:0:0:
256,192,106027,128,0,106183:0:0:0:0:
329,192,106183,128,0,106340:0:0:0:0:
402,192,106261,128,0,106418:0:0:0:0:
475,192,106340,128,0,106496:0:0:0:0:
182,192,106340,128,0,106496:0:0:0:0:
109,192,106496,128,0,106652:0:0:0:0:
36,192,106496,128,0,106965:0:0:0:0:
256,192,106652,128,0,106808:0:0:0:0:
402,192,106808,128,0,106965:0:0:0:0:
475,192,106965,128,0,107277:0:0:0:0:
329,192,106965,128,0,107277:0:0:0:0:
182,192,107277,128,0,107433:0:0:0:0:
36,192,107277,128,0,107433:0:0:0:0:
256,192,107433,128,0,107590:0:0:0:0:
402,192,107433,128,0,107590:0:0:0:0:
475,192,107433,128,0,107590:0:0:0:0:
109,192,107590,128,0,107746:0:0:0:0:
36,192,107590,128,0,108058:0:0:0:0:
329,192,108058,128,0,108215:0:0:0:0:
475,192,108058,128,0,108215:0:0:0:0:
109,192,108215,128,0,108527:0:0:0:0:
256,192,108215,128,0,108527:0:0:0:0:
182,192,108527,128,0,108761:0:0:0:0:
475,192,108527,128,0,108761:0:0:0:0:
329,192,108527,128,0,108761:0:0:0:0:
402,192,108840,128,0,108996:0:0:0:0:
475,192,108840,128,0,109308:0:0:0:0:
182,192,108840,128,0,108996:0:0:0:0:
36,192,108996,128,0,109152:0:0:0:0:
109,192,109152,128,0,109308:0:0:0:0:
182,192,109308,128,0,109465:0:0:0:0:
329,192,109308,128,0,109465:0:0:0:0:
402,192,109308,128,0,109465:0:0:0:0:
256,192,109465,128,0,109621:0:0:0:0:
36,192,109465,128,0,109855:0:0:0:0:
109,192,109855,128,0,110168:0:0:0:0:
256,192,109855,128,0,110168:0:0:0:0:
402,192,109855,128,0,110168:0:0:0:0:
182,192,110246,128,0,110402:0:0:0:0:
329,192,110246,128,0,110558:0:0:0:0:
475,192,110246,128,0,110558:0:0:0:0:
36,192,110402,128,0,110558:0:0:0:0:
402,192,110636,128,0,110871:0:0:0:0:
475,192,110636,128,0,111027:0:0:0:0:
182,192,110636,128,0,110871:0:0:0:0:
109,192,110871,128,0,111027:0:0:0:0:
329,192,111079,128,0,111340:0:0:0:0:
36,192,111079,128,0,111340:0:0:0:0:
182,192,111079,128,0,111340:0:0:0:0:
256,192,111340,128,0,111652:0:0:0:0:
329,192,111652,128,0,111965:0:0:0:0:
475,192,111652,128,0,111965:0:0:0:0:
182,192,111652,128,0,111965:0:0:0:0:
36,192,111652,128,0,111965:0:0:0:0:
109,192,111965,128,0,112355:0:0:0:0:
36,192,112355,128,0,112642:0:0:0:0:
402,192,112355,128,0,112433:0:0:0:0:
475,192,112355,128,0,112433:0:0:0:0:
329,192,112355,128,0,112433:0:0:0:0:
182,192,112433,128,0,112642:0:0:0:0:
329,192,112642,128,0,115715:0:0:0:0:
475,192,112642,128,0,115715:0:0:0:0:
