osu file format v14

[General]
AudioFilename: audio.mp3
AudioLeadIn: 0
PreviewTime: -1
Countdown: 0
SampleSet: None
StackLeniency: 0.7
Mode: 3
LetterboxInBreaks: 0
SpecialStyle: 0
WidescreenStoryboard: 1

[Editor]
DistanceSpacing: 0.8
BeatDivisor: 4
GridSize: 32
TimelineZoom: 2.899999

[Metadata]
Title:Second fall
TitleUnicode:Second fall
Artist:banshi
ArtistUnicode:banshi
Creator:Alsty-
Version:Autumn
Source:
Tags:
BeatmapID:2811691
BeatmapSetID:491602

[Difficulty]
HPDrainRate:9
CircleSize:7
OverallDifficulty:10
ApproachRate:5
SliderMultiplier:1.4
SliderTickRate:1

[Events]
//Background and Video events
0,0,"anime_series_girl_beautiful_cute_Vocaloid_piano_Hatsune_Miku_1366x768.jpg",0,0
//Break Periods
//Storyboard Layer 0 (Background)
//Storyboard Layer 1 (Fail)
//Storyboard Layer 2 (Pass)
//Storyboard Layer 3 (Foreground)
//Storyboard Layer 4 (Overlay)
//Storyboard Sound Samples

[TimingPoints]
1965,312.5,4,1,0,12,1,0

[HitObjects]
182,192,1965,5,0,0:0:0:0:
329,192,1965,1,0,0:0:0:0:
36,192,2590,1,0,0:0:0:0:
475,192,2590,1,0,0:0:0:0:
402,192,2590,1,0,0:0:0:0:
109,192,2746,1,0,0:0:0:0:
182,192,2902,1,0,0:0:0:0:
329,192,2902,1,0,0:0:0:0:
256,192,3058,1,0,0:0:0:0:
402,192,3058,1,0,0:0:0:0:
36,192,3215,1,0,0:0:0:0:
329,192,3215,1,0,0:0:0:0:
475,192,3215,1,0,0:0:0:0:
109,192,3215,1,0,0:0:0:0:
182,192,3371,1,0,0:0:0:0:
109,192,3527,1,0,0:0:0:0:
329,192,3527,1,0,0:0:0:0:
182,192,3683,1,0,0:0:0:0:
402,192,3683,1,0,0:0:0:0:
256,192,3840,1,0,0:0:0:0:
475,192,3840,1,0,0:0:0:0:
36,192,3840,1,0,0:0:0:0:
182,192,3996,1,0,0:0:0:0:
109,192,4152,1,0,0:0:0:0:
402,192,4152,1,0,0:0:0:0:
475,192,4465,1,0,0:0:0:0:
36,192,4465,1,0,0:0:0:0:
256,192,4465,1,0,0:0:0:0:
109,192,4465,1,0,0:0:0:0:
182,192,4621,1,0,0:0:0:0:
329,192,4777,1,0,0:0:0:0:
182,192,4933,1,0,0:0:0:0:
475,192,4933,1,0,0:0:0:0:
402,192,5011,1,0,0:0:0:0:
109,192,5011,1,0,0:0:0:0:
329,192,5090,1,0,0:0:0:0:
36,192,5090,1,0,0:0:0:0:
109,192,5246,1,0,0:0:0:0:
256,192,5246,1,0,0:0:0:0:
475,192,5402,1,0,0:0:0:0:
402,192,5402,1,0,0:0:0:0:
182,192,5558,1,0,0:0:0:0:
36,192,5558,1,0,0:0:0:0:
329,192,5715,1,0,0:0:0:0:
475,192,5715,1,0,0:0:0:0:
109,192,5871,1,0,0:0:0:0:
256,192,5871,1,0,0:0:0:0:
182,192,6027,1,0,0:0:0:0:
329,192,6027,1,0,0:0:0:0:
256,192,6183,1,0,0:0:0:0:
402,192,6183,1,0,0:0:0:0:
475,192,6340,1,0,0:0:0:0:
182,192,6340,1,0,0:0:0:0:
36,192,6340,1,0,0:0:0:0:
329,192,6496,1,0,0:0:0:0:
182,192,6652,1,0,0:0:0:0:
36,192,6808,1,0,0:0:0:0:
329,192,6808,1,0,0:0:0:0:
109,192,6965,1,0,0:0:0:0:
256,192,6965,1,0,0:0:0:0:
475,192,6965,1,0,0:0:0:0:
402,192,7121,1,0,0:0:0:0:
182,192,7277,1,0,0:0:0:0:
36,192,7277,1,0,0:0:0:0:
256,192,7433,1,0,0:0:0:0:
475,192,7433,1,0,0:0:0:0:
402,192,7590,1,0,0:0:0:0:
182,192,7590,1,0,0:0:0:0:
36,192,7590,1,0,0:0:0:0:
109,192,7746,1,0,0:0:0:0:
256,192,7746,1,0,0:0:0:0:
182,192,7902,1,0,0:0:0:0:
329,192,7902,1,0,0:0:0:0:
256,192,8058,1,0,0:0:0:0:
402,192,8058,1,0,0:0:0:0:
329,192,8215,1,0,0:0:0:0:
475,192,8215,1,0,0:0:0:0:
36,192,8215,1,0,0:0:0:0:
182,192,8371,1,0,0:0:0:0:
402,192,8371,1,0,0:0:0:0:
329,192,8527,1,0,0:0:0:0:
36,192,8527,1,0,0:0:0:0:
109,192,8683,1,0,0:0:0:0:
402,192,8683,1,0,0:0:0:0:
182,192,8840,1,0,0:0:0:0:
475,192,8840,1,0,0:0:0:0:
256,192,8840,1,0,0:0:0:0:
36,192,8840,1,0,0:0:0:0:
329,192,8996,1,0,0:0:0:0:
475,192,9152,1,0,0:0:0:0:
36,192,9152,1,0,0:0:0:0:
182,192,9152,1,0,0:0:0:0:
256,192,9308,1,0,0:0:0:0:
402,192,9308,1,0,0:0:0:0:
329,192,9465,1,0,0:0:0:0:
109,192,9465,1,0,0:0:0:0:
475,192,9465,1,0,0:0:0:0:
182,192,9621,1,0,0:0:0:0:
256,192,9777,1,0,0:0:0:0:
475,192,9777,1,0,0:0:0:0:
329,192,10090,1,0,0:0:0:0:
475,192,10090,1,0,0:0:0:0:
182,192,10090,1,0,0:0:0:0:
36,192,10090,1,0,0:0:0:0:
109,192,10246,1,0,0:0:0:0:
256,192,10246,1,0,0:0:0:0:
182,192,10402,1,0,0:0:0:0:
329,192,10402,1,0,0:0:0:0:
256,192,10558,1,0,0:0:0:0:
402,192,10558,1,0,0:0:0:0:
329,192,10715,1,0,0:0:0:0:
475,192,10715,1,0,0:0:0:0:
109,192,10715,1,0,0:0:0:0:
36,192,10871,1,0,0:0:0:0:
256,192,10871,1,0,0:0:0:0:
182,192,11027,1,0,0:0:0:0:
402,192,11027,1,0,0:0:0:0:
475,192,11027,1,0,0:0:0:0:
329,192,11183,1,0,0:0:0:0:
109,192,11183,1,0,0:0:0:0:
256,192,11340,1,0,0:0:0:0:
475,192,11340,1,0,0:0:0:0:
36,192,11340,1,0,0:0:0:0:
182,192,11340,1,0,0:0:0:0:
109,192,11496,1,0,0:0:0:0:
329,192,11496,1,0,0:0:0:0:
182,192,11652,1,0,0:0:0:0:
402,192,11652,1,0,0:0:0:0:
256,192,11808,1,0,0:0:0:0:
475,192,11808,1,0,0:0:0:0:
36,192,11808,1,0,0:0:0:0:
109,192,11965,1,0,0:0:0:0:
329,192,11965,1,0,0:0:0:0:
256,192,12121,1,0,0:0:0:0:
475,192,12121,1,0,0:0:0:0:
182,192,12277,1,0,0:0:0:0:
36,192,12277,1,0,0:0:0:0:
109,192,12433,1,0,0:0:0:0:
256,192,12590,1,0,0:0:0:0:
475,192,12590,1,0,0:0:0:0:
402,192,12590,1,0,0:0:0:0:
182,192,12746,1,0,0:0:0:0:
329,192,12746,1,0,0:0:0:0:
36,192,12902,1,0,0:0:0:0:
256,192,12902,1,0,0:0:0:0:
109,192,13058,1,0,0:0:0:0:
329,192,13058,1,0,0:0:0:0:
182,192,13215,1,0,0:0:0:0:
402,192,13215,1,0,0:0:0:0:
475,192,13215,1,0,0:0:0:0:
36,192,13371,1,0,0:0:0:0:
329,192,13371,1,0,0:0:0:0:
109,192,13527,1,0,0:0:0:0:
256,192,13527,1,0,0:0:0:0:
182,192,13683,1,0,0:0:0:0:
329,192,13683,1,0,0:0:0:0:
256,192,13840,1,0,0:0:0:0:
475,192,13840,1,0,0:0:0:0:
36,192,13840,1,0,0:0:0:0:
402,192,13996,1,0,0:0:0:0:
329,192,14152,1,0,0:0:0:0:
36,192,14152,1,0,0:0:0:0:
182,192,14152,1,0,0:0:0:0:
402,192,14308,1,0,0:0:0:0:
256,192,14308,1,0,0:0:0:0:
182,192,14465,1,0,0:0:0:0:
109,192,14465,1,0,0:0:0:0:
475,192,14465,1,0,0:0:0:0:
36,192,14621,1,0,0:0:0:0:
329,192,14621,1,0,0:0:0:0:
109,192,14777,1,0,0:0:0:0:
402,192,14777,1,0,0:0:0:0:
182,192,14933,1,0,0:0:0:0:
329,192,14933,1,0,0:0:0:0:
475,192,15011,1,0,0:0:0:0:
36,192,15011,1,0,0:0:0:0:
109,192,15090,1,0,0:0:0:0:
402,192,15090,1,0,0:0:0:0:
182,192,15246,1,0,0:0:0:0:
256,192,15402,1,0,0:0:0:0:
36,192,15402,1,0,0:0:0:0:
109,192,15558,1,0,0:0:0:0:
329,192,15558,1,0,0:0:0:0:
182,192,15715,1,0,0:0:0:0:
402,192,15715,1,0,0:0:0:0:
329,192,15871,1,0,0:0:0:0:
475,192,15871,1,0,0:0:0:0:
182,192,16027,1,0,0:0:0:0:
256,192,16183,1,0,0:0:0:0:
402,192,16183,1,0,0:0:0:0:
329,192,16340,1,0,0:0:0:0:
36,192,16340,1,0,0:0:0:0:
109,192,16340,1,0,0:0:0:0:
475,192,16340,1,0,0:0:0:0:
182,192,16496,1,0,0:0:0:0:
256,192,16652,1,0,0:0:0:0:
36,192,16808,1,0,0:0:0:0:
329,192,16808,1,0,0:0:0:0:
109,192,16965,1,0,0:0:0:0:
182,192,16965,1,0,0:0:0:0:
402,192,16965,1,0,0:0:0:0:
256,192,17277,1,0,0:0:0:0:
36,192,17277,1,0,0:0:0:0:
182,192,17433,1,0,0:0:0:0:
329,192,17590,1,0,0:0:0:0:
475,192,17590,1,0,0:0:0:0:
109,192,17590,1,0,0:0:0:0:
36,192,17746,1,0,0:0:0:0:
402,192,17746,1,0,0:0:0:0:
109,192,17902,1,0,0:0:0:0:
329,192,17902,1,0,0:0:0:0:
182,192,18058,1,0,0:0:0:0:
402,192,18058,1,0,0:0:0:0:
256,192,18215,1,0,0:0:0:0:
475,192,18215,1,0,0:0:0:0:
182,192,18527,1,0,0:0:0:0:
329,192,18527,1,0,0:0:0:0:
109,192,18683,1,0,0:0:0:0:
402,192,18683,1,0,0:0:0:0:
36,192,18840,1,0,0:0:0:0:
475,192,18840,1,0,0:0:0:0:
256,192,18840,1,0,0:0:0:0:
182,192,18996,1,0,0:0:0:0:
329,192,18996,1,0,0:0:0:0:
109,192,19152,1,0,0:0:0:0:
402,192,19152,1,0,0:0:0:0:
182,192,19308,1,0,0:0:0:0:
256,192,19465,1,0,0:0:0:0:
475,192,19465,1,0,0:0:0:0:
36,192,19465,1,0,0:0:0:0:
182,192,19621,1,0,0:0:0:0:
402,192,19621,1,0,0:0:0:0:
329,192,19777,1,0,0:0:0:0:
109,192,19777,1,0,0:0:0:0:
256,192,19933,1,0,0:0:0:0:
36,192,19933,1,0,0:0:0:0:
182,192,20090,1,0,0:0:0:0:
475,192,20090,1,0,0:0:0:0:
402,192,20090,1,0,0:0:0:0:
109,192,20090,1,0,0:0:0:0:
182,192,20402,1,0,0:0:0:0:
329,192,20402,1,0,0:0:0:0:
256,192,20558,1,0,0:0:0:0:
475,192,20558,1,0,0:0:0:0:
182,192,20715,1,0,0:0:0:0:
36,192,20715,1,0,0:0:0:0:
182,192,21965,1,0,0:0:0:0:
329,192,21965,1,0,0:0:0:0:
475,192,21965,1,0,0:0:0:0:
109,192,22277,1,0,0:0:0:0:
256,192,22277,1,0,0:0:0:0:
402,192,22277,1,0,0:0:0:0:
36,192,22590,1,0,0:0:0:0:
182,192,22590,1,0,0:0:0:0:
329,192,22590,1,0,0:0:0:0:
256,192,22746,1,0,0:0:0:0:
182,192,22902,1,0,0:0:0:0:
36,192,22902,1,0,0:0:0:0:
109,192,23058,1,0,0:0:0:0:
256,192,23058,1,0,0:0:0:0:
182,192,23215,1,0,0:0:0:0:
329,192,23215,1,0,0:0:0:0:
475,192,23215,1,0,0:0:0:0:
475,192,23371,1,0,0:0:0:0:
182,192,23371,1,0,0:0:0:0:
36,192,23527,1,0,0:0:0:0:
329,192,23527,1,0,0:0:0:0:
109,192,23683,1,0,0:0:0:0:
402,192,23683,1,0,0:0:0:0:
182,192,23840,1,0,0:0:0:0:
475,192,23840,1,0,0:0:0:0:
256,192,23840,1,0,0:0:0:0:
329,192,23996,1,0,0:0:0:0:
36,192,24152,1,0,0:0:0:0:
256,192,24152,1,0,0:0:0:0:
109,192,24308,1,0,0:0:0:0:
329,192,24308,1,0,0:0:0:0:
475,192,24308,1,0,0:0:0:0:
182,192,24465,1,0,0:0:0:0:
402,192,24465,1,0,0:0:0:0:
36,192,24621,1,0,0:0:0:0:
475,192,24621,1,0,0:0:0:0:
402,192,24777,1,0,0:0:0:0:
109,192,24777,1,0,0:0:0:0:
329,192,24933,1,0,0:0:0:0:
182,192,24933,1,0,0:0:0:0:
36,192,25090,1,0,0:0:0:0:
256,192,25090,1,0,0:0:0:0:
475,192,25090,1,0,0:0:0:0:
182,192,25246,1,0,0:0:0:0:
329,192,25402,1,0,0:0:0:0:
475,192,25402,1,0,0:0:0:0:
182,192,25558,1,0,0:0:0:0:
36,192,25558,1,0,0:0:0:0:
256,192,25715,1,0,0:0:0:0:
329,192,25871,1,0,0:0:0:0:
475,192,25871,1,0,0:0:0:0:
109,192,25871,1,0,0:0:0:0:
182,192,26027,1,0,0:0:0:0:
256,192,26183,1,0,0:0:0:0:
402,192,26183,1,0,0:0:0:0:
36,192,26183,1,0,0:0:0:0:
182,192,26340,1,0,0:0:0:0:
109,192,26340,1,0,0:0:0:0:
256,192,26496,1,0,0:0:0:0:
329,192,26496,1,0,0:0:0:0:
402,192,26652,1,0,0:0:0:0:
475,192,26652,1,0,0:0:0:0:
182,192,26808,1,0,0:0:0:0:
182,192,26965,1,0,0:0:0:0:
36,192,26965,1,0,0:0:0:0:
329,192,27121,1,0,0:0:0:0:
475,192,27121,1,0,0:0:0:0:
402,192,27277,1,0,0:0:0:0:
256,192,27277,1,0,0:0:0:0:
182,192,27433,1,0,0:0:0:0:
36,192,27433,1,0,0:0:0:0:
109,192,27590,1,0,0:0:0:0:
256,192,27590,1,0,0:0:0:0:
329,192,27590,1,0,0:0:0:0:
475,192,27590,1,0,0:0:0:0:
402,192,27746,1,0,0:0:0:0:
182,192,27746,1,0,0:0:0:0:
256,192,27902,1,0,0:0:0:0:
36,192,27902,1,0,0:0:0:0:
109,192,28058,1,0,0:0:0:0:
329,192,28058,1,0,0:0:0:0:
182,192,28215,1,0,0:0:0:0:
36,192,28215,1,0,0:0:0:0:
256,192,28215,1,0,0:0:0:0:
475,192,28215,1,0,0:0:0:0:
329,192,28527,1,0,0:0:0:0:
402,192,28683,1,0,0:0:0:0:
36,192,28840,1,0,0:0:0:0:
475,192,28840,1,0,0:0:0:0:
182,192,28840,1,0,0:0:0:0:
402,192,28996,1,0,0:0:0:0:
109,192,28996,1,0,0:0:0:0:
182,192,29152,1,0,0:0:0:0:
329,192,29152,1,0,0:0:0:0:
36,192,29308,1,0,0:0:0:0:
475,192,29308,1,0,0:0:0:0:
402,192,29465,1,0,0:0:0:0:
109,192,29465,1,0,0:0:0:0:
256,192,29465,1,0,0:0:0:0:
36,192,29621,1,0,0:0:0:0:
475,192,29621,1,0,0:0:0:0:
402,192,29777,1,0,0:0:0:0:
109,192,29777,1,0,0:0:0:0:
182,192,29933,1,0,0:0:0:0:
329,192,29933,1,0,0:0:0:0:
329,192,30090,1,0,0:0:0:0:
182,192,30090,1,0,0:0:0:0:
36,192,30090,1,0,0:0:0:0:
475,192,30090,1,0,0:0:0:0:
256,192,30246,1,0,0:0:0:0:
109,192,30246,1,0,0:0:0:0:
182,192,30402,1,0,0:0:0:0:
329,192,30402,1,0,0:0:0:0:
256,192,30558,1,0,0:0:0:0:
402,192,30558,1,0,0:0:0:0:
475,192,30558,1,0,0:0:0:0:
182,192,30715,1,0,0:0:0:0:
329,192,30871,1,0,0:0:0:0:
36,192,30871,1,0,0:0:0:0:
109,192,31027,1,0,0:0:0:0:
256,192,31027,1,0,0:0:0:0:
182,192,31183,1,0,0:0:0:0:
329,192,31183,1,0,0:0:0:0:
256,192,31340,1,0,0:0:0:0:
402,192,31340,1,0,0:0:0:0:
36,192,31340,1,0,0:0:0:0:
109,192,31496,1,0,0:0:0:0:
329,192,31496,1,0,0:0:0:0:
256,192,31652,1,0,0:0:0:0:
475,192,31652,1,0,0:0:0:0:
402,192,31808,1,0,0:0:0:0:
182,192,31808,1,0,0:0:0:0:
109,192,31808,1,0,0:0:0:0:
329,192,31965,1,0,0:0:0:0:
36,192,31965,1,0,0:0:0:0:
109,192,32121,1,0,0:0:0:0:
256,192,32121,1,0,0:0:0:0:
109,192,32277,1,0,0:0:0:0:
256,192,32277,1,0,0:0:0:0:
182,192,32433,1,0,0:0:0:0:
329,192,32433,1,0,0:0:0:0:
475,192,32590,1,0,0:0:0:0:
329,192,32590,1,0,0:0:0:0:
109,192,32590,1,0,0:0:0:0:
36,192,32590,1,0,0:0:0:0:
256,192,32746,1,0,0:0:0:0:
109,192,32902,1,0,0:0:0:0:
329,192,32902,1,0,0:0:0:0:
36,192,33058,1,0,0:0:0:0:
402,192,33058,1,0,0:0:0:0:
182,192,33215,1,0,0:0:0:0:
475,192,33215,1,0,0:0:0:0:
256,192,33371,1,0,0:0:0:0:
36,192,33371,1,0,0:0:0:0:
475,192,33527,1,0,0:0:0:0:
329,192,33527,1,0,0:0:0:0:
256,192,33683,1,0,0:0:0:0:
109,192,33683,1,0,0:0:0:0:
182,192,33840,1,0,0:0:0:0:
402,192,33840,1,0,0:0:0:0:
36,192,33840,1,0,0:0:0:0:
475,192,33840,1,0,0:0:0:0:
256,192,33996,1,0,0:0:0:0:
329,192,34152,1,0,0:0:0:0:
475,192,34152,1,0,0:0:0:0:
402,192,34308,1,0,0:0:0:0:
256,192,34308,1,0,0:0:0:0:
329,192,34465,1,0,0:0:0:0:
182,192,34465,1,0,0:0:0:0:
36,192,34465,1,0,0:0:0:0:
109,192,34621,1,0,0:0:0:0:
256,192,34621,1,0,0:0:0:0:
182,192,34777,1,0,0:0:0:0:
36,192,34777,1,0,0:0:0:0:
109,192,34933,1,0,0:0:0:0:
329,192,34933,1,0,0:0:0:0:
182,192,35090,1,0,0:0:0:0:
402,192,35090,1,0,0:0:0:0:
475,192,35090,1,0,0:0:0:0:
329,192,35246,1,0,0:0:0:0:
256,192,35402,1,0,0:0:0:0:
36,192,35402,1,0,0:0:0:0:
475,192,35558,1,0,0:0:0:0:
402,192,35558,1,0,0:0:0:0:
109,192,35715,1,0,0:0:0:0:
182,192,35871,1,0,0:0:0:0:
329,192,35871,1,0,0:0:0:0:
402,192,36027,1,0,0:0:0:0:
109,192,36183,1,0,0:0:0:0:
36,192,36183,1,0,0:0:0:0:
256,192,36340,1,0,0:0:0:0:
182,192,36496,1,0,0:0:0:0:
109,192,36652,1,0,0:0:0:0:
329,192,36652,1,0,0:0:0:0:
475,192,36652,1,0,0:0:0:0:
256,192,36808,1,0,0:0:0:0:
182,192,36965,1,0,0:0:0:0:
36,192,36965,1,0,0:0:0:0:
402,192,36965,1,0,0:0:0:0:
329,192,37121,1,0,0:0:0:0:
402,192,37277,1,0,0:0:0:0:
475,192,37277,1,0,0:0:0:0:
256,192,37277,1,0,0:0:0:0:
109,192,37277,1,0,0:0:0:0:
182,192,37433,1,0,0:0:0:0:
109,192,37590,1,0,0:0:0:0:
36,192,37590,1,0,0:0:0:0:
329,192,37590,1,0,0:0:0:0:
475,192,37590,1,0,0:0:0:0:
256,192,37746,1,0,0:0:0:0:
182,192,37902,1,0,0:0:0:0:
36,192,37902,1,0,0:0:0:0:
109,192,38058,1,0,0:0:0:0:
329,192,38058,1,0,0:0:0:0:
475,192,38058,1,0,0:0:0:0:
256,192,38215,1,0,0:0:0:0:
182,192,38371,1,0,0:0:0:0:
109,192,38527,1,0,0:0:0:0:
36,192,38527,1,0,0:0:0:0:
329,192,38527,1,0,0:0:0:0:
475,192,38527,1,0,0:0:0:0:
402,192,38683,1,0,0:0:0:0:
256,192,38840,1,0,0:0:0:0:
402,192,38840,1,0,0:0:0:0:
182,192,38840,1,0,0:0:0:0:
36,192,38840,1,0,0:0:0:0:
329,192,38996,1,0,0:0:0:0:
256,192,39152,1,0,0:0:0:0:
402,192,39152,1,0,0:0:0:0:
36,192,39152,1,0,0:0:0:0:
329,192,39308,1,0,0:0:0:0:
475,192,39308,1,0,0:0:0:0:
109,192,39465,1,0,0:0:0:0:
256,192,39465,1,0,0:0:0:0:
182,192,39621,1,0,0:0:0:0:
36,192,39621,1,0,0:0:0:0:
256,192,39777,1,0,0:0:0:0:
475,192,39777,1,0,0:0:0:0:
182,192,39933,1,0,0:0:0:0:
402,192,39933,1,0,0:0:0:0:
329,192,40090,1,0,0:0:0:0:
109,192,40090,1,0,0:0:0:0:
36,192,40090,1,0,0:0:0:0:
256,192,40402,1,0,0:0:0:0:
182,192,40558,1,0,0:0:0:0:
329,192,40558,1,0,0:0:0:0:
475,192,40558,1,0,0:0:0:0:
109,192,40715,1,0,0:0:0:0:
36,192,40715,1,0,0:0:0:0:
256,192,40871,1,0,0:0:0:0:
402,192,40871,1,0,0:0:0:0:
182,192,41027,1,0,0:0:0:0:
329,192,41183,1,0,0:0:0:0:
182,192,41340,1,0,0:0:0:0:
329,192,41496,1,0,0:0:0:0:
182,192,41652,1,0,0:0:0:0:
109,192,41965,1,0,0:0:0:0:
329,192,41965,1,0,0:0:0:0:
475,192,41965,1,0,0:0:0:0:
256,192,42277,1,0,0:0:0:0:
402,192,42277,1,0,0:0:0:0:
36,192,42277,1,0,0:0:0:0:
402,192,42590,1,0,0:0:0:0:
475,192,42590,1,0,0:0:0:0:
182,192,42590,1,0,0:0:0:0:
402,192,43527,1,0,0:0:0:0:
256,192,43527,1,0,0:0:0:0:
109,192,43527,1,0,0:0:0:0:
182,192,44152,1,0,0:0:0:0:
329,192,44152,1,0,0:0:0:0:
475,192,44152,1,0,0:0:0:0:
182,192,44777,1,0,0:0:0:0:
36,192,44777,1,0,0:0:0:0:
109,192,45090,1,0,0:0:0:0:
36,192,45090,1,0,0:0:0:0:
329,192,45090,1,0,0:0:0:0:
329,192,45402,1,0,0:0:0:0:
475,192,45402,1,0,0:0:0:0:
182,192,45558,1,0,0:0:0:0:
109,192,45558,1,0,0:0:0:0:
329,192,45715,1,0,0:0:0:0:
475,192,45715,1,0,0:0:0:0:
36,192,46965,1,0,0:0:0:0:
256,192,46965,1,0,0:0:0:0:
109,192,47277,1,0,0:0:0:0:
329,192,47277,1,0,0:0:0:0:
182,192,47590,1,0,0:0:0:0:
36,192,47590,1,0,0:0:0:0:
329,192,47590,1,0,0:0:0:0:
475,192,47590,1,0,0:0:0:0:
329,192,47902,1,0,0:0:0:0:
475,192,47902,1,0,0:0:0:0:
182,192,48058,1,0,0:0:0:0:
109,192,48527,1,0,0:0:0:0:
256,192,48527,1,0,0:0:0:0:
329,192,48527,1,0,0:0:0:0:
475,192,48527,1,0,0:0:0:0:
182,192,49152,1,0,0:0:0:0:
402,192,49152,1,0,0:0:0:0:
109,192,49777,1,0,0:0:0:0:
329,192,49777,1,0,0:0:0:0:
109,192,50090,1,0,0:0:0:0:
36,192,50090,1,0,0:0:0:0:
256,192,50090,1,0,0:0:0:0:
402,192,50090,1,0,0:0:0:0:
329,192,51027,1,0,0:0:0:0:
402,192,51027,1,0,0:0:0:0:
329,192,51965,1,0,0:0:0:0:
475,192,51965,1,0,0:0:0:0:
36,192,51965,1,0,0:0:0:0:
256,192,51965,1,0,0:0:0:0:
402,192,52277,1,0,0:0:0:0:
182,192,52277,1,0,0:0:0:0:
402,192,52590,1,0,0:0:0:0:
475,192,52590,1,0,0:0:0:0:
256,192,52590,1,0,0:0:0:0:
109,192,52590,1,0,0:0:0:0:
329,192,52902,1,0,0:0:0:0:
36,192,52902,1,0,0:0:0:0:
182,192,53527,1,0,0:0:0:0:
402,192,53527,1,0,0:0:0:0:
329,192,53840,1,0,0:0:0:0:
36,192,53840,1,0,0:0:0:0:
109,192,53840,1,0,0:0:0:0:
475,192,53840,1,0,0:0:0:0:
402,192,54152,1,0,0:0:0:0:
256,192,54152,1,0,0:0:0:0:
109,192,54777,1,0,0:0:0:0:
475,192,54777,1,0,0:0:0:0:
329,192,55090,1,0,0:0:0:0:
475,192,55090,1,0,0:0:0:0:
36,192,55090,1,0,0:0:0:0:
256,192,55090,1,0,0:0:0:0:
182,192,55715,1,0,0:0:0:0:
329,192,55715,1,0,0:0:0:0:
329,192,56340,1,0,0:0:0:0:
475,192,56340,1,0,0:0:0:0:
182,192,56340,1,0,0:0:0:0:
109,192,56340,1,0,0:0:0:0:
36,192,56965,1,0,0:0:0:0:
256,192,56965,1,0,0:0:0:0:
109,192,57590,1,0,0:0:0:0:
36,192,57590,1,0,0:0:0:0:
329,192,57590,1,0,0:0:0:0:
475,192,57590,1,0,0:0:0:0:
182,192,58058,1,0,0:0:0:0:
402,192,58058,1,0,0:0:0:0:
256,192,58840,1,0,0:0:0:0:
36,192,58840,1,0,0:0:0:0:
109,192,58840,1,0,0:0:0:0:
475,192,58840,1,0,0:0:0:0:
36,192,59621,1,0,0:0:0:0:
256,192,59621,1,0,0:0:0:0:
109,192,59777,1,0,0:0:0:0:
329,192,59777,1,0,0:0:0:0:
182,192,59933,1,0,0:0:0:0:
402,192,59933,1,0,0:0:0:0:
182,192,60090,1,0,0:0:0:0:
36,192,60090,1,0,0:0:0:0:
329,192,60090,1,0,0:0:0:0:
256,192,60402,1,0,0:0:0:0:
36,192,60402,1,0,0:0:0:0:
402,192,60402,1,0,0:0:0:0:
475,192,60402,1,0,0:0:0:0:
109,192,60558,1,0,0:0:0:0:
329,192,60558,1,0,0:0:0:0:
182,192,60715,1,0,0:0:0:0:
402,192,60715,1,0,0:0:0:0:
329,192,60871,1,0,0:0:0:0:
475,192,61027,1,0,0:0:0:0:
36,192,61027,1,0,0:0:0:0:
182,192,61340,1,0,0:0:0:0:
36,192,61340,1,0,0:0:0:0:
329,192,61340,1,0,0:0:0:0:
475,192,61340,1,0,0:0:0:0:
109,192,61496,1,0,0:0:0:0:
256,192,61496,1,0,0:0:0:0:
402,192,61496,1,0,0:0:0:0:
182,192,61652,1,0,0:0:0:0:
329,192,61652,1,0,0:0:0:0:
475,192,61652,1,0,0:0:0:0:
36,192,61652,1,0,0:0:0:0:
256,192,61808,1,0,0:0:0:0:
109,192,61808,1,0,0:0:0:0:
402,192,61965,1,0,0:0:0:0:
182,192,61965,1,0,0:0:0:0:
402,192,62121,1,0,0:0:0:0:
256,192,62277,1,0,0:0:0:0:
36,192,62277,1,0,0:0:0:0:
109,192,62277,1,0,0:0:0:0:
402,192,62433,1,0,0:0:0:0:
329,192,62590,1,0,0:0:0:0:
475,192,62590,1,0,0:0:0:0:
182,192,62590,1,0,0:0:0:0:
36,192,62590,1,0,0:0:0:0:
109,192,62746,1,0,0:0:0:0:
402,192,62746,1,0,0:0:0:0:
329,192,62902,1,0,0:0:0:0:
36,192,62902,1,0,0:0:0:0:
109,192,63058,1,0,0:0:0:0:
402,192,63058,1,0,0:0:0:0:
182,192,63215,1,0,0:0:0:0:
475,192,63215,1,0,0:0:0:0:
256,192,63371,1,0,0:0:0:0:
36,192,63371,1,0,0:0:0:0:
109,192,63527,1,0,0:0:0:0:
329,192,63527,1,0,0:0:0:0:
182,192,63683,1,0,0:0:0:0:
402,192,63683,1,0,0:0:0:0:
256,192,63840,1,0,0:0:0:0:
475,192,63840,1,0,0:0:0:0:
36,192,63840,1,0,0:0:0:0:
109,192,63996,1,0,0:0:0:0:
182,192,64152,1,0,0:0:0:0:
475,192,64152,1,0,0:0:0:0:
109,192,64308,1,0,0:0:0:0:
329,192,64308,1,0,0:0:0:0:
402,192,64465,1,0,0:0:0:0:
36,192,64465,1,0,0:0:0:0:
256,192,64621,1,0,0:0:0:0:
329,192,64777,1,0,0:0:0:0:
475,192,64777,1,0,0:0:0:0:
402,192,64933,1,0,0:0:0:0:
182,192,64933,1,0,0:0:0:0:
36,192,64933,1,0,0:0:0:0:
109,192,65011,1,0,0:0:0:0:
256,192,65011,1,0,0:0:0:0:
329,192,65090,1,0,0:0:0:0:
475,192,65090,1,0,0:0:0:0:
182,192,65090,1,0,0:0:0:0:
256,192,65246,1,0,0:0:0:0:
182,192,65402,1,0,0:0:0:0:
402,192,65402,1,0,0:0:0:0:
109,192,65558,1,0,0:0:0:0:
329,192,65558,1,0,0:0:0:0:
256,192,65715,1,0,0:0:0:0:
475,192,65715,1,0,0:0:0:0:
36,192,65715,1,0,0:0:0:0:
182,192,65715,1,0,0:0:0:0:
402,192,65871,1,0,0:0:0:0:
109,192,66027,1,0,0:0:0:0:
329,192,66027,1,0,0:0:0:0:
256,192,66183,1,0,0:0:0:0:
36,192,66183,1,0,0:0:0:0:
182,192,66340,1,0,0:0:0:0:
36,192,66340,1,0,0:0:0:0:
329,192,66340,1,0,0:0:0:0:
402,192,66340,1,0,0:0:0:0:
475,192,66496,1,0,0:0:0:0:
256,192,66652,1,0,0:0:0:0:
36,192,66652,1,0,0:0:0:0:
182,192,66808,1,0,0:0:0:0:
402,192,66808,1,0,0:0:0:0:
329,192,66965,1,0,0:0:0:0:
475,192,66965,1,0,0:0:0:0:
109,192,66965,1,0,0:0:0:0:
36,192,66965,1,0,0:0:0:0:
36,192,67277,1,0,0:0:0:0:
182,192,67277,1,0,0:0:0:0:
329,192,67277,1,0,0:0:0:0:
182,192,67433,1,0,0:0:0:0:
109,192,67590,1,0,0:0:0:0:
256,192,67590,1,0,0:0:0:0:
402,192,67590,1,0,0:0:0:0:
475,192,67590,1,0,0:0:0:0:
329,192,67746,1,0,0:0:0:0:
256,192,67902,1,0,0:0:0:0:
36,192,67902,1,0,0:0:0:0:
109,192,68058,1,0,0:0:0:0:
329,192,68058,1,0,0:0:0:0:
182,192,68215,1,0,0:0:0:0:
402,192,68215,1,0,0:0:0:0:
36,192,68371,1,0,0:0:0:0:
329,192,68371,1,0,0:0:0:0:
402,192,68527,1,0,0:0:0:0:
109,192,68527,1,0,0:0:0:0:
475,192,68683,1,0,0:0:0:0:
182,192,68683,1,0,0:0:0:0:
256,192,68840,1,0,0:0:0:0:
402,192,68840,1,0,0:0:0:0:
36,192,68840,1,0,0:0:0:0:
475,192,68996,1,0,0:0:0:0:
109,192,68996,1,0,0:0:0:0:
329,192,69152,1,0,0:0:0:0:
182,192,69152,1,0,0:0:0:0:
36,192,69152,1,0,0:0:0:0:
256,192,69308,1,0,0:0:0:0:
36,192,69465,1,0,0:0:0:0:
402,192,69465,1,0,0:0:0:0:
109,192,69465,1,0,0:0:0:0:
182,192,69621,1,0,0:0:0:0:
329,192,69621,1,0,0:0:0:0:
475,192,69621,1,0,0:0:0:0:
402,192,69777,1,0,0:0:0:0:
256,192,69777,1,0,0:0:0:0:
109,192,69777,1,0,0:0:0:0:
329,192,69933,1,0,0:0:0:0:
182,192,69933,1,0,0:0:0:0:
36,192,69933,1,0,0:0:0:0:
36,192,70090,1,0,0:0:0:0:
182,192,70090,1,0,0:0:0:0:
329,192,70090,1,0,0:0:0:0:
475,192,70090,1,0,0:0:0:0:
256,192,70246,1,0,0:0:0:0:
182,192,70402,1,0,0:0:0:0:
36,192,70402,1,0,0:0:0:0:
256,192,70558,1,0,0:0:0:0:
402,192,70558,1,0,0:0:0:0:
329,192,70715,1,0,0:0:0:0:
475,192,70715,1,0,0:0:0:0:
109,192,70715,1,0,0:0:0:0:
182,192,70871,1,0,0:0:0:0:
36,192,70871,1,0,0:0:0:0:
402,192,71027,1,0,0:0:0:0:
329,192,71183,1,0,0:0:0:0:
36,192,71340,1,0,0:0:0:0:
182,192,71340,1,0,0:0:0:0:
256,192,71340,1,0,0:0:0:0:
475,192,71340,1,0,0:0:0:0:
109,192,71496,1,0,0:0:0:0:
182,192,71652,1,0,0:0:0:0:
329,192,71652,1,0,0:0:0:0:
475,192,71652,1,0,0:0:0:0:
256,192,71808,1,0,0:0:0:0:
109,192,71808,1,0,0:0:0:0:
36,192,71808,1,0,0:0:0:0:
182,192,71965,1,0,0:0:0:0:
329,192,71965,1,0,0:0:0:0:
475,192,71965,1,0,0:0:0:0:
402,192,71965,1,0,0:0:0:0:
329,192,72277,1,0,0:0:0:0:
109,192,72277,1,0,0:0:0:0:
36,192,72433,1,0,0:0:0:0:
256,192,72433,1,0,0:0:0:0:
475,192,72590,1,0,0:0:0:0:
329,192,72590,1,0,0:0:0:0:
182,192,72590,1,0,0:0:0:0:
109,192,72590,1,0,0:0:0:0:
256,192,72746,1,0,0:0:0:0:
36,192,72746,1,0,0:0:0:0:
109,192,72902,1,0,0:0:0:0:
329,192,72902,1,0,0:0:0:0:
182,192,73058,1,0,0:0:0:0:
402,192,73058,1,0,0:0:0:0:
256,192,73215,1,0,0:0:0:0:
475,192,73215,1,0,0:0:0:0:
36,192,73215,1,0,0:0:0:0:
182,192,73371,1,0,0:0:0:0:
329,192,73371,1,0,0:0:0:0:
36,192,73527,1,0,0:0:0:0:
475,192,73527,1,0,0:0:0:0:
329,192,73683,1,0,0:0:0:0:
182,192,73683,1,0,0:0:0:0:
109,192,73840,1,0,0:0:0:0:
256,192,73840,1,0,0:0:0:0:
402,192,73840,1,0,0:0:0:0:
36,192,73996,1,0,0:0:0:0:
329,192,74152,1,0,0:0:0:0:
475,192,74152,1,0,0:0:0:0:
182,192,74152,1,0,0:0:0:0:
109,192,74308,1,0,0:0:0:0:
256,192,74308,1,0,0:0:0:0:
182,192,74465,1,0,0:0:0:0:
36,192,74465,1,0,0:0:0:0:
402,192,74465,1,0,0:0:0:0:
329,192,74621,1,0,0:0:0:0:
256,192,74621,1,0,0:0:0:0:
109,192,74777,1,0,0:0:0:0:
402,192,74777,1,0,0:0:0:0:
475,192,74777,1,0,0:0:0:0:
256,192,74777,1,0,0:0:0:0:
329,192,74933,1,0,0:0:0:0:
36,192,74933,1,0,0:0:0:0:
182,192,74933,1,0,0:0:0:0:
402,192,75090,1,0,0:0:0:0:
475,192,75090,1,0,0:0:0:0:
256,192,75090,1,0,0:0:0:0:
182,192,75246,1,0,0:0:0:0:
36,192,75246,1,0,0:0:0:0:
109,192,75402,1,0,0:0:0:0:
256,192,75402,1,0,0:0:0:0:
329,192,75558,1,0,0:0:0:0:
475,192,75558,1,0,0:0:0:0:
402,192,75715,1,0,0:0:0:0:
256,192,75715,1,0,0:0:0:0:
182,192,75871,1,0,0:0:0:0:
36,192,75871,1,0,0:0:0:0:
329,192,75871,1,0,0:0:0:0:
109,192,76027,1,0,0:0:0:0:
256,192,76027,1,0,0:0:0:0:
402,192,76027,1,0,0:0:0:0:
182,192,76183,1,0,0:0:0:0:
329,192,76183,1,0,0:0:0:0:
475,192,76183,1,0,0:0:0:0:
256,192,76340,1,0,0:0:0:0:
36,192,76340,1,0,0:0:0:0:
402,192,76340,1,0,0:0:0:0:
109,192,76340,1,0,0:0:0:0:
182,192,76496,1,0,0:0:0:0:
109,192,76652,1,0,0:0:0:0:
329,192,76652,1,0,0:0:0:0:
475,192,76652,1,0,0:0:0:0:
402,192,76652,1,0,0:0:0:0:
256,192,76808,1,0,0:0:0:0:
182,192,76965,1,0,0:0:0:0:
402,192,76965,1,0,0:0:0:0:
36,192,76965,1,0,0:0:0:0:
109,192,76965,1,0,0:0:0:0:
329,192,77121,1,0,0:0:0:0:
475,192,77121,1,0,0:0:0:0:
182,192,77277,1,0,0:0:0:0:
109,192,77277,1,0,0:0:0:0:
256,192,77433,1,0,0:0:0:0:
402,192,77433,1,0,0:0:0:0:
329,192,77590,1,0,0:0:0:0:
475,192,77590,1,0,0:0:0:0:
182,192,77590,1,0,0:0:0:0:
36,192,77590,1,0,0:0:0:0:
109,192,77746,1,0,0:0:0:0:
182,192,77902,1,0,0:0:0:0:
256,192,78058,1,0,0:0:0:0:
475,192,78058,1,0,0:0:0:0:
329,192,78058,1,0,0:0:0:0:
182,192,78215,1,0,0:0:0:0:
402,192,78371,1,0,0:0:0:0:
256,192,78527,1,0,0:0:0:0:
36,192,78527,1,0,0:0:0:0:
109,192,78683,1,0,0:0:0:0:
475,192,78683,1,0,0:0:0:0:
329,192,78683,1,0,0:0:0:0:
182,192,78683,1,0,0:0:0:0:
402,192,78840,1,0,0:0:0:0:
36,192,78840,1,0,0:0:0:0:
256,192,78840,1,0,0:0:0:0:
182,192,78996,1,0,0:0:0:0:
256,192,79152,1,0,0:0:0:0:
36,192,79152,1,0,0:0:0:0:
475,192,79152,1,0,0:0:0:0:
402,192,79308,1,0,0:0:0:0:
182,192,79465,1,0,0:0:0:0:
36,192,79465,1,0,0:0:0:0:
329,192,79465,1,0,0:0:0:0:
109,192,79621,1,0,0:0:0:0:
256,192,79621,1,0,0:0:0:0:
402,192,79621,1,0,0:0:0:0:
36,192,79777,1,0,0:0:0:0:
329,192,79777,1,0,0:0:0:0:
475,192,79777,1,0,0:0:0:0:
182,192,79777,1,0,0:0:0:0:
402,192,79933,1,0,0:0:0:0:
109,192,79933,1,0,0:0:0:0:
182,192,79933,1,0,0:0:0:0:
256,192,80090,1,0,0:0:0:0:
36,192,80090,1,0,0:0:0:0:
329,192,80090,1,0,0:0:0:0:
475,192,80090,1,0,0:0:0:0:
182,192,80246,1,0,0:0:0:0:
109,192,80402,1,0,0:0:0:0:
402,192,80402,1,0,0:0:0:0:
329,192,80558,1,0,0:0:0:0:
475,192,80558,1,0,0:0:0:0:
36,192,80558,1,0,0:0:0:0:
256,192,80715,1,0,0:0:0:0:
109,192,80715,1,0,0:0:0:0:
182,192,80871,1,0,0:0:0:0:
36,192,80871,1,0,0:0:0:0:
329,192,81027,1,0,0:0:0:0:
475,192,81027,1,0,0:0:0:0:
256,192,81183,1,0,0:0:0:0:
182,192,81340,1,0,0:0:0:0:
36,192,81340,1,0,0:0:0:0:
402,192,81340,1,0,0:0:0:0:
475,192,81340,1,0,0:0:0:0:
109,192,81496,1,0,0:0:0:0:
256,192,81496,1,0,0:0:0:0:
182,192,81652,1,0,0:0:0:0:
329,192,81652,1,0,0:0:0:0:
402,192,81808,1,0,0:0:0:0:
475,192,81965,1,0,0:0:0:0:
36,192,81965,1,0,0:0:0:0:
182,192,81965,1,0,0:0:0:0:
329,192,81965,1,0,0:0:0:0:
256,192,82121,1,0,0:0:0:0:
182,192,82277,1,0,0:0:0:0:
36,192,82277,1,0,0:0:0:0:
402,192,82277,1,0,0:0:0:0:
256,192,82433,1,0,0:0:0:0:
329,192,82590,1,0,0:0:0:0:
402,192,82590,1,0,0:0:0:0:
475,192,82590,1,0,0:0:0:0:
109,192,82590,1,0,0:0:0:0:
182,192,82746,1,0,0:0:0:0:
256,192,82902,1,0,0:0:0:0:
36,192,82902,1,0,0:0:0:0:
109,192,83058,1,0,0:0:0:0:
329,192,83058,1,0,0:0:0:0:
182,192,83215,1,0,0:0:0:0:
402,192,83215,1,0,0:0:0:0:
329,192,83371,1,0,0:0:0:0:
475,192,83371,1,0,0:0:0:0:
402,192,83527,1,0,0:0:0:0:
256,192,83527,1,0,0:0:0:0:
182,192,83683,1,0,0:0:0:0:
36,192,83683,1,0,0:0:0:0:
109,192,83840,1,0,0:0:0:0:
256,192,83840,1,0,0:0:0:0:
475,192,83840,1,0,0:0:0:0:
402,192,83996,1,0,0:0:0:0:
329,192,84152,1,0,0:0:0:0:
36,192,84152,1,0,0:0:0:0:
182,192,84152,1,0,0:0:0:0:
109,192,84308,1,0,0:0:0:0:
402,192,84308,1,0,0:0:0:0:
182,192,84465,1,0,0:0:0:0:
475,192,84465,1,0,0:0:0:0:
329,192,84465,1,0,0:0:0:0:
36,192,84777,1,0,0:0:0:0:
182,192,84777,1,0,0:0:0:0:
475,192,84777,1,0,0:0:0:0:
256,192,84933,1,0,0:0:0:0:
402,192,84933,1,0,0:0:0:0:
109,192,84933,1,0,0:0:0:0:
329,192,85011,1,0,0:0:0:0:
182,192,85011,1,0,0:0:0:0:
109,192,85090,1,0,0:0:0:0:
256,192,85090,1,0,0:0:0:0:
402,192,85090,1,0,0:0:0:0:
182,192,85246,1,0,0:0:0:0:
36,192,85402,1,0,0:0:0:0:
329,192,85402,1,0,0:0:0:0:
182,192,85558,1,0,0:0:0:0:
475,192,85558,1,0,0:0:0:0:
329,192,85715,1,0,0:0:0:0:
475,192,85715,1,0,0:0:0:0:
109,192,85715,1,0,0:0:0:0:
36,192,85715,1,0,0:0:0:0:
256,192,85871,1,0,0:0:0:0:
182,192,86027,1,0,0:0:0:0:
36,192,86027,1,0,0:0:0:0:
256,192,86183,1,0,0:0:0:0:
475,192,86183,1,0,0:0:0:0:
402,192,86340,1,0,0:0:0:0:
109,192,86340,1,0,0:0:0:0:
329,192,86340,1,0,0:0:0:0:
36,192,86340,1,0,0:0:0:0:
182,192,86496,1,0,0:0:0:0:
256,192,86652,1,0,0:0:0:0:
402,192,86808,1,0,0:0:0:0:
475,192,86808,1,0,0:0:0:0:
182,192,86808,1,0,0:0:0:0:
36,192,86808,1,0,0:0:0:0:
329,192,86965,1,0,0:0:0:0:
256,192,87121,1,0,0:0:0:0:
109,192,87121,1,0,0:0:0:0:
182,192,87277,1,0,0:0:0:0:
329,192,87277,1,0,0:0:0:0:
36,192,87277,1,0,0:0:0:0:
256,192,87433,1,0,0:0:0:0:
182,192,87590,1,0,0:0:0:0:
329,192,87590,1,0,0:0:0:0:
475,192,87590,1,0,0:0:0:0:
109,192,87590,1,0,0:0:0:0:
36,192,87746,1,0,0:0:0:0:
109,192,87902,1,0,0:0:0:0:
329,192,87902,1,0,0:0:0:0:
182,192,88058,1,0,0:0:0:0:
402,192,88058,1,0,0:0:0:0:
256,192,88215,1,0,0:0:0:0:
475,192,88215,1,0,0:0:0:0:
36,192,88215,1,0,0:0:0:0:
109,192,88371,1,0,0:0:0:0:
329,192,88371,1,0,0:0:0:0:
182,192,88527,1,0,0:0:0:0:
475,192,88527,1,0,0:0:0:0:
256,192,88683,1,0,0:0:0:0:
402,192,88683,1,0,0:0:0:0:
475,192,88840,1,0,0:0:0:0:
182,192,88840,1,0,0:0:0:0:
36,192,88840,1,0,0:0:0:0:
109,192,88996,1,0,0:0:0:0:
182,192,89152,1,0,0:0:0:0:
402,192,89152,1,0,0:0:0:0:
329,192,89308,1,0,0:0:0:0:
256,192,89465,1,0,0:0:0:0:
475,192,89465,1,0,0:0:0:0:
109,192,89465,1,0,0:0:0:0:
475,192,89621,1,0,0:0:0:0:
329,192,89621,1,0,0:0:0:0:
402,192,89777,1,0,0:0:0:0:
256,192,89777,1,0,0:0:0:0:
329,192,89933,1,0,0:0:0:0:
182,192,89933,1,0,0:0:0:0:
256,192,90090,1,0,0:0:0:0:
109,192,90090,1,0,0:0:0:0:
36,192,90090,1,0,0:0:0:0:
475,192,90090,1,0,0:0:0:0:
402,192,90246,1,0,0:0:0:0:
329,192,90402,1,0,0:0:0:0:
109,192,90402,1,0,0:0:0:0:
182,192,90558,1,0,0:0:0:0:
402,192,90558,1,0,0:0:0:0:
256,192,90715,1,0,0:0:0:0:
475,192,90715,1,0,0:0:0:0:
36,192,90871,1,0,0:0:0:0:
182,192,91027,1,0,0:0:0:0:
109,192,91183,1,0,0:0:0:0:
256,192,91183,1,0,0:0:0:0:
329,192,91340,1,0,0:0:0:0:
475,192,91340,1,0,0:0:0:0:
36,192,91340,1,0,0:0:0:0:
256,192,91496,1,0,0:0:0:0:
329,192,91652,1,0,0:0:0:0:
475,192,91652,1,0,0:0:0:0:
182,192,91652,1,0,0:0:0:0:
36,192,91652,1,0,0:0:0:0:
109,192,91808,1,0,0:0:0:0:
256,192,91808,1,0,0:0:0:0:
402,192,91808,1,0,0:0:0:0:
329,192,91965,1,0,0:0:0:0:
475,192,91965,1,0,0:0:0:0:
182,192,91965,1,0,0:0:0:0:
36,192,91965,1,0,0:0:0:0:
36,192,92277,1,0,0:0:0:0:
182,192,92277,1,0,0:0:0:0:
402,192,92277,1,0,0:0:0:0:
109,192,92590,1,0,0:0:0:0:
256,192,92590,1,0,0:0:0:0:
402,192,92590,1,0,0:0:0:0:
475,192,92590,1,0,0:0:0:0:
329,192,92746,1,0,0:0:0:0:
182,192,92902,1,0,0:0:0:0:
256,192,92902,1,0,0:0:0:0:
109,192,93058,1,0,0:0:0:0:
329,192,93058,1,0,0:0:0:0:
402,192,93215,1,0,0:0:0:0:
475,192,93215,1,0,0:0:0:0:
36,192,93215,1,0,0:0:0:0:
182,192,93371,1,0,0:0:0:0:
329,192,93371,1,0,0:0:0:0:
109,192,93527,1,0,0:0:0:0:
402,192,93527,1,0,0:0:0:0:
329,192,93683,1,0,0:0:0:0:
182,192,93683,1,0,0:0:0:0:
36,192,93840,1,0,0:0:0:0:
256,192,93840,1,0,0:0:0:0:
475,192,93840,1,0,0:0:0:0:
329,192,93996,1,0,0:0:0:0:
182,192,94152,1,0,0:0:0:0:
36,192,94152,1,0,0:0:0:0:
402,192,94152,1,0,0:0:0:0:
475,192,94308,1,0,0:0:0:0:
256,192,94308,1,0,0:0:0:0:
329,192,94465,1,0,0:0:0:0:
182,192,94465,1,0,0:0:0:0:
36,192,94465,1,0,0:0:0:0:
256,192,94777,1,0,0:0:0:0:
402,192,94777,1,0,0:0:0:0:
475,192,94777,1,0,0:0:0:0:
182,192,94933,1,0,0:0:0:0:
36,192,94933,1,0,0:0:0:0:
109,192,95090,1,0,0:0:0:0:
329,192,95090,1,0,0:0:0:0:
475,192,95090,1,0,0:0:0:0:
256,192,95246,1,0,0:0:0:0:
182,192,95402,1,0,0:0:0:0:
36,192,95402,1,0,0:0:0:0:
402,192,95558,1,0,0:0:0:0:
475,192,95715,1,0,0:0:0:0:
256,192,95715,1,0,0:0:0:0:
109,192,95715,1,0,0:0:0:0:
36,192,95871,1,0,0:0:0:0:
329,192,95871,1,0,0:0:0:0:
182,192,95871,1,0,0:0:0:0:
109,192,96027,1,0,0:0:0:0:
402,192,96027,1,0,0:0:0:0:
256,192,96027,1,0,0:0:0:0:
182,192,96183,1,0,0:0:0:0:
475,192,96183,1,0,0:0:0:0:
329,192,96183,1,0,0:0:0:0:
36,192,96340,1,0,0:0:0:0:
256,192,96340,1,0,0:0:0:0:
402,192,96340,1,0,0:0:0:0:
109,192,96340,1,0,0:0:0:0:
182,192,96496,1,0,0:0:0:0:
475,192,96496,1,0,0:0:0:0:
109,192,96652,1,0,0:0:0:0:
329,192,96652,1,0,0:0:0:0:
402,192,96652,1,0,0:0:0:0:
256,192,96808,1,0,0:0:0:0:
36,192,96808,1,0,0:0:0:0:
182,192,96965,1,0,0:0:0:0:
402,192,96965,1,0,0:0:0:0:
475,192,96965,1,0,0:0:0:0:
256,192,97277,1,0,0:0:0:0:
36,192,97277,1,0,0:0:0:0:
182,192,97277,1,0,0:0:0:0:
329,192,97433,1,0,0:0:0:0:
402,192,97590,1,0,0:0:0:0:
475,192,97590,1,0,0:0:0:0:
109,192,97590,1,0,0:0:0:0:
36,192,97590,1,0,0:0:0:0:
182,192,97746,1,0,0:0:0:0:
256,192,97902,1,0,0:0:0:0:
36,192,97902,1,0,0:0:0:0:
329,192,98058,1,0,0:0:0:0:
475,192,98058,1,0,0:0:0:0:
182,192,98215,1,0,0:0:0:0:
256,192,98527,1,0,0:0:0:0:
36,192,98527,1,0,0:0:0:0:
109,192,98683,1,0,0:0:0:0:
329,192,98683,1,0,0:0:0:0:
256,192,98840,1,0,0:0:0:0:
475,192,98840,1,0,0:0:0:0:
182,192,98840,1,0,0:0:0:0:
402,192,98996,1,0,0:0:0:0:
329,192,99152,1,0,0:0:0:0:
109,192,99152,1,0,0:0:0:0:
182,192,99465,1,0,0:0:0:0:
36,192,99465,1,0,0:0:0:0:
402,192,99465,1,0,0:0:0:0:
329,192,99621,1,0,0:0:0:0:
109,192,99777,1,0,0:0:0:0:
256,192,99777,1,0,0:0:0:0:
402,192,99777,1,0,0:0:0:0:
36,192,99933,1,0,0:0:0:0:
182,192,100090,1,0,0:0:0:0:
329,192,100090,1,0,0:0:0:0:
475,192,100090,1,0,0:0:0:0:
109,192,100090,1,0,0:0:0:0:
256,192,100402,1,0,0:0:0:0:
109,192,100715,1,0,0:0:0:0:
402,192,100715,1,0,0:0:0:0:
182,192,101027,1,0,0:0:0:0:
36,192,101027,1,0,0:0:0:0:
329,192,101027,1,0,0:0:0:0:
256,192,101183,1,0,0:0:0:0:
182,192,101340,1,0,0:0:0:0:
329,192,101340,1,0,0:0:0:0:
475,192,101340,1,0,0:0:0:0:
109,192,101496,1,0,0:0:0:0:
402,192,101652,1,0,0:0:0:0:
329,192,101965,1,0,0:0:0:0:
329,192,102277,1,0,0:0:0:0:
109,192,102590,1,0,0:0:0:0:
475,192,102590,1,0,0:0:0:0:
402,192,102590,1,0,0:0:0:0:
256,192,102590,1,0,0:0:0:0:
402,192,103058,1,0,0:0:0:0:
329,192,103058,1,0,0:0:0:0:
256,192,103215,1,0,0:0:0:0:
36,192,103215,1,0,0:0:0:0:
256,192,103527,1,0,0:0:0:0:
36,192,103527,1,0,0:0:0:0:
475,192,103527,1,0,0:0:0:0:
109,192,103683,1,0,0:0:0:0:
329,192,103683,1,0,0:0:0:0:
402,192,103840,1,0,0:0:0:0:
475,192,103840,1,0,0:0:0:0:
256,192,103840,1,0,0:0:0:0:
36,192,103840,1,0,0:0:0:0:
329,192,104152,1,0,0:0:0:0:
182,192,104152,1,0,0:0:0:0:
109,192,104465,1,0,0:0:0:0:
36,192,104777,1,0,0:0:0:0:
329,192,105402,1,0,0:0:0:0:
182,192,105715,1,0,0:0:0:0:
256,192,106027,1,0,0:0:0:0:
182,192,106183,1,0,0:0:0:0:
402,192,106183,1,0,0:0:0:0:
329,192,106261,1,0,0:0:0:0:
475,192,106340,1,0,0:0:0:0:
256,192,106340,1,0,0:0:0:0:
36,192,106340,1,0,0:0:0:0:
109,192,106496,1,0,0:0:0:0:
256,192,106496,1,0,0:0:0:0:
182,192,106652,1,0,0:0:0:0:
329,192,106652,1,0,0:0:0:0:
256,192,106808,1,0,0:0:0:0:
402,192,106808,1,0,0:0:0:0:
329,192,106965,1,0,0:0:0:0:
475,192,106965,1,0,0:0:0:0:
109,192,106965,1,0,0:0:0:0:
182,192,107277,1,0,0:0:0:0:
36,192,107277,1,0,0:0:0:0:
109,192,107433,1,0,0:0:0:0:
329,192,107433,1,0,0:0:0:0:
475,192,107433,1,0,0:0:0:0:
256,192,107590,1,0,0:0:0:0:
36,192,107590,1,0,0:0:0:0:
329,192,108058,1,0,0:0:0:0:
475,192,108058,1,0,0:0:0:0:
256,192,108215,1,0,0:0:0:0:
36,192,108215,1,0,0:0:0:0:
182,192,108527,1,0,0:0:0:0:
329,192,108527,1,0,0:0:0:0:
475,192,108527,1,0,0:0:0:0:
109,192,108527,1,0,0:0:0:0:
402,192,108840,1,0,0:0:0:0:
475,192,108840,1,0,0:0:0:0:
182,192,108840,1,0,0:0:0:0:
256,192,108996,1,0,0:0:0:0:
36,192,108996,1,0,0:0:0:0:
109,192,109152,1,0,0:0:0:0:
329,192,109152,1,0,0:0:0:0:
182,192,109308,1,0,0:0:0:0:
402,192,109308,1,0,0:0:0:0:
475,192,109308,1,0,0:0:0:0:
329,192,109465,1,0,0:0:0:0:
36,192,109465,1,0,0:0:0:0:
109,192,109855,1,0,0:0:0:0:
256,192,109855,1,0,0:0:0:0:
402,192,109855,1,0,0:0:0:0:
182,192,110246,1,0,0:0:0:0:
329,192,110246,1,0,0:0:0:0:
475,192,110246,1,0,0:0:0:0:
256,192,110402,1,0,0:0:0:0:
329,192,110636,1,0,0:0:0:0:
475,192,110636,1,0,0:0:0:0:
36,192,110636,1,0,0:0:0:0:
402,192,110871,1,0,0:0:0:0:
256,192,111079,1,0,0:0:0:0:
475,192,111079,1,0,0:0:0:0:
109,192,111079,1,0,0:0:0:0:
182,192,111340,1,0,0:0:0:0:
329,192,111652,1,0,0:0:0:0:
475,192,111652,1,0,0:0:0:0:
182,192,111652,1,0,0:0:0:0:
36,192,111652,1,0,0:0:0:0:
109,192,111965,1,0,0:0:0:0:
256,192,112355,1,0,0:0:0:0:
36,192,112355,1,0,0:0:0:0:
402,192,112355,1,0,0:0:0:0:
475,192,112355,1,0,0:0:0:0:
109,192,112355,1,0,0:0:0:0:
182,192,112433,1,0,0:0:0:0:
329,192,112642,1,0,0:0:0:0:
475,192,112642,1,0,0:0:0:0:
