osu file format v14

[General]
AudioFilename: audio.mp3
AudioLeadIn: 0
PreviewTime: 40021
Countdown: 1
SampleSet: Soft
StackLeniency: 0.7
Mode: 0
LetterboxInBreaks: 0
WidescreenStoryboard: 1

[Editor]
Bookmarks: 25021,41021,73104,89021,105604,121521,141021,154521,165021,173021,181021
DistanceSpacing: 0.8
BeatDivisor: 4
GridSize: 4
TimelineZoom: 1.8

[Metadata]
Title:Mabel
TitleUnicode:メーベル
Artist:Balloon
ArtistUnicode:バルーン
Creator:[Mahua]
Version:Hard
Source:
Tags:Japanese Pop 須田景凪 Suda Keina Vocaloid flower v-flower ボーカロイド フラワ ブイフラワ spboxer3 Flask
BeatmapID:2241910
BeatmapSetID:1017565

[Difficulty]
HPDrainRate:5
CircleSize:4
OverallDifficulty:6
ApproachRate:8
SliderMultiplier:2.4
SliderTickRate:1

[Events]
//Background and Video events
0,0,"60376627_p0_master1200.jpg",0,0
Video,-240,"mabel.avi"
//Break Periods
2,9521,23021
2,57521,71021
2,157221,164121
//Storyboard Layer 0 (Background)
//Storyboard Layer 1 (Fail)
//Storyboard Layer 2 (Pass)
//Storyboard Layer 3 (Foreground)
//Storyboard Layer 4 (Overlay)
//Storyboard Sound Samples

[TimingPoints]
-979,500,4,2,1,15,1,0
771,-200,4,2,1,15,0,0
1021,-133.333333333333,4,2,1,30,0,0
8937,-50,4,2,1,40,0,0
9021,-100,4,2,1,60,0,0
24271,-133.333333333333,4,2,1,40,0,0
24521,-133.333333333333,4,2,1,60,0,0
24771,-200,4,2,1,80,0,0
25521,-133.333333333333,4,2,2,60,0,0
27021,-100,4,2,2,60,0,0
32021,-100,4,2,2,60,0,0
33021,-100,4,2,1,60,0,0
36521,-166.666666666667,4,2,1,60,0,0
37021,-100,4,2,1,60,0,0
40271,-100,4,1,1,35,0,0
41021,-100,4,2,1,80,0,1
56271,-133.333333333333,4,2,1,80,0,1
56521,-200,4,2,1,80,0,1
57021,-100,4,2,1,80,0,0
73021,-400,4,2,1,80,0,0
73521,-200,4,2,1,80,0,0
73771,-100,4,2,1,80,0,0
74937,-133.333333333333,4,2,1,80,0,0
76021,-100,4,2,1,80,0,0
89021,-100,4,2,1,80,0,1
103771,-66.6666666666667,4,2,1,80,0,1
104021,-100,4,2,1,80,0,1
104521,-200,4,2,1,80,0,1
105021,-153.846153846154,4,2,2,80,0,0
105104,-153.846153846154,4,2,2,40,0,0
109021,-153.846153846154,4,2,2,50,0,0
113021,-153.846153846154,4,2,2,60,0,0
117021,-153.846153846154,4,2,2,70,0,0
119771,-153.846153846154,4,1,1,50,0,0
121021,-100,4,2,2,65,0,0
134521,-400,4,1,1,30,0,0
135021,-100,4,1,1,30,0,0
139021,-100,4,1,1,30,0,0
141021,-100,4,2,1,80,0,1
157021,-100,4,2,1,80,0,0
165021,-100,4,2,1,65,0,0
173021,-100,4,2,1,45,0,0
180771,-133.333333333333,4,2,1,45,0,0
187021,-133.333333333333,4,2,1,30,0,0

[Colours]
Combo1 : 255,192,0
Combo2 : 255,0,128
Combo3 : 255,143,32
Combo4 : 245,97,119

[HitObjects]
257,193,771,6,0,L|279:241,1,40,0|0,0:0|0:0,0:0:0:0:
247,296,1021,5,0,0:0:0:0:
332,325,1271,1,0,0:0:0:0:
332,325,1437,2,0,P|365:284|412:278,1,90.0000034332277,2|2,0:0|0:0,0:0:0:0:
478,319,1937,1,2,0:0:0:0:
476,229,2187,1,0,0:0:0:0:
476,229,2271,2,0,L|483:134,1,90.0000034332277,2|2,0:0|0:0,0:0:0:0:
431,64,2771,1,2,0:0:0:0:
341,69,3021,5,0,0:0:0:0:
266,118,3271,1,2,0:0:0:0:
266,118,3437,2,0,P|233:77|186:71,1,90.0000034332277,2|2,0:0|0:0,0:0:0:0:
127,124,3937,1,2,0:0:0:0:
60,184,4187,1,0,0:0:0:0:
60,184,4271,2,0,L|70:279,1,90.0000034332277,2|2,0:0|0:0,0:0:0:0:
16,346,4771,1,2,0:0:0:0:
103,364,5021,5,0,0:0:0:0:
165,299,5271,1,2,0:0:0:0:
165,299,5437,2,0,P|201:298|250:335,1,90.0000034332277,2|2,0:0|0:0,0:0:0:0:
320,376,5937,1,2,0:0:0:0:
374,304,6187,1,0,0:0:0:0:
374,304,6271,2,0,L|474:292,2,90.0000034332277,2|2|0,0:0|0:0|0:0,0:0:0:0:
313,237,7021,6,0,L|208:253,1,90.0000034332277,8|2,0:0|3:0,0:0:0:0:
179,328,7521,2,0,L|75:306,1,90.0000034332277,0|2,0:0|3:0,0:0:0:0:
68,221,8021,1,0,0:0:0:0:
100,137,8271,6,0,L|90:103,2,30.0000011444092,8|0|2,0:0|0:0|3:0,0:0:0:0:
100,137,8521,6,0,P|149:142|228:70,1,150.000005722046,2|0,0:1|0:0,0:0:0:0:
225,41,9021,5,6,0:0:0:0:
251,70,24271,5,4,0:1:0:0:
254,81,24521,1,4,0:1:0:0:
257,91,24771,1,4,0:1:0:0:
321,127,25021,6,0,P|296:146|264:240,1,120,4|2,0:0|0:0,0:0:0:0:
195,324,25937,5,0,0:0:0:0:
184,345,26021,2,0,P|127:366|87:347,1,90.0000034332277,2|0,0:0|0:0,0:0:0:0:
54,302,26437,1,0,0:0:0:0:
88,220,26687,1,0,0:0:0:0:
56,133,26937,1,0,0:0:0:0:
67,118,27021,6,0,P|106:141|185:127,1,120,2|0,0:0|0:0,0:0:0:0:
229,81,27437,1,0,0:0:0:0:
229,81,27521,2,0,P|286:68|339:94,1,120,2|0,0:0|0:0,0:0:0:0:
399,161,28021,2,0,P|438:184|517:170,1,120,2|0,0:0|0:0,0:0:0:0:
512,70,28521,1,2,0:0:0:0:
418,12,28771,1,0,0:0:0:0:
449,102,29021,6,0,L|459:227,2,120,2|0|2,0:0|0:0|0:0,0:0:0:0:
321,35,29771,1,0,0:0:0:0:
254,104,30021,2,0,L|276:183,1,80,2|0,0:0|0:0,0:0:0:0:
302,187,30271,2,0,L|268:271,1,80,0|0,0:0|0:0,0:0:0:0:
245,279,30521,2,0,P|309:286|362:323,1,120,2|0,0:0|0:0,0:0:0:0:
444,350,31021,6,0,L|426:271,1,80,2|0,0:0|0:0,0:0:0:0:
456,262,31270,2,0,L|440:180,1,80,0|0,0:0|0:0,0:0:0:0:
458,156,31520,2,0,P|408:184|314:161,2,120,2|0|2,0:0|1:0|0:0,0:0:0:0:
504,268,32271,5,0,0:1:0:0:
408,273,32521,5,2,1:2:0:0:
461,357,32771,5,0,1:0:0:0:
504,268,33021,6,0,P|521:216|479:127,1,120,4|2,0:0|0:0,0:0:0:0:
447,106,33437,1,0,0:0:0:0:
447,106,33521,2,0,L|316:129,1,120,0|2,1:0|0:0,0:0:0:0:
254,65,34021,5,0,0:0:0:0:
159,48,34271,1,2,0:0:0:0:
106,100,34437,1,0,0:0:0:0:
87,126,34521,2,0,P|77:182|98:256,1,120,0|2,1:0|0:0,0:0:0:0:
180,279,35021,6,0,P|190:223|169:149,1,120,0|2,0:0|0:0,0:0:0:0:
237,91,35437,1,0,0:0:0:0:
266,104,35521,2,0,P|256:160|277:234,1,120,0|2,1:0|0:0,0:0:0:0:
341,246,35937,1,0,0:0:0:0:
371,256,36021,2,0,P|381:200|360:126,1,120,0|2,0:0|0:0,0:0:0:0:
411,79,36437,1,2,0:0:0:0:
411,79,36521,6,0,L|489:36,1,71.9999978027344,0|0,1:0|1:0,0:0:0:0:
492,126,36937,1,2,0:0:0:0:
477,154,37021,6,0,P|467:210|488:284,1,120,4|2,0:0|0:0,0:0:0:0:
426,350,37521,2,0,L|339:369,1,80,0|0,1:0|0:0,0:0:0:0:
322,347,37771,2,0,L|241:366,1,80,2|0,0:0|0:0,0:0:0:0:
212,372,38021,6,0,P|225:320|212:249,1,120,0|2,0:0|0:0,0:0:0:0:
147,213,38437,1,0,0:0:0:0:
118,197,38521,2,0,P|105:249|118:320,1,120,0|0,1:0|1:0,0:0:0:0:
36,368,39021,5,4,0:0:0:0:
226,342,39521,1,4,0:0:0:0:
205,151,40021,1,4,0:0:0:0:
111,127,40271,5,2,0:2:0:0:
35,110,40521,1,0,0:0:0:0:
58,187,40771,1,0,0:0:0:0:
111,127,41021,6,0,P|158:117|237:60,1,120,4|2,0:0|0:0,0:0:0:0:
290,73,41437,1,0,0:0:0:0:
290,73,41521,2,0,P|277:128|281:202,1,120,0|2,1:0|0:0,0:0:0:0:
243,251,41937,1,0,0:0:0:0:
243,251,42021,2,0,P|201:209|132:191,2,120,0|10|0,0:0|0:0|1:0,0:0:0:0:
301,327,42771,1,2,0:0:0:0:
390,362,43021,6,0,P|445:370|510:353,1,120,0|0,1:0|0:0,0:0:0:0:
475,263,43521,2,0,P|420:255|355:272,1,120,0|0,1:0|1:0,0:0:0:0:
285,333,44021,2,0,P|231:358|148:362,2,120,2|2|0,0:0|0:0|1:0,0:0:0:0:
342,255,44771,1,2,1:2:0:0:
324,160,45021,5,4,0:0:0:0:
248,219,45271,2,0,P|216:252|165:270,1,80,2|0,0:0|0:0,0:0:0:0:
190,212,45521,2,0,P|148:191|55:196,1,120,0|2,1:0|0:0,0:0:0:0:
17,265,46021,6,0,P|11:312|46:386,1,120,8|10,0:0|0:2,0:0:0:0:
97,301,46521,2,0,P|103:254|68:180,1,120,0|2,1:0|0:0,0:0:0:0:
15,113,47021,5,0,1:0:0:0:
2,208,47271,1,0,1:0:0:0:
96,226,47521,1,0,1:0:0:0:
113,131,47771,1,0,1:0:0:0:
204,102,48021,6,0,P|243:122|286:125,1,80,0|8,1:0|0:0,0:0:0:0:
297,151,48271,2,0,P|339:139|377:111,1,80,0|0,1:0|1:0,0:0:0:0:
386,91,48521,6,0,P|392:153|445:202,1,120,4|0,1:2|1:0,0:0:0:0:
501,213,48937,1,0,1:0:0:0:
481,238,49021,6,0,P|425:243|364:277,1,120,4|2,0:0|0:0,0:0:0:0:
329,333,49437,1,0,0:0:0:0:
301,316,49521,2,0,P|248:296|172:305,1,120,0|2,1:0|0:0,0:0:0:0:
126,337,49937,1,0,0:0:0:0:
153,354,50021,2,0,P|179:299|170:215,2,120,0|10|0,0:0|0:0|1:0,0:0:0:0:
57,370,50771,1,2,0:0:0:0:
18,281,51021,6,0,P|37:224|92:180,2,120,0|2|0,0:0|0:0|1:0,0:0:0:0:
100,330,51771,1,2,0:0:0:0:
186,288,52021,2,0,P|205:345|260:389,1,120,0|0,1:0|1:0,0:0:0:0:
314,313,52521,2,0,P|295:256|240:212,1,120,0|0,1:0|1:0,0:0:0:0:
210,129,53021,5,4,0:0:0:0:
170,216,53271,2,0,P|184:267|217:291,1,80,2|0,0:0|0:0,0:0:0:0:
233,294,53521,2,0,P|303:277|376:295,1,120,0|2,1:0|0:0,0:0:0:0:
438,247,54021,2,0,P|469:197|465:137,1,120,0|10,0:0|0:0,0:0:0:0:
400,66,54521,2,0,P|369:116|373:176,1,120,0|2,1:0|0:0,0:0:0:0:
465,137,55021,5,0,1:0:0:0:
400,66,55271,1,0,0:0:0:0:
308,94,55521,1,0,1:0:0:0:
297,189,55771,1,0,0:0:0:0:
355,264,56021,5,0,1:0:0:0:
348,277,56271,5,0,1:0:0:0:
341,291,56521,5,0,1:0:0:0:
150,228,57021,5,4,0:0:0:0:
254,194,72271,5,0,0:0:0:0:
254,194,72521,1,0,0:0:0:0:
254,194,72771,1,0,0:0:0:0:
254,194,73021,6,0,L|256:282,1,80,4|0,0:0|0:0,0:0:0:0:
256,306,73771,6,0,L|257:348,3,40,8|8|8|8,0:0|0:0|0:0|0:0,0:0:0:0:
188,313,74187,1,8,0:0:0:0:
258,378,74437,1,8,0:0:0:0:
323,313,74687,1,8,0:0:0:0:
256,243,74937,6,0,P|209:218|23:347,1,300.000011444092,4|8,0:0|0:0,0:0:0:0:
116,361,76021,6,0,L|203:368,1,80,0|0,1:0|0:0,0:0:0:0:
217,343,76271,2,0,L|308:350,1,80,0|0,1:0|0:0,0:0:0:0:
326,336,76521,1,4,0:0:0:0:
326,336,77021,6,0,P|317:297|370:222,1,120,8|0,0:0|0:0,0:0:0:0:
420,260,77437,1,0,0:0:0:0:
420,260,77521,2,0,P|455:213|449:155,1,120,0|0,1:0|0:0,0:0:0:0:
365,202,78021,6,0,P|374:163|321:88,1,120,8|0,0:0|0:0,0:0:0:0:
270,127,78437,1,0,0:0:0:0:
270,127,78521,2,0,P|235:79|241:21,1,120,0|0,1:0|0:0,0:0:0:0:
163,77,79021,6,0,L|77:91,1,80,8|0,0:0|0:0,0:0:0:0:
59,69,79271,2,0,L|29:165,1,80,8|0,0:0|0:0,0:0:0:0:
7,162,79521,2,0,P|68:166|112:213,1,120,0|0,1:0|0:0,0:0:0:0:
131,274,79937,1,8,0:0:0:0:
135,297,80021,6,0,P|171:332|258:323,1,120,0|0,0:0|0:0,0:0:0:0:
314,277,80521,5,0,1:0:0:0:
409,263,80771,1,0,0:0:0:0:
462,342,81021,6,0,P|448:273|495:178,1,180,12|0,0:0|0:0,0:0:0:0:
446,118,81521,2,0,L|321:159,1,120,0|0,1:0|0:0,0:0:0:0:
268,115,81937,1,0,0:0:0:0:
268,115,82021,6,0,P|300:147|313:230,1,120,8|0,0:0|0:0,0:0:0:0:
248,247,82437,1,0,0:0:0:0:
248,247,82521,2,0,P|216:279|203:362,1,120,0|0,1:0|0:0,0:0:0:0:
76,353,83021,5,8,0:0:0:0:
22,285,83187,1,0,0:0:0:0:
22,285,83271,1,0,0:0:0:0:
40,202,83437,1,0,0:0:0:0:
40,202,83521,1,0,1:0:0:0:
120,173,83687,1,0,0:0:0:0:
120,173,83771,2,0,L|203:198,1,80,0|0,0:0|0:0,0:0:0:0:
228,191,84021,2,0,P|193:210|181:254,1,80,8|0,0:0|0:0,0:0:0:0:
184,278,84271,5,0,0:0:0:0:
252,344,84521,1,0,1:0:0:0:
161,375,84771,1,0,0:0:0:0:
194,307,84937,1,0,0:0:0:0:
194,307,85021,6,0,P|238:277|311:307,1,120,12|0,0:0|0:0,0:0:0:0:
372,356,85521,2,0,L|455:336,1,80,0|0,1:0|0:0,0:0:0:0:
469,362,85771,2,0,L|480:264,1,80,0|0,0:0|0:0,0:0:0:0:
504,263,86021,2,0,P|462:269|397:217,1,120,8|0,0:0|0:0,0:0:0:0:
386,158,86437,1,0,0:0:0:0:
386,158,86521,2,0,P|341:119|283:121,1,120,0|0,1:0|0:0,0:0:0:0:
212,186,87021,5,4,0:0:0:0:
143,212,87521,5,4,0:0:0:0:
74,235,88021,5,4,0:0:0:0:
74,235,88271,1,4,0:0:0:0:
74,235,88521,1,4,0:0:0:0:
28,371,89021,6,0,P|97:323|146:333,1,120,4|2,0:0|0:0,0:0:0:0:
195,352,89437,1,0,0:0:0:0:
195,352,89521,2,0,P|253:347|295:306,1,120,0|2,1:0|0:0,0:0:0:0:
311,238,89937,1,0,0:0:0:0:
311,238,90021,2,0,P|380:190|429:200,2,120,0|10|0,0:0|0:2|1:0,0:0:0:0:
219,266,90771,1,2,0:0:0:0:
155,337,91021,6,0,P|109:363|32:357,1,120,0|2,0:0|0:0,0:0:0:0:
16,269,91521,2,0,P|62:243|139:249,1,120,0|2,1:0|0:0,0:0:0:0:
219,266,92021,2,0,P|278:288|340:280,2,120,0|2|0,0:0|0:0|1:0,0:0:0:0:
164,186,92771,1,2,0:0:0:0:
154,90,93021,5,4,0:0:0:0:
81,148,93271,2,0,P|67:177|24:202,1,80,2|0,0:0|0:0,0:0:0:0:
73,222,93521,2,0,P|118:215|206:252,1,120,0|2,1:0|0:0,0:0:0:0:
236,153,94021,2,0,P|289:143|348:105,1,120,0|10,0:0|0:0,0:0:0:0:
368,201,94521,2,0,P|421:211|480:249,1,120,0|2,1:0|0:0,0:0:0:0:
393,293,95021,5,0,0:0:0:0:
342,211,95271,1,2,0:0:0:0:
407,140,95521,1,0,1:0:0:0:
494,180,95771,1,2,0:0:0:0:
479,274,96021,5,0,1:0:0:0:
424,347,96271,2,0,L|323:334,1,80,0|0,1:0|0:0,0:0:0:0:
319,356,96521,2,0,P|346:317|320:225,1,120,0|0,1:0|1:0,0:0:0:0:
272,291,96937,1,0,0:0:0:0:
246,311,97021,6,0,L|123:324,1,120,4|2,0:0|0:0,0:0:0:0:
76,274,97437,1,0,0:0:0:0:
83,242,97521,2,0,L|206:229,1,120,0|2,1:0|0:0,0:0:0:0:
237,168,97937,1,0,0:0:0:0:
214,144,98021,2,0,L|91:157,2,120,0|2|0,0:0|0:0|1:0,0:0:0:0:
281,74,98771,1,2,0:0:0:0:
349,7,99021,6,0,P|410:0|476:48,1,120,0|0,1:0|0:0,0:0:0:0:
482,120,99521,2,0,P|421:127|355:79,1,120,0|0,1:0|1:0,0:0:0:0:
281,74,100021,1,0,1:0:0:0:
192,37,100271,1,0,1:0:0:0:
96,32,100521,2,0,P|148:71|173:144,1,120,0|0,1:0|1:0,0:0:0:0:
94,179,101021,5,4,0:0:0:0:
45,262,101271,2,0,P|20:299|14:345,1,80,2|0,0:0|0:0,0:0:0:0:
70,315,101521,2,0,P|131:313|200:349,1,120,0|2,1:0|0:0,0:0:0:0:
250,311,101937,1,0,0:0:0:0:
250,311,102021,2,0,P|306:336|396:337,1,120,4|2,0:0|0:0,0:0:0:0:
448,282,102521,2,0,P|392:257|302:256,1,120,0|2,1:0|0:0,0:0:0:0:
235,264,103021,5,4,0:0:0:0:
325,209,103271,1,0,1:0:0:0:
283,122,103521,1,0,0:0:0:0:
188,165,103771,1,0,1:0:0:0:
256,194,104021,5,0,1:0:0:0:
256,194,104271,1,0,1:0:0:0:
256,194,104521,6,0,L|257:297,1,100,0|0,1:0|0:0,0:0:0:0:
256,314,105021,5,6,0:0:0:0:
206,352,105271,1,0,0:0:0:0:
166,303,105521,1,8,0:0:0:0:
216,265,105771,1,0,0:0:0:0:
254,321,106021,5,2,0:0:0:0:
198,350,106271,1,0,0:0:0:0:
167,295,106521,1,8,0:0:0:0:
223,266,106771,1,0,0:0:0:0:
251,329,107021,5,2,0:0:0:0:
191,347,107271,1,2,0:0:0:0:
170,287,107521,1,8,0:0:0:0:
230,269,107771,1,0,0:0:0:0:
298,273,108021,6,0,L|363:284,1,51.999997619629,2|0,0:0|3:0,0:0:0:0:
420,256,108437,1,0,0:0:0:0:
420,256,108521,2,0,P|431:214|413:172,1,77.9999964294435,8|0,0:0|0:0,0:0:0:0:
302,154,109021,5,2,0:0:0:0:
352,192,109271,1,0,0:0:0:0:
392,143,109521,1,8,0:0:0:0:
342,105,109771,1,0,0:0:0:0:
303,161,110021,5,2,0:0:0:0:
359,190,110271,1,0,0:0:0:0:
390,135,110521,1,8,0:0:0:0:
334,106,110771,1,0,0:0:0:0:
306,169,111021,5,2,0:0:0:0:
366,187,111271,1,2,0:0:0:0:
387,127,111521,1,8,0:0:0:0:
327,109,111771,1,0,0:0:0:0:
258,117,112021,6,0,L|186:131,1,51.999997619629,8|0,0:0|3:0,0:0:0:0:
150,171,112437,1,0,3:0:0:0:
150,171,112521,2,0,P|155:126|139:72,1,77.9999964294435,0|0,0:0|0:0,0:0:0:0:
222,53,113021,5,6,0:0:0:0:
172,91,113271,1,0,0:0:0:0:
132,42,113521,1,8,0:0:0:0:
182,4,113771,1,0,0:0:0:0:
220,60,114021,5,2,0:0:0:0:
164,89,114271,1,0,0:0:0:0:
133,34,114521,1,8,0:0:0:0:
189,5,114771,1,0,0:0:0:0:
217,68,115021,5,2,0:0:0:0:
157,86,115271,1,2,0:0:0:0:
136,26,115521,1,8,0:0:0:0:
196,8,115771,1,0,3:0:0:0:
249,50,116021,6,0,L|314:61,1,51.999997619629,0|0,3:0|3:0,0:0:0:0:
364,21,116437,1,0,0:0:0:0:
364,21,116521,2,0,P|375:57|364:94,1,77.9999964294435,8|2,3:2|0:0,0:0:0:0:
315,172,117021,5,2,0:0:0:0:
365,210,117271,1,0,0:0:0:0:
405,161,117521,1,8,0:0:0:0:
355,123,117771,1,0,0:0:0:0:
316,179,118021,5,2,0:0:0:0:
372,208,118271,1,2,0:0:0:0:
403,153,118521,1,8,0:0:0:0:
347,124,118771,1,0,0:0:0:0:
319,187,119021,5,8,0:3:0:0:
379,205,119271,1,0,0:0:0:0:
400,145,119521,1,8,0:0:0:0:
340,127,119771,1,0,0:0:0:0:
270,157,120021,6,0,L|186:168,2,77.9999964294435,0|0|0,0:0|0:0|0:0,0:0:0:0:
328,206,120771,1,0,0:0:0:0:
377,264,120937,1,0,0:0:0:0:
399,241,121021,6,0,P|442:215|521:236,1,120,6|2,0:0|0:0,0:0:0:0:
478,317,121521,2,0,P|435:343|356:322,1,120,0|0,1:0|0:0,0:0:0:0:
302,301,121937,1,0,3:0:0:0:
302,301,122021,2,0,P|244:288|192:316,1,120,0|0,0:0|0:0,0:0:0:0:
107,359,122521,1,0,1:0:0:0:
27,305,122771,1,0,0:0:0:0:
65,216,123021,6,0,P|64:157|17:111,1,120,2|0,0:0|0:0,0:0:0:0:
86,40,123521,1,0,1:0:0:0:
169,87,123771,1,2,0:0:0:0:
232,44,123937,1,0,3:0:0:0:
256,65,124021,2,0,P|257:124|304:170,1,120,0|0,0:0|0:0,0:0:0:0:
371,187,124437,1,0,0:0:0:0:
387,159,124521,2,0,P|426:202|427:260,1,120,0|0,1:0|0:0,0:0:0:0:
378,342,125021,6,0,P|324:347|254:297,1,120,2|2,0:0|0:0,0:0:0:0:
188,261,125521,2,0,P|242:256|312:306,1,120,0|0,1:0|0:0,0:0:0:0:
203,303,126021,1,0,0:0:0:0:
144,349,126187,1,0,3:0:0:0:
144,349,126271,2,0,P|89:350|21:298,1,120,2|0,0:0|1:0,0:0:0:0:
17,222,126771,1,0,0:0:0:0:
65,139,127021,6,0,P|119:138|180:188,1,120,2|2,0:0|0:0,0:0:0:0:
244,236,127520,2,0,P|190:237|129:187,1,120,0|0,1:0|0:0,0:0:0:0:
226,129,127937,1,0,3:0:0:0:
249,107,128020,2,0,P|303:100|369:154,1,120,0|0,0:0|3:0,0:0:0:0:
403,191,128437,1,0,3:0:0:0:
418,218,128520,2,0,P|448:240|503:228,1,80,0|0,1:0|0:0,0:0:0:0:
510,213,128770,2,0,L|490:124,1,80,0|0,1:0|0:0,0:0:0:0:
469,114,129020,6,0,P|432:106|350:139,1,120,6|2,0:0|0:0,0:0:0:0:
271,176,129520,2,0,P|329:182|383:157,1,120,0|0,1:0|0:0,0:0:0:0:
288,144,130020,2,0,P|251:136|169:169,1,120,0|2,0:0|0:0,0:0:0:0:
96,217,130521,1,0,1:0:0:0:
18,160,130771,1,0,3:0:0:0:
45,89,130937,1,0,3:0:0:0:
29,78,131021,6,0,P|35:30|58:4,1,80,0|0,3:0|0:0,0:0:0:0:
116,43,131271,2,0,P|110:91|87:117,1,80,0|0,1:0|0:0,0:0:0:0:
110,187,131521,6,0,P|112:227|135:259,1,80,0|0,0:0|0:0,0:0:0:0:
198,223,131771,2,0,P|195:183|172:151,1,80,0|0,1:0|0:0,0:0:0:0:
110,188,132021,6,0,L|-13:203,2,120,0|0|0,1:0|3:0|1:0,0:0:0:0:
191,137,132771,1,0,1:0:0:0:
255,193,132937,1,0,0:0:0:0:
255,193,133021,5,4,0:0:0:0:
255,193,134521,6,0,L|255:255,1,60,2|4,0:0|0:0,0:0:0:0:
256,192,135104,12,0,138771,0:0:0:0:
342,300,139021,6,0,L|261:313,1,80,12|0,0:2|0:0,0:0:0:0:
242,337,139271,2,0,L|232:256,1,80,0|0,0:0|0:0,0:0:0:0:
233,225,139521,6,0,L|152:238,1,80,4|0,0:2|0:0,0:0:0:0:
133,262,139771,2,0,L|123:181,1,80,0|0,0:0|0:0,0:0:0:0:
125,150,140021,6,0,L|44:163,1,80,4|0,2:0|0:0,0:0:0:0:
15,107,140271,5,4,2:0:0:0:
15,107,140521,1,4,2:0:0:0:
15,107,141021,6,0,P|63:55|135:67,1,120,4|2,0:0|0:0,0:0:0:0:
175,74,141437,1,0,0:0:0:0:
175,74,141521,2,0,P|238:78|284:18,1,120,0|2,1:0|0:0,0:0:0:0:
345,20,141937,1,0,0:0:0:0:
345,20,142021,2,0,P|393:32|417:66,1,80,0|8,0:0|0:0,0:0:0:0:
444,56,142271,2,0,L|434:144,1,80,2|0,0:0|0:0,0:0:0:0:
458,157,142521,2,0,P|410:169|386:203,1,80,0|0,1:0|0:0,0:0:0:0:
359,193,142771,2,0,L|369:281,1,80,2|0,0:0|0:0,0:0:0:0:
390,295,143021,6,0,P|356:338|263:344,1,120,0|2,1:0|0:0,0:0:0:0:
280,276,143437,1,0,0:0:0:0:
259,251,143521,2,0,P|201:264|163:309,1,120,0|2,1:0|0:0,0:0:0:0:
132,380,143937,1,0,1:0:0:0:
99,378,144021,2,0,P|59:368|21:326,1,80,0|0,1:0|0:0,0:0:0:0:
50,317,144271,2,0,P|32:277|40:224,1,80,2|0,0:0|1:0,0:0:0:0:
65,240,144521,2,0,P|105:230|143:188,1,80,0|0,1:0|1:0,0:0:0:0:
114,179,144771,2,0,P|132:139|124:86,1,80,2|0,0:0|1:0,0:0:0:0:
109,79,145021,5,4,0:0:0:0:
109,79,145271,2,0,P|160:93|194:86,1,80,2|0,0:0|0:0,0:0:0:0:
212,70,145521,2,0,P|217:128|262:182,1,120,0|2,1:0|0:0,0:0:0:0:
330,195,145937,1,0,0:0:0:0:
310,220,146021,2,0,P|283:271|279:362,1,120,0|2,0:0|0:0,0:0:0:0:
336,372,146437,1,0,0:0:0:0:
367,366,146521,2,0,P|393:314|398:224,1,120,0|2,1:0|0:0,0:0:0:0:
470,185,147021,6,0,P|425:202|383:202,1,80,0|0,0:0|0:0,0:0:0:0:
374,177,147271,2,0,P|331:158|298:155,1,80,2|0,0:0|0:0,0:0:0:0:
275,177,147521,2,0,P|230:194|188:194,1,80,0|0,1:0|0:0,0:0:0:0:
179,169,147771,2,0,P|136:150|103:147,1,80,2|8,0:0|0:0,0:0:0:0:
80,169,148021,6,0,P|28:186|-9:187,1,80,0|0,1:0|0:0,0:0:0:0:
27,208,148271,2,0,P|39:243|44:292,1,80,0|0,1:0|0:0,0:0:0:0:
47,317,148521,1,0,1:0:0:0:
134,355,148771,1,0,1:0:0:0:
198,322,148937,1,0,1:0:0:0:
214,309,149021,6,0,P|222:260|195:190,1,120,4|2,0:0|0:0,0:0:0:0:
133,160,149437,1,0,0:0:0:0:
106,142,149521,2,0,P|98:93|125:23,1,120,0|2,1:0|0:0,0:0:0:0:
191,24,149937,1,0,0:0:0:0:
213,46,150021,2,0,P|254:64|296:55,1,80,0|8,0:0|0:0,0:0:0:0:
317,47,150271,2,0,P|356:42|391:59,1,80,2|0,0:0|0:0,0:0:0:0:
409,87,150521,2,0,P|450:105|492:96,1,80,0|0,1:0|0:0,0:0:0:0:
505,76,150771,2,0,P|486:128|493:161,1,80,2|0,0:0|0:0,0:0:0:0:
466,173,151021,5,4,0:0:0:0:
396,239,151271,1,2,0:0:0:0:
304,210,151521,1,4,0:0:0:0:
235,277,151771,1,2,0:0:0:0:
171,348,152021,2,0,L|87:341,1,80,4|0,0:0|0:0,0:0:0:0:
63,358,152271,2,0,L|39:256,1,80,4|0,0:0|0:0,0:0:0:0:
52,248,152521,2,0,L|136:255,1,80,4|0,0:0|0:0,0:0:0:0:
161,242,152771,2,0,L|142:164,1,80,0|0,1:0|1:0,0:0:0:0:
115,146,153021,5,4,0:0:0:0:
36,90,153271,2,0,P|25:49|39:4,1,80,2|0,0:0|0:0,0:0:0:0:
96,50,153521,2,0,P|147:52|211:96,1,120,0|2,1:0|0:0,0:0:0:0:
248,173,154021,2,0,P|304:176|381:135,1,120,0|2,0:0|0:0,0:0:0:0:
419,108,154437,1,0,0:0:0:0:
442,130,154521,2,0,P|435:185|456:271,1,120,0|0,1:0|1:0,0:0:0:0:
483,309,154937,1,0,1:0:0:0:
464,335,155021,6,0,L|378:352,1,80,0|0,1:0|0:0,0:0:0:0:
376,319,155271,2,0,L|290:302,1,80,0|0,1:0|0:0,0:0:0:0:
278,329,155521,2,0,L|192:346,1,80,0|0,1:0|0:0,0:0:0:0:
190,313,155771,2,0,L|104:296,1,80,0|0,1:0|0:0,0:0:0:0:
89,321,156021,5,4,1:0:0:0:
89,321,156271,1,4,1:0:0:0:
89,321,156521,1,4,1:0:0:0:
257,191,157021,5,4,0:0:0:0:
130,307,165021,6,0,L|20:359,2,120,2|2|0,0:0|0:0|0:0,0:0:0:0:
114,115,166021,6,0,L|224:167,3,120,0|2|0|0,0:0|0:0|0:0|0:0,0:0:0:0:
299,157,167021,6,0,L|189:209,2,120,2|0|0,0:0|0:0|0:0,0:0:0:0:
205,324,168021,6,0,L|315:376,3,120,0|2|0|0,0:0|0:0|0:0|0:0,0:0:0:0:
287,282,169021,6,0,L|177:334,2,120,2|0|0,0:0|0:0|0:0,0:0:0:0:
404,129,170021,6,0,L|514:181,3,120,0|2|0|0,0:0|0:0|0:0|0:0,0:0:0:0:
426,223,171021,6,0,L|316:275,2,120,2|0|0,0:0|0:0|0:0,0:0:0:0:
267,114,172021,6,0,L|377:166,3,120,0|2|0|0,0:0|0:0|1:0|3:0,0:0:0:0:
255,195,173021,5,12,0:0:0:0:
258,333,175021,5,8,0:0:0:0:
255,195,177021,5,8,0:0:0:0:
258,333,179021,5,4,0:3:0:0:
258,333,180771,6,0,L|178:349,1,60.0000022888184,0|0,0:0|0:0,0:0:0:0:
179,359,181021,6,0,P|180:312|168:254,1,90.0000034332277,0|0,0:0|0:0,0:0:0:0:
129,248,181437,1,0,0:0:0:0:
129,248,181687,1,0,0:0:0:0:
129,248,181937,1,0,0:0:0:0:
182,199,182104,2,0,L|256:217,1,60.0000022888184,0|0,0:0|0:0,0:0:0:0:
282,272,182521,1,0,0:0:0:0:
179,359,183021,6,0,P|180:312|168:254,1,90.0000034332277,0|0,0:0|0:0,0:0:0:0:
129,248,183437,1,0,0:0:0:0:
129,248,183687,1,0,0:0:0:0:
129,248,183937,1,0,0:0:0:0:
182,199,184104,2,0,L|256:217,1,60.0000022888184,0|0,0:0|0:0,0:0:0:0:
308,190,184521,1,0,0:0:0:0:
179,359,185021,6,0,P|180:312|168:254,1,90.0000034332277,0|0,0:0|0:0,0:0:0:0:
129,248,185437,1,0,0:0:0:0:
129,248,185687,1,0,0:0:0:0:
129,248,185937,1,0,0:0:0:0:
182,199,186104,2,0,L|256:217,1,60.0000022888184,0|0,0:0|0:0,0:0:0:0:
282,272,186521,1,0,0:0:0:0:
396,184,187021,5,2,0:0:0:0:
431,285,187396,1,2,0:0:0:0:
360,366,187771,1,2,0:0:0:0:
255,337,188146,1,0,0:0:0:0:
256,229,188521,5,2,0:0:0:0:
