osu file format v14

[General]
AudioFilename: audio.ogg
AudioLeadIn: 0
PreviewTime: 176583
Countdown: 0
SampleSet: Normal
StackLeniency: 0.7
Mode: 1
LetterboxInBreaks: 0
EpilepsyWarning: 1
WidescreenStoryboard: 1

[Editor]
Bookmarks: 434,6921,13407,19894,32866,45839,58812,71785,84758,110704,123677,136650,149623,162596,180434,203137
DistanceSpacing: 0.1
BeatDivisor: 4
GridSize: 32
TimelineZoom: 1.5

[Metadata]
Title:Hana ni Kaze
TitleUnicode:花に風
Artist:balloon
ArtistUnicode:バルーン
Creator:gaston_2199
Version:Inner Oni
Source:
Tags:須田景凪 Suda Keina Vocaloid 初音ミク Hatsune Miku アボガド6 japanese pop rock jpop j-pop jrock j-rock
BeatmapID:4093510
BeatmapSetID:1972752

[Difficulty]
HPDrainRate:6
CircleSize:2
OverallDifficulty:6
ApproachRate:10
SliderMultiplier:1.4
SliderTickRate:1

[Events]
//Background and Video events
0,0,"BG.jpg",0,65
Video,-1250,"TaikoVideo.mp4"
//Break Periods
//Storyboard Layer 0 (Background)
//Storyboard Layer 1 (Fail)
//Storyboard Layer 2 (Pass)
//Storyboard Layer 3 (Foreground)
//Storyboard Layer 4 (Overlay)
//Storyboard Sound Samples

[TimingPoints]
434,405.405405405405,4,1,0,40,1,0
434,-142.857142857143,4,1,0,40,0,0
3575,-125,4,1,0,60,0,0
5197,-111.111111111111,4,1,0,80,0,0
6211,-125,4,1,0,40,0,0
6819,-95.2380952380952,4,1,0,80,0,0
20096,-100,4,1,0,80,0,0
32863,-90.9090909090909,4,1,0,80,0,0
33066,-91.9556525930757,4,1,0,80,0,0
33268,-93.0212546252474,4,1,0,80,0,0
33471,-94.1173056273036,4,1,0,80,0,0
33674,-95.2394937006255,4,1,0,80,0,0
33876,-96.3830356346777,4,1,0,80,0,0
33978,-96.9709655234279,4,1,0,80,0,0
34079,-97.5602418699798,4,1,0,80,0,0
34282,-98.7665600730927,4,1,0,80,0,0
34485,-100.003083659687,4,1,0,80,0,0
34687,-101.264637002342,4,1,0,80,0,0
34890,-102.564913501376,4,1,0,80,0,0
35093,-103.89901643546,4,1,0,80,0,0
35194,-104.575795685402,4,1,0,80,0,0
35295,-105.261449576422,4,1,0,80,0,0
35599,-107.380550312904,4,1,0,80,0,0
35701,-108.110811081108,4,1,0,80,0,0
35903,-109.586726590748,4,1,0,80,0,0
36106,-90.9090909090909,4,1,0,80,0,0
36309,-91.9556525930757,4,1,0,80,0,0
36512,-93.026591319813,4,1,0,80,0,0
36714,-94.1173056273036,4,1,0,80,0,0
36917,-95.2394937006255,4,1,0,80,0,0
37018,-95.8078525214925,4,1,0,80,0,0
37120,-96.3887650468123,4,1,0,80,0,0
37221,-96.9709655234279,4,1,0,80,0,0
37322,-97.5602418699798,4,1,0,80,0,0
37525,-98.7665600730927,4,1,0,80,0,0
37728,-90.9116393810266,4,1,0,80,0,0
38539,-90.9090909090909,4,1,0,80,0,0
38741,-95.2268986597696,4,1,0,80,0,0
38809,-96.7741935483871,4,1,0,80,0,0
38876,-98.3487129674599,4,1,0,80,0,0
38944,-100,4,1,0,80,0,0
39147,-105.276839095399,4,1,0,80,0,0
39349,-90.9090909090909,4,1,0,80,0,0
39552,-91.9553262656613,4,1,0,80,0,0
39755,-93.0259233769213,4,1,0,80,0,0
39958,-94.1217431671792,4,1,0,80,0,0
40160,-95.2380952380952,4,1,0,80,0,0
40363,-96.386974090801,4,1,0,80,0,0
40464,-96.9689723202009,4,1,0,80,0,0
40566,-97.5639097744361,4,1,0,80,0,0
40768,-98.7639286366681,4,1,0,80,0,0
40971,-100,4,1,0,80,0,0
41174,-101.267403383905,4,1,0,80,0,0
41376,-102.560859943092,4,1,0,80,0,0
41579,-103.894440174225,4,1,0,80,0,0
41680,-104.570949648636,4,1,0,80,0,0
41782,-105.263157894737,4,1,0,80,0,0
42086,-107.381661701423,4,1,0,80,0,0
42187,-108.104505465209,4,1,0,80,0,0
42390,-109.587190054726,4,1,0,80,0,0
42593,-111.111111111111,4,1,0,80,0,0
44217,-83.3333333333333,4,1,0,80,0,0
45839,-83.3333333333333,4,1,0,90,0,1
45940,-90.9090909090909,4,1,0,90,0,1
52325,-83.3333333333333,4,1,0,90,0,1
52427,-90.9090909090909,4,1,0,90,0,1
56785,-83.3333333333333,4,1,0,90,0,1
56886,-90.9090909090909,4,1,0,90,0,1
57052,-91.5978740246523,4,1,0,90,0,1
57120,-92.3076923076923,4,1,0,90,0,1
57187,-93.0179145613229,4,1,0,90,0,1
57390,-95.2380952380952,4,1,0,90,0,1
57458,-96.0056892260282,4,1,0,90,0,1
57525,-96.7741935483871,4,1,0,90,0,1
57593,-97.5668513611178,4,1,0,90,0,1
57795,-66.6666666666667,4,1,0,90,0,1
58201,-76.9230769230769,4,1,0,90,0,1
58268,-77.5807069031517,4,1,0,90,0,1
58336,-78.2597502896126,4,1,0,90,0,1
58403,-78.9405349259932,4,1,0,90,0,1
58505,-80,4,1,0,90,0,1
58606,-81.0774769969329,4,1,0,90,0,1
58708,-82.1954846559416,4,1,0,90,0,1
58809,-83.3333333333333,4,1,0,90,0,1
58913,-90.9090909090909,4,1,0,90,0,1
65298,-83.3333333333333,4,1,0,90,0,1
65402,-90.9090909090909,4,1,0,90,0,1
68947,-83.3333333333333,4,1,0,90,0,1
69051,-90.9090909090909,4,1,0,90,0,1
69248,-90.0924937744575,4,1,0,90,0,1
69349,-89.2904363155575,4,1,0,90,0,1
69451,-88.4948021315628,4,1,0,90,0,1
69552,-87.7208174575684,4,1,0,90,0,1
69653,-86.9602540990643,4,1,0,90,0,1
69755,-86.2054293251638,4,1,0,90,0,1
69822,-85.7167033338975,4,1,0,90,0,1
69890,-85.2263166750799,4,1,0,90,0,1
69958,-84.7415091182868,4,1,0,90,0,1
70025,-84.2691955744114,4,1,0,90,0,1
70093,-83.7951857060137,4,1,0,90,0,1
70163,-66.6666666666667,4,1,0,80,0,0
71785,-95.2380952380952,4,1,0,80,0,0
83238,-98.3659602006148,4,1,0,60,0,0
83437,-100,4,1,0,60,0,0
83539,-101.706256273001,4,1,0,60,0,0
83640,-103.454143270376,4,1,0,60,0,0
83741,-105.263157894737,4,1,0,60,0,0
83843,-107.15544589355,4,1,0,60,0,0
83944,-109.097434057061,4,1,0,60,0,0
84045,-111.111111111111,4,1,0,60,0,0
84147,-113.221601489758,4,1,0,60,0,0
84248,-115.391914974378,4,1,0,60,0,0
84349,-117.647058823529,4,1,0,60,0,0
84755,-125,4,1,0,60,0,0
91143,-105.263157894737,4,1,0,80,0,0
97725,-90.9090909090909,4,1,0,80,0,0
97928,-91.9556525930757,4,1,0,80,0,0
98130,-93.0212546252474,4,1,0,80,0,0
98333,-94.1173056273036,4,1,0,80,0,0
98536,-95.2394937006255,4,1,0,80,0,0
98738,-96.3830356346777,4,1,0,80,0,0
98840,-96.9709655234279,4,1,0,80,0,0
98941,-97.5602418699798,4,1,0,80,0,0
99144,-98.7665600730927,4,1,0,80,0,0
99347,-100.003083659687,4,1,0,80,0,0
99549,-101.264637002342,4,1,0,80,0,0
99752,-102.564913501376,4,1,0,80,0,0
99955,-103.89901643546,4,1,0,80,0,0
100056,-104.575795685402,4,1,0,80,0,0
100157,-105.261449576422,4,1,0,80,0,0
100461,-107.380550312904,4,1,0,80,0,0
100563,-108.110811081108,4,1,0,80,0,0
100765,-109.586726590748,4,1,0,80,0,0
100968,-90.9090909090909,4,1,0,80,0,0
101171,-91.9556525930757,4,1,0,80,0,0
101374,-93.026591319813,4,1,0,80,0,0
101576,-94.1173056273036,4,1,0,80,0,0
101779,-95.2394937006255,4,1,0,80,0,0
101880,-95.8078525214925,4,1,0,80,0,0
101982,-96.3887650468123,4,1,0,80,0,0
102083,-96.9709655234279,4,1,0,80,0,0
102184,-97.5602418699798,4,1,0,80,0,0
102387,-98.7665600730927,4,1,0,80,0,0
102590,-90.9116393810266,4,1,0,80,0,0
103401,-90.9090909090909,4,1,0,80,0,0
103603,-95.2268986597696,4,1,0,80,0,0
103671,-96.7741935483871,4,1,0,80,0,0
103738,-98.3487129674599,4,1,0,80,0,0
103806,-100,4,1,0,80,0,0
104009,-105.276839095399,4,1,0,80,0,0
104211,-90.9090909090909,4,1,0,80,0,0
104414,-91.9553262656613,4,1,0,80,0,0
104617,-93.0259233769213,4,1,0,80,0,0
104820,-94.1217431671792,4,1,0,80,0,0
105022,-95.2380952380952,4,1,0,80,0,0
105225,-96.386974090801,4,1,0,80,0,0
105326,-96.9689723202009,4,1,0,80,0,0
105428,-97.5639097744361,4,1,0,80,0,0
105630,-98.7639286366681,4,1,0,80,0,0
105833,-100,4,1,0,80,0,0
106036,-101.267403383905,4,1,0,80,0,0
106238,-102.560859943092,4,1,0,80,0,0
106441,-103.894440174225,4,1,0,80,0,0
106542,-104.570949648636,4,1,0,80,0,0
106644,-105.263157894737,4,1,0,80,0,0
106948,-107.381661701423,4,1,0,80,0,0
107049,-108.104505465209,4,1,0,80,0,0
107252,-109.587190054726,4,1,0,80,0,0
107455,-111.111111111111,4,1,0,80,0,0
109079,-83.3333333333333,4,1,0,80,0,0
110704,-83.3333333333333,4,1,0,90,0,1
110798,-90.9090909090909,4,1,0,90,0,1
117183,-83.3333333333333,4,1,0,90,0,1
117285,-90.9090909090909,4,1,0,90,0,1
121643,-83.3333333333333,4,1,0,90,0,1
121744,-90.9090909090909,4,1,0,90,0,1
121910,-91.5978740246523,4,1,0,90,0,1
121978,-92.3076923076923,4,1,0,90,0,1
122045,-93.0179145613229,4,1,0,90,0,1
122248,-95.2380952380952,4,1,0,90,0,1
122316,-96.0056892260282,4,1,0,90,0,1
122383,-96.7741935483871,4,1,0,90,0,1
122451,-97.5668513611178,4,1,0,90,0,1
122653,-66.6666666666667,4,1,0,90,0,1
123059,-76.9230769230769,4,1,0,90,0,1
123126,-77.5807069031517,4,1,0,90,0,1
123194,-78.2597502896126,4,1,0,90,0,1
123261,-78.9405349259932,4,1,0,90,0,1
123363,-80,4,1,0,90,0,1
123464,-81.0774769969329,4,1,0,90,0,1
123566,-82.1954846559416,4,1,0,90,0,1
123667,-83.3333333333333,4,1,0,90,0,1
123771,-90.9090909090909,4,1,0,90,0,1
130156,-83.3333333333333,4,1,0,90,0,1
130260,-90.9090909090909,4,1,0,90,0,1
133805,-83.3333333333333,4,1,0,90,0,1
133909,-90.9090909090909,4,1,0,90,0,1
134106,-90.0924937744575,4,1,0,90,0,1
134207,-89.2904363155575,4,1,0,90,0,1
134309,-88.4948021315628,4,1,0,90,0,1
134410,-87.7208174575684,4,1,0,90,0,1
134511,-86.9602540990643,4,1,0,90,0,1
134613,-86.2054293251638,4,1,0,90,0,1
134680,-85.7167033338975,4,1,0,90,0,1
134748,-85.2263166750799,4,1,0,90,0,1
134816,-84.7415091182868,4,1,0,90,0,1
134883,-84.2691955744114,4,1,0,90,0,1
134951,-83.7951857060137,4,1,0,90,0,1
135028,-66.6666666666667,4,1,0,80,0,0
136548,-100,4,1,0,70,0,0
137052,-101.264637002342,4,1,0,70,0,0
137255,-101.910627867513,4,1,0,70,0,0
137458,-102.564913501376,4,1,0,70,0,0
137762,-103.560593964554,4,1,0,70,0,0
137863,-103.895687832383,4,1,0,70,0,0
138066,-104.575795685402,4,1,0,70,0,0
138268,-105.261449576422,4,1,0,70,0,0
138471,-105.959615761615,4,1,0,70,0,0
138674,-106.66710521988,4,1,0,70,0,0
138876,-107.380550312904,4,1,0,70,0,0
139079,-108.107207147143,4,1,0,70,0,0
139282,-108.843765732505,4,1,0,70,0,0
139383,-109.213982622752,4,1,0,70,0,0
139485,-109.590429845904,4,1,0,70,0,0
139687,-110.343654304185,4,1,0,70,0,0
139890,-100,4,1,0,70,0,0
140093,-100.629906600056,4,1,0,70,0,0
140295,-101.264637002342,4,1,0,70,0,0
140498,-101.910627867513,4,1,0,70,0,0
140701,-102.564913501376,4,1,0,70,0,0
141005,-103.560593964554,4,1,0,70,0,0
141106,-103.895687832383,4,1,0,70,0,0
141309,-104.575795685402,4,1,0,70,0,0
141512,-105.264866268502,4,1,0,70,0,0
141714,-105.959615761615,4,1,0,70,0,0
141917,-106.66710521988,4,1,0,70,0,0
142120,-107.384105960265,4,1,0,70,0,0
142322,-108.107207147143,4,1,0,70,0,0
142525,-108.843765732505,4,1,0,70,0,0
142593,-109.092743970128,4,1,0,70,0,0
142660,-109.339177343223,4,1,0,70,0,0
142728,-109.590429845904,4,1,0,70,0,0
142930,-110.343654304185,4,1,0,70,0,0
143133,-100,4,1,0,70,0,0
143336,-100.629906600056,4,1,0,70,0,0
143539,-101.267799150637,4,1,0,70,0,0
143741,-101.910627867513,4,1,0,70,0,0
143944,-102.564913501376,4,1,0,70,0,0
144248,-103.560593964554,4,1,0,70,0,0
144349,-103.895687832383,4,1,0,70,0,0
144552,-104.575795685402,4,1,0,70,0,0
144755,-105.264866268502,4,1,0,70,0,0
144958,-105.963077928443,4,1,0,70,0,0
145160,-106.66710521988,4,1,0,70,0,0
145363,-107.384105960265,4,1,0,70,0,0
145566,-108.110811081108,4,1,0,70,0,0
145768,-108.843765732505,4,1,0,70,0,0
145870,-109.217660728118,4,1,0,70,0,0
145971,-109.590429845904,4,1,0,70,0,0
146174,-110.347408894484,4,1,0,70,0,0
146376,-100,4,1,0,70,0,0
146579,-100.629711201415,4,1,0,70,0,0
146782,-101.267403383905,4,1,0,70,0,0
146985,-101.913229241934,4,1,0,70,0,0
147187,-102.564102564103,4,1,0,70,0,0
147491,-103.559457302474,4,1,0,70,0,0
147593,-103.897767671268,4,1,0,70,0,0
147795,-104.574320621514,4,1,0,70,0,0
147998,-105.263157894737,4,1,0,70,0,0
148606,-83.3333333333333,4,1,0,70,0,0
149521,-90.9090909090909,4,1,0,80,0,0
149822,-102.557609521398,4,1,0,80,0,0
149924,-103.899435608004,4,1,0,80,0,0
150025,-105.263157894737,4,1,0,80,0,0
150227,-99.9999999999999,4,1,0,80,0,0
150429,-102.557609521398,4,1,0,80,0,0
150531,-103.899435608004,4,1,0,80,0,0
150632,-105.263157894737,4,1,0,80,0,0
150832,-99.9999999999999,4,1,0,80,0,0
151034,-102.557609521398,4,1,0,80,0,0
151136,-103.899435608004,4,1,0,80,0,0
151237,-105.263157894737,4,1,0,80,0,0
151444,-100,4,1,0,80,0,0
151545,-101.262657832229,4,1,0,80,0,0
151647,-102.570596429024,4,1,0,80,0,0
151849,-105.263157894737,4,1,0,80,0,0
152052,-100,4,1,0,80,0,0
152153,-98.7699427597126,4,1,0,80,0,0
152255,-97.5580416215566,4,1,0,80,0,0
152356,-96.386974090801,4,1,0,80,0,0
152458,-95.2325035227806,4,1,0,80,0,0
152559,-94.116281768597,4,1,0,80,0,0
152660,-93.0259233769213,4,1,0,80,0,0
152863,-90.9090909090909,4,1,0,80,0,0
153066,-93.0259233769213,4,1,0,80,0,0
153268,-95.2325035227806,4,1,0,80,0,0
153370,-96.386974090801,4,1,0,80,0,0
153572,-98.7579152459815,4,1,0,80,0,0
153674,-100,4,1,0,80,0,0
153775,-101.261081283556,4,1,0,80,0,0
153876,-102.554375316136,4,1,0,80,0,0
154079,-105.25632706035,4,1,0,80,0,0
154147,-106.193531491423,4,1,0,80,0,0
154214,-107.133421400264,4,1,0,80,0,0
154282,-108.104505465209,4,1,0,80,0,0
154383,-109.579786515336,4,1,0,80,0,0
154485,-90.9090909090908,4,1,0,80,0,0
154687,-93.0161401361585,4,1,0,80,0,0
154789,-94.1176470588235,4,1,0,80,0,0
154991,-96.3779028295157,4,1,0,80,0,0
155194,-98.761421319797,4,1,0,80,0,0
155295,-99.9917769920237,4,1,0,80,0,0
155498,-102.559777337326,4,1,0,80,0,0
155566,-103.44974265175,4,1,0,80,0,0
155633,-104.341856873177,4,1,0,80,0,0
155701,-105.263157894737,4,1,0,80,0,0
155903,-90.9090909090909,4,1,0,80,0,0
156309,-93.0259233769213,4,1,0,80,0,0
156512,-95.2436876100998,4,1,0,80,0,0
156613,-96.386974090801,4,1,0,80,0,0
156714,-97.5580416215566,4,1,0,80,0,0
156816,-98.7699427597126,4,1,0,80,0,0
156917,-100,4,1,0,80,0,0
157221,-103.894440174225,4,1,0,80,0,0
157322,-105.25632706035,4,1,0,80,0,0
157525,-90.9090909090909,4,1,0,80,0,0
157930,-93.0165834624433,4,1,0,80,0,0
158133,-95.2352975735856,4,1,0,80,0,0
158235,-96.3905571742879,4,1,0,80,0,0
158336,-97.5624435750828,4,1,0,80,0,0
158437,-98.7631755315908,4,1,0,80,0,0
158539,-100.006169412055,4,1,0,80,0,0
158741,-102.562480227776,4,1,0,80,0,0
158944,-105.266575751672,4,1,0,80,0,0
159147,-108.117121323284,4,1,0,80,0,0
159349,-100,4,1,0,80,0,0
159552,-99.3781208834972,4,1,0,80,0,0
159653,-99.0715856340093,4,1,0,80,0,0
159755,-98.7639286366681,4,1,0,80,0,0
159958,-98.1572816121517,4,1,0,80,0,0
160160,-97.5609756097561,4,1,0,80,0,0
160262,-97.2626150571163,4,1,0,80,0,0
160464,-96.6770973029355,4,1,0,80,0,0
160566,-96.3841102890929,4,1,0,80,0,0
160768,-95.8090906405978,4,1,0,80,0,0
160870,-95.5213332940726,4,1,0,80,0,0
160971,-95.2380952380952,4,1,0,80,0,0
161072,-94.9565319204988,4,1,0,80,0,0
161174,-94.6738654603823,4,1,0,80,0,0
161275,-94.3956235814468,4,1,0,80,0,0
161376,-94.1190123886616,4,1,0,80,0,0
161579,-93.5679261609461,4,1,0,80,0,0
161782,-93.0232558139535,4,1,0,80,0,0
161985,-92.4848899532444,4,1,0,80,0,0
162052,-92.3085678513502,4,1,0,80,0,0
162120,-92.1303001902814,4,1,0,80,0,0
162187,-91.9553262656613,4,1,0,80,0,0
162390,-91.4292156365379,4,1,0,80,0,0
162593,-90.9090909090909,4,1,0,80,0,0
162795,-102.557609521398,4,1,0,80,0,0
162897,-103.899435608004,4,1,0,80,0,0
162998,-105.263157894737,4,1,0,80,0,0
163200,-99.9999999999999,4,1,0,80,0,0
163402,-102.557609521398,4,1,0,80,0,0
163504,-103.899435608004,4,1,0,80,0,0
163605,-105.263157894737,4,1,0,80,0,0
163805,-99.9999999999999,4,1,0,80,0,0
164007,-102.557609521398,4,1,0,80,0,0
164109,-103.899435608004,4,1,0,80,0,0
164210,-105.263157894737,4,1,0,80,0,0
164417,-100,4,1,0,80,0,0
164518,-101.262657832229,4,1,0,80,0,0
164620,-102.570596429024,4,1,0,80,0,0
164822,-100,4,1,0,80,0,0
164924,-99.00410076157,4,1,0,80,0,0
165025,-98.0373199265204,4,1,0,80,0,0
165126,-97.0892378399081,4,1,0,80,0,0
165228,-96.1501991276313,4,1,0,80,0,0
165329,-95.2380952380952,4,1,0,80,0,0
165430,-94.3431336062523,4,1,0,80,0,0
165633,-92.594283627066,4,1,0,80,0,0
165735,-91.7397991495522,4,1,0,80,0,0
165836,-90.9090909090909,4,1,0,80,0,0
165937,-91.9501133786848,4,1,0,80,0,0
166039,-93.0259233769213,4,1,0,80,0,0
166241,-95.2325035227806,4,1,0,80,0,0
166343,-96.386974090801,4,1,0,80,0,0
166444,-97.5580416215566,4,1,0,80,0,0
166545,-98.7579152459815,4,1,0,80,0,0
166647,-100,4,1,0,80,0,0
166748,-101.261081283556,4,1,0,80,0,0
166849,-102.554375316136,4,1,0,80,0,0
167052,-105.25632706035,4,1,0,80,0,0
167120,-106.193531491423,4,1,0,80,0,0
167187,-107.133421400264,4,1,0,80,0,0
167255,-108.104505465209,4,1,0,80,0,0
167458,-90.9090909090908,4,1,0,80,0,0
167559,-91.950546334455,4,1,0,80,0,0
167660,-93.0161401361585,4,1,0,80,0,0
167762,-94.1176470588235,4,1,0,80,0,0
167964,-96.3779028295157,4,1,0,80,0,0
168167,-98.761421319797,4,1,0,80,0,0
168268,-99.9917769920237,4,1,0,80,0,0
168370,-101.26582278481,4,1,0,80,0,0
168471,-102.559777337326,4,1,0,80,0,0
168539,-103.44974265175,4,1,0,80,0,0
168606,-104.341856873177,4,1,0,80,0,0
168674,-105.263157894737,4,1,0,80,0,0
168874,-90.9090909090909,4,1,0,80,0,0
169280,-93.0259233769213,4,1,0,80,0,0
169483,-95.2436876100998,4,1,0,80,0,0
169584,-96.386974090801,4,1,0,80,0,0
169685,-97.5580416215566,4,1,0,80,0,0
169787,-98.7699427597126,4,1,0,80,0,0
169888,-100,4,1,0,80,0,0
170192,-103.894440174225,4,1,0,80,0,0
170293,-105.25632706035,4,1,0,80,0,0
170496,-90.9090909090909,4,1,0,80,0,0
170901,-93.0165834624433,4,1,0,80,0,0
171104,-95.2352975735856,4,1,0,80,0,0
171206,-96.3905571742879,4,1,0,80,0,0
171307,-97.5624435750828,4,1,0,80,0,0
171408,-98.7631755315908,4,1,0,80,0,0
171510,-100.006169412055,4,1,0,80,0,0
171712,-102.562480227776,4,1,0,80,0,0
171915,-105.266575751672,4,1,0,80,0,0
172118,-108.117121323284,4,1,0,80,0,0
172320,-100,4,1,0,80,0,0
172523,-99.3781208834972,4,1,0,80,0,0
172624,-99.0715856340093,4,1,0,80,0,0
172726,-98.7639286366681,4,1,0,80,0,0
172929,-98.1572816121517,4,1,0,80,0,0
172930,-98.160251755023,4,1,0,80,0,0
173131,-97.5609756097561,4,1,0,80,0,0
173233,-97.2626150571163,4,1,0,80,0,0
173435,-96.6770973029355,4,1,0,80,0,0
173537,-96.3841102890929,4,1,0,80,0,0
173739,-95.8090906405978,4,1,0,80,0,0
173843,-95.5213332940726,4,1,0,80,0,0
173942,-95.2380952380952,4,1,0,80,0,0
174555,-80,4,1,0,80,0,0
174758,-95.2380952380954,4,1,0,80,0,0
175569,405.405405405405,4,1,0,40,1,8
176785,-142.857142857143,4,1,0,40,0,0
178710,-83.3333333333333,4,1,0,80,0,0
180028,-50,4,1,0,100,0,1
180231,-50,4,1,0,100,0,0
180433,405.405405405405,4,1,0,90,1,1
180433,-86.9565217391304,4,1,0,90,0,1
183671,-80,4,1,0,90,0,1
183773,-86.9565217391304,4,1,0,90,0,1
188131,-80,4,1,0,90,0,1
188232,-86.9565217391304,4,1,0,90,0,1
188398,-87.5886835420864,4,1,0,90,0,1
188466,-88.2378893496868,4,1,0,90,0,1
188533,-88.8809883565905,4,1,0,90,0,1
188736,-90.9090909090909,4,1,0,90,0,1
188804,-91.6086478563576,4,1,0,90,0,1
188871,-92.3105326317733,4,1,0,90,0,1
188939,-93.0319099451112,4,1,0,90,0,1
189141,-64.5161290322581,4,1,0,90,0,1
189547,-74.0740740740741,4,1,0,90,0,1
189614,-74.6825989544436,4,1,0,90,0,1
189682,-75.3125470703419,4,1,0,90,0,1
189749,-75.9416767922236,4,1,0,90,0,1
189851,-76.9230769230769,4,1,0,90,0,1
189952,-77.9180302321957,4,1,0,90,0,1
190054,-78.9515237644087,4,1,0,90,0,1
190155,-80,4,1,0,90,0,1
190259,-86.9565217391304,4,1,0,90,0,1
196644,-80,4,1,0,90,0,1
196748,-86.9565217391304,4,1,0,90,0,1
200293,-80,4,1,0,90,0,1
200397,-86.9565217391304,4,1,0,90,0,1
200594,-86.2068965517241,4,1,0,90,0,1
200695,-85.4773912300197,4,1,0,90,0,1
200797,-84.7457627118644,4,1,0,90,0,1
200898,-84.0336134453782,4,1,0,90,0,1
200999,-83.3333333333333,4,1,0,90,0,1
201101,-82.6446280991736,4,1,0,90,0,1
201168,-82.1962847279303,4,1,0,90,0,1
201236,-81.7460966238862,4,1,0,90,0,1
201304,-81.2942037232745,4,1,0,90,0,1
201371,-80.8603541683513,4,1,0,90,0,1
201439,-80.4246421103426,4,1,0,90,0,1
201514,-66.6666666666667,4,1,0,80,0,0
203131,-95.2380952380952,4,1,0,80,0,0
208912,-125,4,1,0,40,0,0
209520,-95.2380952380952,4,1,0,80,0,0
216307,-111.111111111111,4,1,0,60,0,0
221480,-83.3333333333333,4,1,0,70,0,0

[HitObjects]
256,192,434,5,8,0:0:0:0:
256,192,1042,1,0,0:0:0:0:
256,192,1244,1,8,0:0:0:0:
256,192,1852,1,8,0:0:0:0:
256,192,2055,1,0,0:0:0:0:
256,192,2663,1,8,0:0:0:0:
256,192,2866,1,0,0:0:0:0:
256,192,3069,1,0,0:0:0:0:
256,192,3271,1,8,0:0:0:0:
256,192,3474,1,0,0:0:0:0:
256,192,3677,1,8,0:0:0:0:
256,192,4082,1,0,0:0:0:0:
256,192,4285,1,8,0:0:0:0:
256,192,4893,1,0,0:0:0:0:
256,192,5096,1,0,0:0:0:0:
256,192,5298,1,0,0:0:0:0:
256,192,5704,1,8,0:0:0:0:
256,192,5906,1,0,0:0:0:0:
256,192,6312,1,0,0:0:0:0:
256,192,6515,1,0,0:0:0:0:
256,192,6717,1,0,0:0:0:0:
256,192,6920,1,12,0:0:0:0:
256,192,7325,1,8,0:0:0:0:
256,192,7528,1,0,0:0:0:0:
256,192,7629,1,0,0:0:0:0:
256,192,7731,1,8,0:0:0:0:
256,192,7832,1,0,0:0:0:0:
256,192,7933,1,0,0:0:0:0:
256,192,8136,1,8,0:0:0:0:
256,192,8339,1,8,0:0:0:0:
254,187,8440,1,0,0:0:0:0:
256,192,8542,1,8,0:0:0:0:
224,160,8744,1,0,0:0:0:0:
256,192,8947,1,8,0:0:0:0:
256,192,9150,1,0,0:0:0:0:
256,192,9251,1,0,0:0:0:0:
256,192,9352,1,8,0:0:0:0:
256,192,9555,1,0,0:0:0:0:
256,192,9758,1,8,0:0:0:0:
256,192,9961,1,8,0:0:0:0:
256,192,10163,1,0,0:0:0:0:
254,189,10265,1,0,0:0:0:0:
256,192,10366,1,0,0:0:0:0:
256,192,10569,1,8,0:0:0:0:
256,192,10771,1,0,0:0:0:0:
256,192,10873,1,0,0:0:0:0:
256,192,10974,1,8,0:0:0:0:
256,192,11075,1,0,0:0:0:0:
256,192,11177,1,0,0:0:0:0:
256,192,11379,1,8,0:0:0:0:
256,192,11582,1,8,0:0:0:0:
254,189,11683,1,8,0:0:0:0:
256,192,11785,1,0,0:0:0:0:
256,192,11988,1,0,0:0:0:0:
256,192,12089,1,0,0:0:0:0:
256,192,12190,1,8,0:0:0:0:
256,192,12393,1,0,0:0:0:0:
256,192,12596,1,0,0:0:0:0:
256,192,12697,1,8,0:0:0:0:
256,192,12798,1,0,0:0:0:0:
256,192,12900,1,8,0:0:0:0:
256,192,13001,1,8,0:0:0:0:
256,192,13204,1,8,0:0:0:0:
256,192,13406,1,4,0:0:0:0:
256,192,13812,1,8,0:0:0:0:
256,192,14015,1,0,0:0:0:0:
256,192,14217,1,8,0:0:0:0:
256,192,14319,1,0,0:0:0:0:
256,192,14420,1,0,0:0:0:0:
224,160,14521,1,0,0:0:0:0:
256,192,14623,1,8,0:0:0:0:
256,192,14825,1,8,0:0:0:0:
256,192,15028,1,0,0:0:0:0:
224,160,15129,1,0,0:0:0:0:
224,160,15231,1,0,0:0:0:0:
256,192,15433,1,8,0:0:0:0:
256,192,15636,1,0,0:0:0:0:
256,192,15738,1,0,0:0:0:0:
256,192,15839,1,8,0:0:0:0:
256,192,16042,1,0,0:0:0:0:
256,192,16244,1,8,0:0:0:0:
256,192,16447,1,8,0:0:0:0:
256,192,16650,1,0,0:0:0:0:
255,190,16751,1,0,0:0:0:0:
253,187,16852,1,0,0:0:0:0:
256,192,17055,1,8,0:0:0:0:
256,192,17258,1,0,0:0:0:0:
256,192,17461,1,8,0:0:0:0:
256,192,17562,1,0,0:0:0:0:
256,192,17663,1,0,0:0:0:0:
256,192,17765,1,0,0:0:0:0:
256,192,17866,1,8,0:0:0:0:
256,192,18069,1,8,0:0:0:0:
256,192,18271,1,0,0:0:0:0:
256,192,18474,1,0,0:0:0:0:
256,192,18575,1,0,0:0:0:0:
256,192,18677,1,8,0:0:0:0:
256,192,18879,1,0,0:0:0:0:
256,192,19082,1,0,0:0:0:0:
256,192,19183,1,8,0:0:0:0:
256,192,19285,1,0,0:0:0:0:
256,192,19386,1,0,0:0:0:0:
256,192,19488,1,8,0:0:0:0:
256,192,19589,1,0,0:0:0:0:
256,192,19690,1,8,0:0:0:0:
256,192,19893,1,4,0:0:0:0:
256,192,20197,1,0,0:0:0:0:
256,192,20298,1,8,0:0:0:0:
256,192,20501,1,0,0:0:0:0:
256,192,20906,1,0,0:0:0:0:
256,192,21109,1,8,0:0:0:0:
256,192,21312,1,8,0:0:0:0:
256,192,21515,1,0,0:0:0:0:
256,192,21920,1,8,0:0:0:0:
256,192,22123,1,0,0:0:0:0:
256,192,22528,1,0,0:0:0:0:
256,192,22731,1,8,0:0:0:0:
256,192,22933,1,0,0:0:0:0:
256,192,23035,1,8,0:0:0:0:
256,192,23136,1,0,0:0:0:0:
256,192,23339,1,0,0:0:0:0:
256,192,23542,1,8,0:0:0:0:
256,192,23643,1,8,0:0:0:0:
256,192,23744,1,0,0:0:0:0:
256,192,23947,1,8,0:0:0:0:
256,192,24150,1,0,0:0:0:0:
256,192,24251,1,0,0:0:0:0:
256,192,24352,1,8,0:0:0:0:
261,164,24454,1,0,0:0:0:0:
256,192,24555,1,8,0:0:0:0:
256,192,24758,1,0,0:0:0:0:
256,192,25163,1,8,0:0:0:0:
256,192,25366,1,0,0:0:0:0:
256,192,25771,1,8,0:0:0:0:
256,192,25873,1,0,0:0:0:0:
256,192,25974,1,8,0:0:0:0:
256,192,26177,1,0,0:0:0:0:
256,192,26379,1,8,0:0:0:0:
256,192,26481,1,8,0:0:0:0:
254,188,26582,1,0,0:0:0:0:
256,192,26785,1,8,0:0:0:0:
256,192,26988,1,0,0:0:0:0:
256,192,27190,1,8,0:0:0:0:
256,192,27292,5,0,0:0:0:0:
256,192,27393,1,0,0:0:0:0:
261,164,27494,1,0,0:0:0:0:
256,192,27596,1,8,0:0:0:0:
256,192,27798,1,8,0:0:0:0:
256,192,28001,1,0,0:0:0:0:
256,192,28406,1,8,0:0:0:0:
256,192,28609,1,0,0:0:0:0:
256,192,29015,1,8,0:0:0:0:
256,192,29217,1,8,0:0:0:0:
256,192,29420,1,0,0:0:0:0:
256,192,29521,1,8,0:0:0:0:
256,192,29623,1,0,0:0:0:0:
256,192,29825,1,0,0:0:0:0:
256,192,30028,1,8,0:0:0:0:
256,192,30129,1,8,0:0:0:0:
256,192,30231,1,0,0:0:0:0:
261,164,30332,1,0,0:0:0:0:
256,192,30433,1,8,0:0:0:0:
256,192,30636,1,0,0:0:0:0:
256,192,30738,1,0,0:0:0:0:
256,192,30839,1,8,0:0:0:0:
256,192,31042,1,8,0:0:0:0:
256,192,31244,1,0,0:0:0:0:
256,192,31650,1,8,0:0:0:0:
256,192,31852,1,0,0:0:0:0:
256,192,32055,1,8,0:0:0:0:
256,192,32123,1,0,0:0:0:0:
256,192,32190,1,0,0:0:0:0:
256,192,32258,1,8,0:0:0:0:
256,192,32461,1,0,0:0:0:0:
256,192,32663,1,0,0:0:0:0:
256,192,32866,1,12,0:0:0:0:
256,192,33069,1,8,0:0:0:0:
256,192,33271,1,8,0:0:0:0:
256,192,33474,1,0,0:0:0:0:
256,192,33677,1,8,0:0:0:0:
256,192,33879,1,8,0:0:0:0:
256,192,33981,1,0,0:0:0:0:
256,192,34082,1,8,0:0:0:0:
256,192,34285,1,0,0:0:0:0:
256,192,34488,1,8,0:0:0:0:
256,192,34690,1,8,0:0:0:0:
256,192,34893,1,8,0:0:0:0:
256,192,35096,1,0,0:0:0:0:
256,192,35197,1,0,0:0:0:0:
256,192,35298,1,8,0:0:0:0:
256,192,35602,1,0,0:0:0:0:
256,192,35704,1,8,0:0:0:0:
256,192,35906,1,0,0:0:0:0:
256,192,36109,1,8,0:0:0:0:
256,192,36312,1,8,0:0:0:0:
256,192,36515,1,8,0:0:0:0:
256,192,36717,1,0,0:0:0:0:
256,192,36920,1,8,0:0:0:0:
256,192,37021,1,0,0:0:0:0:
256,192,37123,1,8,0:0:0:0:
256,192,37224,1,0,0:0:0:0:
256,192,37325,1,8,0:0:0:0:
256,192,37528,1,0,0:0:0:0:
256,192,37731,1,8,0:0:0:0:
256,192,38136,1,8,0:0:0:0:
256,192,38339,1,0,0:0:0:0:
256,192,38542,1,8,0:0:0:0:
256,192,38744,1,0,0:0:0:0:
256,192,38812,1,0,0:0:0:0:
256,192,38879,1,0,0:0:0:0:
256,192,38947,1,8,0:0:0:0:
256,192,39150,1,0,0:0:0:0:
256,192,39352,1,12,0:0:0:0:
256,192,39555,1,8,0:0:0:0:
256,192,39758,1,8,0:0:0:0:
256,192,39961,1,0,0:0:0:0:
256,192,40163,1,8,0:0:0:0:
256,192,40366,1,8,0:0:0:0:
256,192,40467,1,0,0:0:0:0:
256,192,40569,1,8,0:0:0:0:
256,192,40771,1,0,0:0:0:0:
256,192,40974,1,8,0:0:0:0:
256,192,41177,1,8,0:0:0:0:
256,192,41379,1,8,0:0:0:0:
256,192,41582,1,0,0:0:0:0:
256,192,41683,1,0,0:0:0:0:
256,192,41785,1,8,0:0:0:0:
256,192,42089,1,0,0:0:0:0:
256,192,42190,1,8,0:0:0:0:
256,192,42393,1,0,0:0:0:0:
256,192,42596,1,8,0:0:0:0:
256,192,43204,1,0,0:0:0:0:
256,192,43271,1,0,0:0:0:0:
256,192,43339,1,0,0:0:0:0:
256,192,43406,1,8,0:0:0:0:
256,192,43609,1,0,0:0:0:0:
256,192,43812,1,0,0:0:0:0:
256,192,44217,1,12,0:0:0:0:
256,192,45839,1,12,0:0:0:0:
256,192,46042,1,0,0:0:0:0:
256,192,46143,1,0,0:0:0:0:
256,192,46244,1,8,0:0:0:0:
256,192,46447,1,0,0:0:0:0:
256,192,46548,1,0,0:0:0:0:
256,192,46650,1,8,0:0:0:0:
256,192,46751,1,0,0:0:0:0:
256,192,46852,1,0,0:0:0:0:
256,192,46954,1,0,0:0:0:0:
256,192,47055,1,8,0:0:0:0:
256,192,47258,1,0,0:0:0:0:
256,192,47461,1,8,0:0:0:0:
256,192,47562,1,0,0:0:0:0:
256,192,47663,1,8,0:0:0:0:
256,192,47765,1,0,0:0:0:0:
256,192,47866,1,8,0:0:0:0:
256,192,47967,1,8,0:0:0:0:
256,192,48069,1,0,0:0:0:0:
256,192,48170,1,0,0:0:0:0:
256,192,48271,1,8,0:0:0:0:
256,192,48474,1,0,0:0:0:0:
256,192,48677,1,8,0:0:0:0:
256,192,48778,1,8,0:0:0:0:
256,192,48879,1,0,0:0:0:0:
256,192,48981,1,0,0:0:0:0:
256,192,49082,1,8,0:0:0:0:
256,192,49183,1,0,0:0:0:0:
256,192,49285,1,0,0:0:0:0:
256,192,49386,1,0,0:0:0:0:
256,192,49488,1,8,0:0:0:0:
256,192,49690,1,0,0:0:0:0:
256,192,49893,1,8,0:0:0:0:
256,192,49994,1,0,0:0:0:0:
256,192,50096,1,8,0:0:0:0:
256,192,50197,1,0,0:0:0:0:
256,192,50298,1,8,0:0:0:0:
256,192,50400,1,0,0:0:0:0:
256,192,50501,1,0,0:0:0:0:
256,192,50602,1,0,0:0:0:0:
256,192,50704,1,8,0:0:0:0:
256,192,50906,1,0,0:0:0:0:
256,192,51109,1,8,0:0:0:0:
256,192,51211,1,0,0:0:0:0:
256,192,51312,1,8,0:0:0:0:
256,192,51413,1,0,0:0:0:0:
256,192,51515,1,8,0:0:0:0:
256,192,51717,1,0,0:0:0:0:
256,192,51819,1,0,0:0:0:0:
256,192,51920,1,8,0:0:0:0:
256,192,52123,1,0,0:0:0:0:
256,192,52325,1,12,0:0:0:0:
256,192,52528,1,0,0:0:0:0:
256,192,52629,1,0,0:0:0:0:
256,192,52731,1,8,0:0:0:0:
256,192,52832,1,0,0:0:0:0:
256,192,52933,1,8,0:0:0:0:
256,192,53035,1,8,0:0:0:0:
256,192,53136,1,0,0:0:0:0:
256,192,53339,1,0,0:0:0:0:
256,192,53542,1,8,0:0:0:0:
256,192,53643,1,8,0:0:0:0:
256,192,53744,1,0,0:0:0:0:
256,192,53846,1,8,0:0:0:0:
256,192,53947,1,0,0:0:0:0:
256,192,54150,1,0,0:0:0:0:
256,192,54352,1,8,0:0:0:0:
256,192,54454,1,0,0:0:0:0:
256,192,54555,1,8,0:0:0:0:
256,192,54656,1,8,0:0:0:0:
256,192,54758,1,0,0:0:0:0:
256,192,54859,1,8,0:0:0:0:
256,192,54961,1,0,0:0:0:0:
256,192,55163,1,8,0:0:0:0:
256,192,55366,1,0,0:0:0:0:
256,192,55467,1,8,0:0:0:0:
256,192,55569,1,0,0:0:0:0:
256,192,55771,1,0,0:0:0:0:
256,192,55873,1,0,0:0:0:0:
256,192,55974,1,8,0:0:0:0:
256,192,56177,1,0,0:0:0:0:
256,192,56278,1,0,0:0:0:0:
256,192,56379,1,8,0:0:0:0:
256,192,56481,1,8,0:0:0:0:
256,192,56582,1,0,0:0:0:0:
256,192,56785,1,12,0:0:0:0:
256,192,56988,1,0,0:0:0:0:
256,192,57055,1,0,0:0:0:0:
256,192,57123,1,0,0:0:0:0:
256,192,57190,1,8,0:0:0:0:
256,192,57393,1,0,0:0:0:0:
256,192,57461,1,0,0:0:0:0:
256,192,57528,1,0,0:0:0:0:
256,192,57596,1,0,0:0:0:0:
256,192,57798,1,12,0:0:0:0:
256,192,58204,1,0,0:0:0:0:
256,192,58271,1,0,0:0:0:0:
256,192,58339,1,0,0:0:0:0:
256,192,58406,1,8,0:0:0:0:
256,192,58508,1,8,0:0:0:0:
256,192,58609,1,8,0:0:0:0:
256,192,58711,1,8,0:0:0:0:
256,192,58812,1,4,0:0:0:0:
256,192,59015,1,0,0:0:0:0:
256,192,59116,1,0,0:0:0:0:
256,192,59217,1,8,0:0:0:0:
256,192,59420,1,0,0:0:0:0:
256,192,59521,1,0,0:0:0:0:
256,192,59623,1,8,0:0:0:0:
256,192,59724,1,0,0:0:0:0:
256,192,59825,1,0,0:0:0:0:
256,192,59927,1,0,0:0:0:0:
256,192,60028,1,8,0:0:0:0:
256,192,60231,1,0,0:0:0:0:
256,192,60433,1,8,0:0:0:0:
256,192,60535,1,0,0:0:0:0:
256,192,60636,1,8,0:0:0:0:
256,192,60738,1,0,0:0:0:0:
256,192,60839,1,8,0:0:0:0:
256,192,60940,1,0,0:0:0:0:
256,192,61042,1,0,0:0:0:0:
256,192,61143,1,0,0:0:0:0:
256,192,61244,1,8,0:0:0:0:
256,192,61447,1,0,0:0:0:0:
256,192,61650,1,8,0:0:0:0:
256,192,61751,1,0,0:0:0:0:
256,192,61852,1,0,0:0:0:0:
256,192,61954,1,0,0:0:0:0:
256,192,62055,1,8,0:0:0:0:
256,192,62156,1,8,0:0:0:0:
256,192,62258,1,0,0:0:0:0:
256,192,62359,1,0,0:0:0:0:
256,192,62461,1,8,0:0:0:0:
256,192,62663,1,8,0:0:0:0:
256,192,62765,1,8,0:0:0:0:
256,192,62866,1,0,0:0:0:0:
256,192,62967,1,8,0:0:0:0:
256,192,63069,1,0,0:0:0:0:
256,192,63170,1,0,0:0:0:0:
256,192,63271,1,8,0:0:0:0:
256,192,63373,1,0,0:0:0:0:
256,192,63474,1,8,0:0:0:0:
256,192,63677,1,0,0:0:0:0:
256,192,63879,1,0,0:0:0:0:
256,192,63981,1,0,0:0:0:0:
256,192,64082,1,8,0:0:0:0:
256,192,64183,1,0,0:0:0:0:
256,192,64285,1,8,0:0:0:0:
256,192,64386,1,0,0:0:0:0:
256,192,64488,1,8,0:0:0:0:
256,192,64690,1,0,0:0:0:0:
256,192,64792,1,0,0:0:0:0:
256,192,64893,1,8,0:0:0:0:
256,192,65096,1,0,0:0:0:0:
256,192,65298,1,12,0:0:0:0:
256,192,65501,1,0,0:0:0:0:
256,192,65602,1,0,0:0:0:0:
256,192,65704,1,8,0:0:0:0:
256,192,65805,1,8,0:0:0:0:
256,192,65906,1,0,0:0:0:0:
256,192,66008,1,8,0:0:0:0:
256,192,66109,1,0,0:0:0:0:
256,192,66312,1,0,0:0:0:0:
256,192,66515,1,8,0:0:0:0:
256,192,66616,1,0,0:0:0:0:
256,192,66717,1,8,0:0:0:0:
256,192,66819,1,8,0:0:0:0:
256,192,66920,1,0,0:0:0:0:
256,192,67123,1,0,0:0:0:0:
256,192,67325,1,8,0:0:0:0:
256,192,67427,1,0,0:0:0:0:
256,192,67528,1,8,0:0:0:0:
256,192,67629,1,8,0:0:0:0:
256,192,67731,1,0,0:0:0:0:
256,192,67832,1,8,0:0:0:0:
256,192,67933,1,0,0:0:0:0:
256,192,68136,1,8,0:0:0:0:
256,192,68339,1,0,0:0:0:0:
256,192,68440,1,0,0:0:0:0:
256,192,68542,1,8,0:0:0:0:
256,192,68744,1,0,0:0:0:0:
256,192,68947,1,12,0:0:0:0:
256,192,69150,1,0,0:0:0:0:
256,192,69251,1,0,0:0:0:0:
256,192,69352,1,8,0:0:0:0:
256,192,69454,1,0,0:0:0:0:
256,192,69555,1,8,0:0:0:0:
256,192,69656,1,8,0:0:0:0:
256,192,69758,1,0,0:0:0:0:
256,192,69825,1,0,0:0:0:0:
256,192,69893,1,0,0:0:0:0:
256,192,69961,1,8,0:0:0:0:
256,192,70028,1,8,0:0:0:0:
256,192,70096,1,8,0:0:0:0:
256,192,70163,1,4,0:0:0:0:
256,192,70366,1,4,0:0:0:0:
256,192,70569,1,4,0:0:0:0:
256,192,71785,1,12,0:0:0:0:
256,192,72190,1,8,0:0:0:0:
256,192,72393,1,0,0:0:0:0:
256,192,72494,1,0,0:0:0:0:
256,192,72596,1,8,0:0:0:0:
256,192,72697,1,0,0:0:0:0:
256,192,72798,1,0,0:0:0:0:
256,192,73001,1,8,0:0:0:0:
256,192,73204,1,8,0:0:0:0:
254,187,73305,1,0,0:0:0:0:
256,192,73406,1,8,0:0:0:0:
224,160,73609,1,0,0:0:0:0:
256,192,73812,1,8,0:0:0:0:
256,192,74015,1,0,0:0:0:0:
256,192,74116,1,0,0:0:0:0:
256,192,74217,1,8,0:0:0:0:
256,192,74420,1,0,0:0:0:0:
256,192,74623,1,8,0:0:0:0:
256,192,74825,1,8,0:0:0:0:
256,192,75028,1,0,0:0:0:0:
254,189,75129,1,0,0:0:0:0:
256,192,75231,1,0,0:0:0:0:
256,192,75433,1,8,0:0:0:0:
256,192,75636,1,0,0:0:0:0:
256,192,75738,1,0,0:0:0:0:
256,192,75839,1,8,0:0:0:0:
256,192,75940,1,0,0:0:0:0:
256,192,76042,1,0,0:0:0:0:
256,192,76244,1,8,0:0:0:0:
256,192,76447,1,8,0:0:0:0:
254,189,76548,1,8,0:0:0:0:
256,192,76650,1,0,0:0:0:0:
256,192,76852,1,0,0:0:0:0:
256,192,76954,1,0,0:0:0:0:
256,192,77055,1,8,0:0:0:0:
256,192,77258,1,0,0:0:0:0:
256,192,77461,1,0,0:0:0:0:
256,192,77562,1,8,0:0:0:0:
256,192,77663,1,0,0:0:0:0:
256,192,77765,1,8,0:0:0:0:
256,192,77866,1,8,0:0:0:0:
256,192,78069,1,8,0:0:0:0:
256,192,78271,1,4,0:0:0:0:
256,192,78677,1,8,0:0:0:0:
256,192,78879,1,0,0:0:0:0:
256,192,79082,1,8,0:0:0:0:
256,192,79183,1,0,0:0:0:0:
256,192,79285,1,0,0:0:0:0:
224,160,79386,1,0,0:0:0:0:
256,192,79488,1,8,0:0:0:0:
256,192,79690,1,8,0:0:0:0:
256,192,79893,1,0,0:0:0:0:
224,160,79994,1,0,0:0:0:0:
224,160,80096,1,0,0:0:0:0:
256,192,80298,1,8,0:0:0:0:
256,192,80501,1,0,0:0:0:0:
256,192,80602,1,0,0:0:0:0:
256,192,80704,1,8,0:0:0:0:
256,192,80906,1,0,0:0:0:0:
256,192,81109,1,8,0:0:0:0:
256,192,81312,1,8,0:0:0:0:
256,192,81515,1,0,0:0:0:0:
256,192,81616,1,0,0:0:0:0:
256,192,81717,1,0,0:0:0:0:
256,192,81920,1,8,0:0:0:0:
256,192,82123,1,0,0:0:0:0:
256,192,82325,1,8,0:0:0:0:
256,192,82427,1,0,0:0:0:0:
256,192,82528,1,0,0:0:0:0:
256,192,82629,1,0,0:0:0:0:
256,192,82731,5,8,0:0:0:0:
256,192,82933,1,8,0:0:0:0:
256,192,83136,1,0,0:0:0:0:
258,183,83339,1,0,0:0:0:0:
259,179,83440,1,0,0:0:0:0:
258,183,83542,1,8,0:0:0:0:
258,183,83643,1,0,0:0:0:0:
259,179,83744,1,0,0:0:0:0:
258,183,83846,1,0,0:0:0:0:
258,183,83947,1,8,0:0:0:0:
259,180,84048,1,8,0:0:0:0:
259,180,84150,1,0,0:0:0:0:
259,180,84251,1,0,0:0:0:0:
256,192,84758,1,0,0:0:0:0:
256,192,85163,1,8,0:0:0:0:
256,192,85366,1,0,0:0:0:0:
256,192,86379,1,0,0:0:0:0:
256,192,86785,1,8,0:0:0:0:
256,192,86988,1,0,0:0:0:0:
256,192,88001,1,0,0:0:0:0:
256,192,88406,1,8,0:0:0:0:
256,192,88609,1,0,0:0:0:0:
256,192,88812,1,8,0:0:0:0:
256,192,89623,1,0,0:0:0:0:
256,192,90028,1,8,0:0:0:0:
256,192,90231,1,0,0:0:0:0:
256,192,90636,1,0,0:0:0:0:
256,192,90839,1,0,0:0:0:0:
256,192,91042,1,0,0:0:0:0:
256,192,91244,1,12,0:0:0:0:
256,192,91548,1,0,0:0:0:0:
256,192,91650,1,8,0:0:0:0:
256,192,91852,1,0,0:0:0:0:
256,192,92055,1,8,0:0:0:0:
254,189,92156,1,0,0:0:0:0:
256,192,92258,1,0,0:0:0:0:
252,175,92359,1,0,0:0:0:0:
256,192,92461,1,8,0:0:0:0:
256,192,92663,1,8,0:0:0:0:
256,192,92866,1,0,0:0:0:0:
256,192,93271,1,8,0:0:0:0:
256,192,93474,1,0,0:0:0:0:
256,192,93879,1,0,0:0:0:0:
256,192,94082,1,8,0:0:0:0:
256,192,94285,1,0,0:0:0:0:
256,192,94386,1,8,0:0:0:0:
256,192,94488,1,0,0:0:0:0:
256,192,94690,1,0,0:0:0:0:
256,192,94893,1,8,0:0:0:0:
256,192,94994,1,8,0:0:0:0:
256,192,95096,1,0,0:0:0:0:
156,18,95197,1,0,0:0:0:0:
256,192,95298,1,8,0:0:0:0:
256,192,95501,1,0,0:0:0:0:
256,192,95602,1,0,0:0:0:0:
256,192,95704,1,8,0:0:0:0:
256,192,95906,1,8,0:0:0:0:
256,192,96109,1,0,0:0:0:0:
256,192,96515,1,8,0:0:0:0:
256,192,96717,1,0,0:0:0:0:
256,192,96920,1,8,0:0:0:0:
256,192,96988,1,0,0:0:0:0:
256,192,97055,1,0,0:0:0:0:
256,192,97123,1,8,0:0:0:0:
256,192,97325,1,0,0:0:0:0:
256,192,97528,1,0,0:0:0:0:
256,192,97731,1,12,0:0:0:0:
256,192,97933,1,8,0:0:0:0:
256,192,98136,1,8,0:0:0:0:
256,192,98339,1,0,0:0:0:0:
256,192,98542,1,8,0:0:0:0:
256,192,98744,1,8,0:0:0:0:
256,192,98846,1,0,0:0:0:0:
256,192,98947,1,8,0:0:0:0:
256,192,99150,1,0,0:0:0:0:
256,192,99352,1,8,0:0:0:0:
256,192,99555,1,8,0:0:0:0:
256,192,99758,1,8,0:0:0:0:
256,192,99961,1,0,0:0:0:0:
256,192,100062,1,0,0:0:0:0:
256,192,100163,1,8,0:0:0:0:
256,192,100467,1,0,0:0:0:0:
256,192,100569,1,8,0:0:0:0:
256,192,100771,1,0,0:0:0:0:
256,192,100974,1,8,0:0:0:0:
256,192,101177,1,8,0:0:0:0:
256,192,101379,1,8,0:0:0:0:
256,192,101582,1,0,0:0:0:0:
256,192,101785,1,8,0:0:0:0:
256,192,101886,1,0,0:0:0:0:
256,192,101988,1,8,0:0:0:0:
256,192,102089,1,0,0:0:0:0:
256,192,102190,1,8,0:0:0:0:
256,192,102393,1,0,0:0:0:0:
256,192,102596,1,8,0:0:0:0:
256,192,103001,1,8,0:0:0:0:
256,192,103204,1,0,0:0:0:0:
256,192,103406,1,8,0:0:0:0:
256,192,103609,1,0,0:0:0:0:
256,192,103677,1,0,0:0:0:0:
256,192,103744,1,0,0:0:0:0:
256,192,103812,1,8,0:0:0:0:
256,192,104015,1,0,0:0:0:0:
256,192,104217,1,12,0:0:0:0:
256,192,104420,1,8,0:0:0:0:
256,192,104623,1,8,0:0:0:0:
256,192,104825,1,0,0:0:0:0:
256,192,105028,1,8,0:0:0:0:
256,192,105231,1,8,0:0:0:0:
256,192,105332,1,0,0:0:0:0:
256,192,105433,1,8,0:0:0:0:
256,192,105636,1,0,0:0:0:0:
256,192,105839,1,8,0:0:0:0:
256,192,106042,1,8,0:0:0:0:
256,192,106244,1,8,0:0:0:0:
256,192,106447,1,0,0:0:0:0:
256,192,106548,1,0,0:0:0:0:
256,192,106650,1,8,0:0:0:0:
256,192,106954,1,0,0:0:0:0:
256,192,107055,1,8,0:0:0:0:
256,192,107258,1,0,0:0:0:0:
256,192,107461,1,8,0:0:0:0:
256,192,108069,1,0,0:0:0:0:
255,190,108136,1,0,0:0:0:0:
254,188,108204,1,0,0:0:0:0:
256,192,108271,1,8,0:0:0:0:
256,192,108474,1,0,0:0:0:0:
256,192,108677,1,0,0:0:0:0:
256,192,109082,1,12,0:0:0:0:
256,192,110704,1,12,0:0:0:0:
256,192,110906,1,0,0:0:0:0:
256,192,111008,1,0,0:0:0:0:
256,192,111109,1,8,0:0:0:0:
256,192,111312,1,0,0:0:0:0:
256,192,111413,1,0,0:0:0:0:
256,192,111515,1,8,0:0:0:0:
256,192,111616,1,0,0:0:0:0:
256,192,111717,1,0,0:0:0:0:
256,192,111819,1,0,0:0:0:0:
256,192,111920,1,8,0:0:0:0:
256,192,112123,1,0,0:0:0:0:
256,192,112325,1,8,0:0:0:0:
256,192,112427,1,8,0:0:0:0:
256,192,112528,1,0,0:0:0:0:
256,192,112629,1,0,0:0:0:0:
256,192,112731,1,8,0:0:0:0:
256,192,112832,1,0,0:0:0:0:
256,192,112933,1,8,0:0:0:0:
256,192,113035,1,0,0:0:0:0:
256,192,113136,1,8,0:0:0:0:
256,192,113339,1,0,0:0:0:0:
256,192,113542,1,8,0:0:0:0:
256,192,113643,1,0,0:0:0:0:
256,192,113744,1,0,0:0:0:0:
256,192,113846,1,0,0:0:0:0:
256,192,113947,1,8,0:0:0:0:
256,192,114048,1,8,0:0:0:0:
256,192,114150,1,0,0:0:0:0:
256,192,114251,1,0,0:0:0:0:
256,192,114352,1,8,0:0:0:0:
256,192,114555,1,0,0:0:0:0:
256,192,114758,1,8,0:0:0:0:
256,192,114859,1,0,0:0:0:0:
256,192,114961,1,8,0:0:0:0:
256,192,115062,1,8,0:0:0:0:
256,192,115163,1,0,0:0:0:0:
256,192,115265,1,0,0:0:0:0:
256,192,115366,1,8,0:0:0:0:
256,192,115467,1,0,0:0:0:0:
256,192,115569,1,8,0:0:0:0:
256,192,115771,1,0,0:0:0:0:
256,192,115974,1,8,0:0:0:0:
256,192,116075,1,0,0:0:0:0:
256,192,116177,1,8,0:0:0:0:
256,192,116278,1,0,0:0:0:0:
256,192,116379,1,8,0:0:0:0:
256,192,116582,1,0,0:0:0:0:
256,192,116683,1,0,0:0:0:0:
256,192,116785,1,8,0:0:0:0:
256,192,116988,1,0,0:0:0:0:
256,192,117190,1,12,0:0:0:0:
256,192,117393,1,0,0:0:0:0:
256,192,117494,1,0,0:0:0:0:
256,192,117596,1,8,0:0:0:0:
256,192,117697,1,0,0:0:0:0:
256,192,117798,1,8,0:0:0:0:
256,192,117900,1,8,0:0:0:0:
256,192,118001,1,0,0:0:0:0:
256,192,118204,1,0,0:0:0:0:
256,192,118406,1,8,0:0:0:0:
256,192,118508,1,8,0:0:0:0:
256,192,118609,1,0,0:0:0:0:
256,192,118711,1,8,0:0:0:0:
256,192,118812,1,0,0:0:0:0:
256,192,119015,1,0,0:0:0:0:
256,192,119217,1,8,0:0:0:0:
256,192,119319,1,0,0:0:0:0:
256,192,119420,1,8,0:0:0:0:
256,192,119521,1,0,0:0:0:0:
256,192,119623,1,8,0:0:0:0:
256,192,119724,1,8,0:0:0:0:
256,192,119825,1,0,0:0:0:0:
256,192,120028,1,8,0:0:0:0:
256,192,120129,1,0,0:0:0:0:
256,192,120231,1,8,0:0:0:0:
256,192,120332,1,8,0:0:0:0:
256,192,120433,1,0,0:0:0:0:
256,192,120636,1,0,0:0:0:0:
256,192,120738,1,0,0:0:0:0:
256,192,120839,1,8,0:0:0:0:
256,192,121042,1,0,0:0:0:0:
256,192,121143,1,0,0:0:0:0:
256,192,121244,1,8,0:0:0:0:
256,192,121346,1,8,0:0:0:0:
256,192,121447,1,0,0:0:0:0:
256,192,121650,1,12,0:0:0:0:
256,192,121852,1,0,0:0:0:0:
256,192,121920,1,0,0:0:0:0:
256,192,121988,1,0,0:0:0:0:
256,192,122055,1,8,0:0:0:0:
256,192,122258,1,0,0:0:0:0:
256,192,122325,1,0,0:0:0:0:
256,192,122393,1,0,0:0:0:0:
256,192,122461,1,0,0:0:0:0:
256,192,122663,1,12,0:0:0:0:
256,192,123069,1,0,0:0:0:0:
256,192,123136,1,0,0:0:0:0:
256,192,123204,1,0,0:0:0:0:
256,192,123271,1,8,0:0:0:0:
256,192,123373,1,8,0:0:0:0:
256,192,123474,1,8,0:0:0:0:
256,192,123575,1,8,0:0:0:0:
256,192,123677,1,4,0:0:0:0:
256,192,123879,1,0,0:0:0:0:
256,192,123981,1,0,0:0:0:0:
256,192,124082,1,8,0:0:0:0:
256,192,124285,1,0,0:0:0:0:
256,192,124386,1,0,0:0:0:0:
256,192,124488,1,8,0:0:0:0:
256,192,124589,1,0,0:0:0:0:
256,192,124690,1,0,0:0:0:0:
256,192,124792,1,0,0:0:0:0:
256,192,124893,1,8,0:0:0:0:
256,192,125096,1,0,0:0:0:0:
256,192,125298,1,8,0:0:0:0:
256,192,125400,1,0,0:0:0:0:
256,192,125501,1,8,0:0:0:0:
256,192,125602,1,8,0:0:0:0:
256,192,125704,1,0,0:0:0:0:
256,192,125805,1,8,0:0:0:0:
256,192,125906,1,0,0:0:0:0:
256,192,126008,1,0,0:0:0:0:
256,192,126109,1,8,0:0:0:0:
256,192,126312,1,0,0:0:0:0:
256,192,126515,1,8,0:0:0:0:
256,192,126616,1,8,0:0:0:0:
256,192,126717,1,0,0:0:0:0:
256,192,126819,1,0,0:0:0:0:
256,192,126920,1,8,0:0:0:0:
256,192,127021,1,0,0:0:0:0:
256,192,127123,1,0,0:0:0:0:
256,192,127224,1,0,0:0:0:0:
256,192,127325,1,8,0:0:0:0:
256,192,127528,1,8,0:0:0:0:
256,192,127629,1,8,0:0:0:0:
256,192,127731,1,0,0:0:0:0:
256,192,127832,1,8,0:0:0:0:
256,192,127933,1,0,0:0:0:0:
256,192,128035,1,8,0:0:0:0:
256,192,128136,1,0,0:0:0:0:
256,192,128238,1,0,0:0:0:0:
256,192,128339,1,8,0:0:0:0:
256,192,128542,1,0,0:0:0:0:
256,192,128744,1,0,0:0:0:0:
256,192,128846,1,0,0:0:0:0:
256,192,128947,1,8,0:0:0:0:
256,192,129048,1,0,0:0:0:0:
256,192,129150,1,0,0:0:0:0:
256,192,129251,1,0,0:0:0:0:
256,192,129352,1,8,0:0:0:0:
256,192,129555,1,0,0:0:0:0:
256,192,129656,1,0,0:0:0:0:
256,192,129758,1,8,0:0:0:0:
256,192,129961,1,0,0:0:0:0:
256,192,130163,1,12,0:0:0:0:
256,192,130366,1,0,0:0:0:0:
256,192,130467,1,0,0:0:0:0:
256,192,130569,1,8,0:0:0:0:
256,192,130670,1,8,0:0:0:0:
256,192,130771,1,0,0:0:0:0:
256,192,130873,1,8,0:0:0:0:
256,192,130974,1,0,0:0:0:0:
256,192,131177,1,0,0:0:0:0:
256,192,131379,1,8,0:0:0:0:
256,192,131481,1,0,0:0:0:0:
256,192,131582,1,8,0:0:0:0:
256,192,131683,1,8,0:0:0:0:
256,192,131785,1,0,0:0:0:0:
256,192,131988,1,0,0:0:0:0:
256,192,132190,1,8,0:0:0:0:
256,192,132292,1,0,0:0:0:0:
256,192,132393,1,8,0:0:0:0:
256,192,132494,1,8,0:0:0:0:
256,192,132596,1,0,0:0:0:0:
256,192,132697,1,8,0:0:0:0:
256,192,132798,1,0,0:0:0:0:
256,192,133001,1,8,0:0:0:0:
256,192,133204,1,0,0:0:0:0:
256,192,133305,1,0,0:0:0:0:
256,192,133406,1,8,0:0:0:0:
256,192,133609,1,0,0:0:0:0:
256,192,133812,1,12,0:0:0:0:
256,192,134015,1,0,0:0:0:0:
256,192,134116,1,0,0:0:0:0:
256,192,134217,1,8,0:0:0:0:
256,192,134319,1,0,0:0:0:0:
256,192,134420,1,8,0:0:0:0:
256,192,134521,1,8,0:0:0:0:
256,192,134623,1,0,0:0:0:0:
256,192,134690,1,0,0:0:0:0:
256,192,134758,1,0,0:0:0:0:
256,192,134825,1,8,0:0:0:0:
256,192,134893,1,8,0:0:0:0:
256,192,134961,1,8,0:0:0:0:
256,192,135028,1,4,0:0:0:0:
256,192,135231,1,4,0:0:0:0:
256,192,135433,1,4,0:0:0:0:
256,192,136650,1,12,0:0:0:0:
256,192,137055,1,8,0:0:0:0:
256,192,137258,1,0,0:0:0:0:
256,192,137461,1,8,0:0:0:0:
256,192,137765,1,8,0:0:0:0:
256,192,137866,1,0,0:0:0:0:
256,192,138069,1,8,0:0:0:0:
256,192,138271,1,0,0:0:0:0:
256,192,138474,1,8,0:0:0:0:
256,192,138677,1,8,0:0:0:0:
256,192,138879,1,0,0:0:0:0:
256,192,139082,1,8,0:0:0:0:
256,192,139285,1,0,0:0:0:0:
256,192,139386,1,8,0:0:0:0:
256,192,139488,1,0,0:0:0:0:
256,192,139690,1,8,0:0:0:0:
256,192,139893,1,0,0:0:0:0:
256,192,140096,1,8,0:0:0:0:
256,192,140298,1,8,0:0:0:0:
256,192,140501,1,0,0:0:0:0:
256,192,140704,1,8,0:0:0:0:
256,192,141008,1,8,0:0:0:0:
256,192,141109,1,0,0:0:0:0:
256,192,141312,1,8,0:0:0:0:
256,192,141515,1,0,0:0:0:0:
256,192,141717,1,8,0:0:0:0:
256,192,141920,1,8,0:0:0:0:
256,192,142123,1,0,0:0:0:0:
256,192,142325,1,8,0:0:0:0:
256,192,142528,1,8,0:0:0:0:
253,190,142596,1,8,0:0:0:0:
256,192,142663,1,8,0:0:0:0:
256,192,142731,1,0,0:0:0:0:
256,192,142933,1,8,0:0:0:0:
256,192,143136,1,0,0:0:0:0:
256,192,143339,1,8,0:0:0:0:
256,192,143542,1,8,0:0:0:0:
256,192,143744,1,0,0:0:0:0:
256,192,143947,1,8,0:0:0:0:
256,192,144251,1,8,0:0:0:0:
256,192,144352,1,0,0:0:0:0:
256,192,144555,1,8,0:0:0:0:
256,192,144758,1,0,0:0:0:0:
256,192,144961,1,8,0:0:0:0:
256,192,145163,1,8,0:0:0:0:
256,192,145366,1,0,0:0:0:0:
256,192,145569,1,8,0:0:0:0:
256,192,145771,1,0,0:0:0:0:
256,192,145873,1,8,0:0:0:0:
256,192,145974,1,0,0:0:0:0:
256,192,146177,1,8,0:0:0:0:
256,192,146379,1,0,0:0:0:0:
256,192,146582,1,8,0:0:0:0:
256,192,146785,1,8,0:0:0:0:
256,192,146988,1,0,0:0:0:0:
256,192,147190,1,8,0:0:0:0:
256,192,147494,1,8,0:0:0:0:
256,192,147596,1,0,0:0:0:0:
256,192,147798,1,8,0:0:0:0:
256,192,148001,1,0,0:0:0:0:
256,192,148305,1,0,0:0:0:0:
256,192,148609,1,12,0:0:0:0:
256,192,149623,1,4,0:0:0:0:
256,192,149825,1,0,0:0:0:0:
256,192,149927,1,0,0:0:0:0:
256,192,150028,1,8,0:0:0:0:
256,192,150231,1,0,0:0:0:0:
256,192,150433,1,0,0:0:0:0:
256,192,150535,1,0,0:0:0:0:
256,192,150636,1,8,0:0:0:0:
256,192,150839,1,0,0:0:0:0:
256,192,151042,1,0,0:0:0:0:
256,192,151143,1,0,0:0:0:0:
256,192,151244,1,8,0:0:0:0:
256,192,151447,1,8,0:0:0:0:
256,192,151548,1,0,0:0:0:0:
256,192,151650,1,8,0:0:0:0:
256,192,151852,1,0,0:0:0:0:
256,192,152055,1,8,0:0:0:0:
256,192,152156,1,0,0:0:0:0:
256,192,152258,1,8,0:0:0:0:
256,192,152359,1,0,0:0:0:0:
256,192,152461,1,8,0:0:0:0:
256,192,152562,1,8,0:0:0:0:
256,192,152663,1,0,0:0:0:0:
256,192,152866,1,8,0:0:0:0:
256,192,153069,1,0,0:0:0:0:
256,192,153271,1,8,0:0:0:0:
256,192,153373,1,0,0:0:0:0:
256,192,153575,1,0,0:0:0:0:
256,192,153677,1,8,0:0:0:0:
256,192,153778,1,8,0:0:0:0:
256,192,153879,1,0,0:0:0:0:
256,192,154082,1,8,0:0:0:0:
256,188,154150,1,8,0:0:0:0:
259,191,154217,1,0,0:0:0:0:
256,192,154285,1,0,0:0:0:0:
256,192,154488,1,8,0:0:0:0:
256,192,154690,1,8,0:0:0:0:
256,192,154792,1,0,0:0:0:0:
256,192,154994,1,8,0:0:0:0:
256,192,155197,1,0,0:0:0:0:
256,192,155298,1,8,0:0:0:0:
256,192,155501,1,8,0:0:0:0:
256,192,155569,1,8,0:0:0:0:
255,188,155636,1,8,0:0:0:0:
256,192,155704,1,0,0:0:0:0:
256,192,155906,1,8,0:0:0:0:
256,192,156008,1,0,0:0:0:0:
256,192,156109,1,8,0:0:0:0:
256,192,156312,1,0,0:0:0:0:
256,192,156515,1,8,0:0:0:0:
256,192,156616,1,0,0:0:0:0:
256,192,156717,1,0,0:0:0:0:
256,192,156819,1,0,0:0:0:0:
256,192,156920,1,8,0:0:0:0:
256,192,157224,1,8,0:0:0:0:
256,192,157325,1,0,0:0:0:0:
256,192,157528,1,8,0:0:0:0:
257,189,157629,1,0,0:0:0:0:
256,192,157731,1,8,0:0:0:0:
256,192,157933,1,0,0:0:0:0:
256,192,158136,1,8,0:0:0:0:
256,192,158238,1,0,0:0:0:0:
256,192,158339,1,0,0:0:0:0:
256,192,158440,1,0,0:0:0:0:
256,192,158542,1,8,0:0:0:0:
256,192,158744,1,0,0:0:0:0:
256,192,158947,1,8,0:0:0:0:
256,192,159150,1,8,0:0:0:0:
256,192,159352,1,0,0:0:0:0:
256,192,159555,1,8,0:0:0:0:
256,192,159656,1,0,0:0:0:0:
256,192,159758,1,8,0:0:0:0:
256,192,159961,1,0,0:0:0:0:
256,192,160163,1,8,0:0:0:0:
256,192,160265,1,0,0:0:0:0:
256,192,160467,1,0,0:0:0:0:
256,192,160569,1,8,0:0:0:0:
256,192,160771,1,0,0:0:0:0:
254,188,160873,1,0,0:0:0:0:
256,192,160974,1,8,0:0:0:0:
254,189,161075,1,8,0:0:0:0:
256,192,161177,1,0,0:0:0:0:
256,192,161379,1,8,0:0:0:0:
253,186,161582,1,0,0:0:0:0:
253,186,161785,1,8,0:0:0:0:
253,186,161988,1,8,0:0:0:0:
253,186,162055,1,8,0:0:0:0:
250,182,162123,1,8,0:0:0:0:
253,186,162190,1,0,0:0:0:0:
253,186,162393,1,8,0:0:0:0:
256,192,162596,1,4,0:0:0:0:
256,192,162798,1,8,0:0:0:0:
256,192,162900,1,0,0:0:0:0:
256,192,163001,1,8,0:0:0:0:
256,192,163204,1,0,0:0:0:0:
256,192,163406,1,8,0:0:0:0:
256,192,163508,1,0,0:0:0:0:
256,192,163609,1,8,0:0:0:0:
256,192,163812,1,0,0:0:0:0:
256,192,164015,1,8,0:0:0:0:
256,192,164116,1,0,0:0:0:0:
256,192,164217,1,8,0:0:0:0:
256,192,164420,1,0,0:0:0:0:
256,192,164521,1,0,0:0:0:0:
256,192,164623,1,8,0:0:0:0:
256,192,164825,1,0,0:0:0:0:
256,192,164927,1,8,0:0:0:0:
256,192,165028,1,0,0:0:0:0:
256,192,165129,1,0,0:0:0:0:
256,192,165231,1,8,0:0:0:0:
256,192,165332,1,0,0:0:0:0:
256,192,165433,1,8,0:0:0:0:
256,192,165636,1,0,0:0:0:0:
256,192,165738,1,0,0:0:0:0:
256,192,165839,1,8,0:0:0:0:
258,190,165940,1,8,0:0:0:0:
256,192,166042,1,0,0:0:0:0:
256,192,166244,1,8,0:0:0:0:
256,192,166346,1,0,0:0:0:0:
256,192,166447,1,8,0:0:0:0:
256,192,166548,1,0,0:0:0:0:
256,192,166650,1,8,0:0:0:0:
256,192,166751,1,8,0:0:0:0:
256,192,166852,1,0,0:0:0:0:
256,192,167055,1,8,0:0:0:0:
256,189,167123,1,8,0:0:0:0:
256,188,167190,1,0,0:0:0:0:
256,192,167258,1,0,0:0:0:0:
256,192,167461,1,8,0:0:0:0:
256,192,167562,1,0,0:0:0:0:
256,192,167663,1,8,0:0:0:0:
256,192,167765,1,8,0:0:0:0:
256,192,167967,1,0,0:0:0:0:
256,192,168170,1,8,0:0:0:0:
256,192,168271,1,0,0:0:0:0:
256,192,168373,1,0,0:0:0:0:
255,191,168474,1,8,0:0:0:0:
256,192,168542,1,8,0:0:0:0:
255,190,168609,1,8,0:0:0:0:
256,192,168677,1,0,0:0:0:0:
256,192,168879,1,8,0:0:0:0:
256,192,168981,1,0,0:0:0:0:
256,192,169082,1,8,0:0:0:0:
256,192,169285,1,0,0:0:0:0:
256,192,169488,1,8,0:0:0:0:
256,192,169589,1,0,0:0:0:0:
256,192,169690,1,0,0:0:0:0:
256,192,169792,1,0,0:0:0:0:
256,192,169893,1,8,0:0:0:0:
256,192,170197,1,8,0:0:0:0:
256,192,170298,1,0,0:0:0:0:
256,192,170501,1,8,0:0:0:0:
256,192,170602,1,0,0:0:0:0:
256,192,170704,1,8,0:0:0:0:
256,192,170906,1,0,0:0:0:0:
256,192,171109,1,8,0:0:0:0:
256,192,171211,1,0,0:0:0:0:
256,192,171312,1,0,0:0:0:0:
256,192,171413,1,0,0:0:0:0:
256,192,171515,1,8,0:0:0:0:
256,192,171717,1,0,0:0:0:0:
256,192,171920,1,8,0:0:0:0:
256,192,172123,1,8,0:0:0:0:
256,192,172325,1,0,0:0:0:0:
256,192,172528,1,8,0:0:0:0:
256,192,172629,1,0,0:0:0:0:
256,192,172731,1,8,0:0:0:0:
256,192,172933,1,0,0:0:0:0:
256,192,173136,1,8,0:0:0:0:
256,192,173238,1,0,0:0:0:0:
256,192,173440,1,0,0:0:0:0:
256,192,173542,1,8,0:0:0:0:
256,192,173744,1,0,0:0:0:0:
252,189,173846,1,0,0:0:0:0:
256,192,173947,1,8,0:0:0:0:
256,192,174251,1,0,0:0:0:0:
253,186,174555,1,12,0:0:0:0:
253,186,177190,1,8,0:0:0:0:
253,186,177798,1,8,0:0:0:0:
253,186,178204,1,8,0:0:0:0:
253,186,178406,1,8,0:0:0:0:
253,186,178812,1,0,0:0:0:0:
253,186,179014,1,0,0:0:0:0:
253,186,179217,1,0,0:0:0:0:
253,186,179420,1,0,0:0:0:0:
253,186,179623,1,0,0:0:0:0:
253,186,180028,1,12,0:0:0:0:
256,192,180433,1,4,0:0:0:0:
256,192,180635,1,0,0:0:0:0:
256,192,180737,1,0,0:0:0:0:
256,192,180838,1,8,0:0:0:0:
256,192,181041,1,0,0:0:0:0:
256,192,181243,1,8,0:0:0:0:
256,192,181345,1,8,0:0:0:0:
256,192,181446,1,8,0:0:0:0:
256,192,181547,1,0,0:0:0:0:
256,192,181649,1,8,0:0:0:0:
256,192,181750,1,8,0:0:0:0:
256,192,181851,1,0,0:0:0:0:
256,192,181953,1,0,0:0:0:0:
256,192,182054,1,8,0:0:0:0:
256,192,182257,1,0,0:0:0:0:
256,192,182460,1,8,0:0:0:0:
256,192,182561,1,0,0:0:0:0:
256,192,182662,1,8,0:0:0:0:
256,192,182764,1,0,0:0:0:0:
256,192,182865,1,8,0:0:0:0:
256,192,182966,1,8,0:0:0:0:
256,192,183068,1,0,0:0:0:0:
256,192,183169,1,0,0:0:0:0:
256,192,183270,1,8,0:0:0:0:
256,192,183473,1,0,0:0:0:0:
256,192,183676,1,12,0:0:0:0:
256,192,183878,1,0,0:0:0:0:
256,192,183980,1,0,0:0:0:0:
256,192,184081,1,8,0:0:0:0:
256,192,184183,1,0,0:0:0:0:
256,192,184284,1,8,0:0:0:0:
256,192,184385,1,8,0:0:0:0:
256,192,184487,1,0,0:0:0:0:
256,192,184689,1,0,0:0:0:0:
256,192,184791,1,0,0:0:0:0:
256,192,184892,1,8,0:0:0:0:
256,192,184993,1,8,0:0:0:0:
256,192,185095,1,0,0:0:0:0:
256,192,185196,1,8,0:0:0:0:
256,192,185297,1,0,0:0:0:0:
256,192,185500,1,0,0:0:0:0:
256,192,185601,1,0,0:0:0:0:
256,192,185703,1,8,0:0:0:0:
256,192,185804,1,0,0:0:0:0:
256,192,185905,1,8,0:0:0:0:
256,192,186007,1,8,0:0:0:0:
256,192,186108,1,0,0:0:0:0:
256,192,186210,1,8,0:0:0:0:
256,192,186311,1,0,0:0:0:0:
256,192,186514,1,8,0:0:0:0:
256,192,186716,1,0,0:0:0:0:
256,192,186818,1,8,0:0:0:0:
256,192,186919,1,0,0:0:0:0:
256,192,187020,1,8,0:0:0:0:
256,192,187122,1,0,0:0:0:0:
256,192,187223,1,0,0:0:0:0:
256,192,187324,1,8,0:0:0:0:
256,192,187527,1,0,0:0:0:0:
256,192,187628,1,0,0:0:0:0:
256,192,187730,1,8,0:0:0:0:
256,192,187831,1,8,0:0:0:0:
256,192,187933,1,0,0:0:0:0:
256,192,188135,1,12,0:0:0:0:
256,192,188338,1,0,0:0:0:0:
256,192,188405,1,0,0:0:0:0:
256,192,188473,1,0,0:0:0:0:
256,192,188541,1,8,0:0:0:0:
256,192,188743,1,0,0:0:0:0:
256,192,188811,1,0,0:0:0:0:
256,192,188878,1,0,0:0:0:0:
256,192,188946,1,0,0:0:0:0:
256,192,189149,1,12,0:0:0:0:
256,192,189554,1,0,0:0:0:0:
256,192,189622,1,0,0:0:0:0:
256,192,189689,1,0,0:0:0:0:
256,192,189757,1,8,0:0:0:0:
256,192,189858,1,8,0:0:0:0:
256,192,189960,1,8,0:0:0:0:
256,192,190061,1,8,0:0:0:0:
256,192,190162,1,4,0:0:0:0:
256,192,190365,1,0,0:0:0:0:
256,192,190466,1,0,0:0:0:0:
256,192,190568,1,8,0:0:0:0:
256,192,190770,1,0,0:0:0:0:
256,192,190872,1,0,0:0:0:0:
256,192,190973,1,8,0:0:0:0:
256,192,191074,1,8,0:0:0:0:
256,192,191176,1,8,0:0:0:0:
256,192,191277,1,0,0:0:0:0:
256,192,191378,1,8,0:0:0:0:
256,192,191581,1,0,0:0:0:0:
256,192,191784,1,8,0:0:0:0:
256,192,191885,1,0,0:0:0:0:
256,192,191987,1,8,0:0:0:0:
256,192,192088,1,0,0:0:0:0:
256,192,192189,1,8,0:0:0:0:
256,192,192291,1,8,0:0:0:0:
256,192,192392,1,0,0:0:0:0:
256,192,192493,1,0,0:0:0:0:
256,192,192595,1,8,0:0:0:0:
256,192,192797,1,0,0:0:0:0:
256,192,192899,1,0,0:0:0:0:
256,192,193000,1,8,0:0:0:0:
256,192,193101,1,0,0:0:0:0:
256,192,193203,1,0,0:0:0:0:
256,192,193304,1,0,0:0:0:0:
256,192,193405,1,8,0:0:0:0:
256,192,193507,1,8,0:0:0:0:
256,192,193608,1,0,0:0:0:0:
256,192,193710,1,0,0:0:0:0:
256,192,193811,1,8,0:0:0:0:
256,192,194014,1,8,0:0:0:0:
256,192,194115,1,8,0:0:0:0:
256,192,194216,1,0,0:0:0:0:
256,192,194318,1,8,0:0:0:0:
256,192,194419,1,0,0:0:0:0:
256,192,194520,1,0,0:0:0:0:
256,192,194622,1,8,0:0:0:0:
256,192,194723,1,0,0:0:0:0:
256,192,194824,1,8,0:0:0:0:
256,192,194926,1,8,0:0:0:0:
256,192,195027,1,0,0:0:0:0:
256,192,195230,1,0,0:0:0:0:
256,192,195331,1,0,0:0:0:0:
256,192,195433,1,8,0:0:0:0:
256,192,195534,1,0,0:0:0:0:
256,192,195635,1,8,0:0:0:0:
256,192,195737,1,0,0:0:0:0:
256,192,195838,1,8,0:0:0:0:
256,192,195939,1,8,0:0:0:0:
256,192,196041,1,0,0:0:0:0:
256,192,196142,1,0,0:0:0:0:
256,192,196243,1,8,0:0:0:0:
256,192,196446,1,0,0:0:0:0:
256,192,196649,1,12,0:0:0:0:
256,192,196851,1,0,0:0:0:0:
256,192,196953,1,0,0:0:0:0:
256,192,197054,1,8,0:0:0:0:
256,192,197155,1,8,0:0:0:0:
256,192,197257,1,0,0:0:0:0:
256,192,197358,1,8,0:0:0:0:
256,192,197460,1,0,0:0:0:0:
256,192,197662,1,0,0:0:0:0:
256,192,197764,1,0,0:0:0:0:
256,192,197865,1,8,0:0:0:0:
256,192,197966,1,0,0:0:0:0:
256,192,198068,1,8,0:0:0:0:
256,192,198169,1,8,0:0:0:0:
256,192,198270,1,0,0:0:0:0:
256,192,198473,1,0,0:0:0:0:
256,192,198574,1,0,0:0:0:0:
256,192,198676,1,8,0:0:0:0:
256,192,198777,1,0,0:0:0:0:
256,192,198878,1,8,0:0:0:0:
256,192,198980,1,8,0:0:0:0:
256,192,199081,1,0,0:0:0:0:
256,192,199182,1,8,0:0:0:0:
256,192,199284,1,0,0:0:0:0:
256,192,199487,1,8,0:0:0:0:
256,192,199588,1,0,0:0:0:0:
256,192,199689,1,0,0:0:0:0:
256,192,199791,1,0,0:0:0:0:
256,192,199892,1,8,0:0:0:0:
256,192,200095,1,0,0:0:0:0:
256,192,200297,1,12,0:0:0:0:
256,192,200500,1,0,0:0:0:0:
256,192,200601,1,0,0:0:0:0:
256,192,200703,1,8,0:0:0:0:
256,192,200804,1,0,0:0:0:0:
256,192,200905,1,8,0:0:0:0:
256,192,201007,1,8,0:0:0:0:
256,192,201108,1,0,0:0:0:0:
256,192,201176,1,0,0:0:0:0:
256,192,201243,1,0,0:0:0:0:
256,192,201311,1,8,0:0:0:0:
256,192,201378,1,8,0:0:0:0:
256,192,201446,1,8,0:0:0:0:
256,192,201514,1,4,0:0:0:0:
256,192,201716,1,4,0:0:0:0:
256,192,201919,1,4,0:0:0:0:
256,192,203135,1,12,0:0:0:0:
256,192,203541,1,8,0:0:0:0:
256,192,203743,1,0,0:0:0:0:
224,160,203845,1,0,0:0:0:0:
256,192,203946,1,8,0:0:0:0:
256,192,204047,1,0,0:0:0:0:
256,192,204149,1,0,0:0:0:0:
256,192,204351,1,8,0:0:0:0:
256,192,204554,1,8,0:0:0:0:
224,160,204655,1,0,0:0:0:0:
256,192,204757,1,8,0:0:0:0:
224,160,204960,1,0,0:0:0:0:
256,192,205162,1,8,0:0:0:0:
256,192,205365,1,0,0:0:0:0:
256,192,205466,1,0,0:0:0:0:
256,192,205568,1,8,0:0:0:0:
256,192,205770,1,0,0:0:0:0:
256,192,205973,1,8,0:0:0:0:
256,192,206176,1,8,0:0:0:0:
256,192,206378,1,0,0:0:0:0:
255,190,206480,1,0,0:0:0:0:
256,192,206581,1,8,0:0:0:0:
255,189,206682,1,0,0:0:0:0:
256,192,206784,1,8,0:0:0:0:
256,192,206987,1,0,0:0:0:0:
255,189,207088,1,0,0:0:0:0:
256,192,207189,1,8,0:0:0:0:
256,192,207392,1,8,0:0:0:0:
256,192,207460,1,0,0:0:0:0:
256,192,207527,1,0,0:0:0:0:
256,192,207595,1,8,0:0:0:0:
256,192,207797,1,8,0:0:0:0:
256,192,207899,1,8,0:0:0:0:
256,192,208000,1,0,0:0:0:0:
256,192,208304,1,0,0:0:0:0:
256,192,208608,1,8,0:0:0:0:
256,192,209014,1,0,0:0:0:0:
256,192,209216,1,0,0:0:0:0:
256,192,209419,1,0,0:0:0:0:
256,192,209622,1,12,0:0:0:0:
256,192,210027,1,8,0:0:0:0:
256,192,210230,1,0,0:0:0:0:
256,192,210432,1,8,0:0:0:0:
256,192,210534,1,0,0:0:0:0:
256,192,210635,1,0,0:0:0:0:
224,160,210737,1,0,0:0:0:0:
256,192,210838,1,8,0:0:0:0:
256,192,211041,1,8,0:0:0:0:
256,192,211243,1,0,0:0:0:0:
224,160,211345,1,0,0:0:0:0:
224,160,211446,1,0,0:0:0:0:
256,192,211649,1,8,0:0:0:0:
256,192,211851,1,0,0:0:0:0:
256,192,211953,1,0,0:0:0:0:
256,192,212054,1,8,0:0:0:0:
256,192,212257,1,0,0:0:0:0:
256,192,212460,1,8,0:0:0:0:
256,192,212662,1,8,0:0:0:0:
256,192,212865,1,0,0:0:0:0:
255,190,212966,1,0,0:0:0:0:
254,186,213068,1,0,0:0:0:0:
256,192,213270,1,8,0:0:0:0:
256,192,213473,1,0,0:0:0:0:
256,192,213676,1,8,0:0:0:0:
256,192,213777,1,0,0:0:0:0:
256,192,213878,1,0,0:0:0:0:
256,192,213980,1,0,0:0:0:0:
256,192,214081,1,8,0:0:0:0:
256,192,214284,1,8,0:0:0:0:
256,192,214487,1,0,0:0:0:0:
256,192,214689,1,0,0:0:0:0:
256,192,214791,1,0,0:0:0:0:
256,192,214892,1,8,0:0:0:0:
256,192,215095,1,0,0:0:0:0:
256,192,215297,1,0,0:0:0:0:
256,192,215399,1,8,0:0:0:0:
256,192,215500,1,0,0:0:0:0:
256,192,215601,1,0,0:0:0:0:
256,192,215703,1,8,0:0:0:0:
256,192,215804,1,8,0:0:0:0:
256,192,215905,1,0,0:0:0:0:
256,192,216108,1,4,0:0:0:0:
256,192,216514,1,8,0:0:0:0:
256,192,216716,1,0,0:0:0:0:
256,192,217730,1,0,0:0:0:0:
256,192,218135,1,8,0:0:0:0:
256,192,218338,1,0,0:0:0:0:
256,192,219351,1,0,0:0:0:0:
256,192,219757,1,8,0:0:0:0:
256,192,219960,1,0,0:0:0:0:
256,192,220973,1,0,0:0:0:0:
256,192,221176,1,0,0:0:0:0:
256,192,221378,1,8,0:0:0:0:
256,192,221581,1,4,0:0:0:0:
