osu file format v14

[General]
AudioFilename: audio.mp3
AudioLeadIn: 0
PreviewTime: 53750
Countdown: 0
SampleSet: Normal
StackLeniency: 0.7
Mode: 1
LetterboxInBreaks: 0
WidescreenStoryboard: 0

[Editor]
Bookmarks: 14957,16095,19405,22716,26026,28198,54681,81164,82302,85612,88922,92233,94405,120888,147371,180474,193716
DistanceSpacing: 0.1
BeatDivisor: 4
GridSize: 32
TimelineZoom: 1.9

[Metadata]
Title:Charles
TitleUnicode:シャルル
Artist:balloon
ArtistUnicode:バルーン
Creator:Charlotte
Version:yzrin's Oni
Source:
Tags:flower Vocaloid yuzu__rinrin toara_fict
BeatmapID:1386494
BeatmapSetID:650733

[Difficulty]
HPDrainRate:6
CircleSize:2
OverallDifficulty:5.5
ApproachRate:10
SliderMultiplier:1.4
SliderTickRate:1

[Events]
//Background and Video events
0,0,"BG0.jpg",0,-100
//Break Periods
//Storyboard Layer 0 (Background)
//Storyboard Layer 1 (Fail)
//Storyboard Layer 2 (Pass)
//Storyboard Layer 3 (Foreground)
//Storyboard Sound Samples

[TimingPoints]
1716,413.793103448276,4,1,0,60,1,0
14957,-100,4,1,0,75,0,0
54681,-100,4,1,0,85,0,1
81164,-100,4,1,0,75,0,0
120888,-100,4,1,0,85,0,1
145716,-100,4,1,0,85,0,0
147371,-125,4,1,0,55,0,0
160612,-100,4,1,0,65,0,0
177164,-100,4,1,0,55,0,0
185853,-100,4,1,0,85,0,1
206750,-100,4,1,0,85,0,0
206957,-100,4,1,0,85,0,1
225164,-100,4,1,0,85,0,0

[HitObjects]
256,192,1716,5,0,0:0:0:0:
256,192,2129,1,8,0:0:0:0:
256,192,2440,1,8,0:0:0:0:
256,192,2543,1,0,0:0:0:0:
256,192,2750,1,0,0:0:0:0:
256,192,2957,1,8,0:0:0:0:
256,192,3164,1,8,0:0:0:0:
256,192,3371,1,0,0:0:0:0:
256,192,3784,1,8,0:0:0:0:
256,192,4095,1,0,0:0:0:0:
256,192,4198,1,8,0:0:0:0:
256,192,4405,1,0,0:0:0:0:
256,192,4612,1,8,0:0:0:0:
256,192,4819,1,8,0:0:0:0:
256,192,5026,1,0,0:0:0:0:
256,192,5440,1,8,0:0:0:0:
256,192,5853,1,0,0:0:0:0:
256,192,6060,1,0,0:0:0:0:
256,192,6267,1,8,0:0:0:0:
256,192,6474,1,0,0:0:0:0:
256,192,6681,1,8,0:0:0:0:
256,192,6991,1,8,0:0:0:0:
256,192,7095,1,8,0:0:0:0:
256,192,7302,1,8,0:0:0:0:
256,192,7509,1,0,0:0:0:0:
256,192,7819,1,0,0:0:0:0:
256,192,7922,1,8,0:0:0:0:
256,192,8129,1,0,0:0:0:0:
256,192,8336,1,0,0:0:0:0:
256,192,8543,1,0,0:0:0:0:
256,192,8749,1,8,0:0:0:0:
256,192,8957,1,0,0:0:0:0:
256,192,9060,1,8,0:0:0:0:
256,192,9267,1,8,0:0:0:0:
256,192,9371,1,0,0:0:0:0:
256,192,9578,1,8,0:0:0:0:
256,192,9784,1,8,0:0:0:0:
256,192,9888,1,8,0:0:0:0:
256,192,9991,1,0,0:0:0:0:
256,192,10302,1,0,0:0:0:0:
256,192,10404,1,8,0:0:0:0:
256,192,10612,1,0,0:0:0:0:
256,192,10716,1,8,0:0:0:0:
256,192,10819,1,0,0:0:0:0:
256,192,11025,1,0,0:0:0:0:
256,192,11232,1,8,0:0:0:0:
256,192,11439,1,8,0:0:0:0:
256,192,11646,1,0,0:0:0:0:
256,192,12060,1,8,0:0:0:0:
256,192,12473,1,0,0:0:0:0:
256,192,12680,1,0,0:0:0:0:
256,192,12887,1,8,0:0:0:0:
256,192,13094,1,0,0:0:0:0:
256,192,13301,1,8,0:0:0:0:
256,192,13715,1,8,0:0:0:0:
256,192,13922,1,8,0:0:0:0:
256,192,14129,1,0,0:0:0:0:
256,192,14267,1,0,0:0:0:0:
256,192,14405,1,0,0:0:0:0:
256,192,14543,1,8,0:0:0:0:
256,192,14957,1,0,0:0:0:0:
256,192,15060,1,8,0:0:0:0:
256,192,15267,1,8,0:0:0:0:
256,192,15371,1,0,0:0:0:0:
256,192,15578,1,8,0:0:0:0:
256,192,15681,1,8,0:0:0:0:
256,192,15784,1,0,0:0:0:0:
256,192,15888,1,0,0:0:0:0:
256,192,15991,1,0,0:0:0:0:
256,192,16198,1,8,0:0:0:0:
256,192,16612,1,0,0:0:0:0:
256,192,16716,1,0,0:0:0:0:
256,192,16922,1,8,0:0:0:0:
256,192,17026,1,0,0:0:0:0:
256,192,17233,1,8,0:0:0:0:
256,192,17440,1,0,0:0:0:0:
256,192,17543,1,8,0:0:0:0:
256,192,17647,1,0,0:0:0:0:
256,192,17853,1,8,0:0:0:0:
256,192,18267,1,0,0:0:0:0:
256,192,18371,1,8,0:0:0:0:
256,192,18578,1,8,0:0:0:0:
256,192,18681,1,0,0:0:0:0:
256,192,18888,1,8,0:0:0:0:
256,192,18991,1,8,0:0:0:0:
256,192,19095,1,0,0:0:0:0:
256,192,19198,1,0,0:0:0:0:
256,192,19302,1,0,0:0:0:0:
256,192,19509,1,8,0:0:0:0:
256,192,19922,1,0,0:0:0:0:
256,192,20026,1,0,0:0:0:0:
256,192,20233,1,8,0:0:0:0:
256,192,20336,1,0,0:0:0:0:
256,192,20543,1,8,0:0:0:0:
256,192,20750,1,0,0:0:0:0:
256,192,20853,1,8,0:0:0:0:
256,192,20957,1,0,0:0:0:0:
256,192,21164,1,8,0:0:0:0:
256,192,21371,1,8,0:0:0:0:
256,192,21474,1,8,0:0:0:0:
256,192,21578,1,0,0:0:0:0:
256,192,21681,1,8,0:0:0:0:
256,192,21888,1,8,0:0:0:0:
256,192,21991,1,0,0:0:0:0:
256,192,22198,1,8,0:0:0:0:
256,192,22302,1,8,0:0:0:0:
256,192,22405,1,0,0:0:0:0:
256,192,22509,1,0,0:0:0:0:
256,192,22612,1,0,0:0:0:0:
256,192,22819,1,8,0:0:0:0:
256,192,23233,1,0,0:0:0:0:
256,192,23336,1,0,0:0:0:0:
256,192,23543,1,8,0:0:0:0:
256,192,23647,1,0,0:0:0:0:
256,192,23853,1,8,0:0:0:0:
256,192,24060,1,0,0:0:0:0:
256,192,24164,1,8,0:0:0:0:
256,192,24267,1,0,0:0:0:0:
256,192,24474,1,8,0:0:0:0:
256,192,24888,1,0,0:0:0:0:
256,192,24991,1,8,0:0:0:0:
256,192,25198,1,8,0:0:0:0:
256,192,25302,1,0,0:0:0:0:
256,192,25509,1,8,0:0:0:0:
256,192,25612,1,8,0:0:0:0:
256,192,25716,1,0,0:0:0:0:
256,192,25819,1,0,0:0:0:0:
256,192,25922,1,0,0:0:0:0:
256,192,26129,1,8,0:0:0:0:
256,192,26543,1,0,0:0:0:0:
256,192,26647,1,0,0:0:0:0:
256,192,26853,1,8,0:0:0:0:
256,192,26957,1,0,0:0:0:0:
256,192,27164,1,8,0:0:0:0:
256,192,27371,1,0,0:0:0:0:
256,192,27578,1,8,0:0:0:0:
256,192,27681,1,8,0:0:0:0:
256,192,27784,1,0,0:0:0:0:
256,192,27888,1,0,0:0:0:0:
256,192,27991,1,0,0:0:0:0:
256,192,28198,1,4,0:0:0:0:
256,192,28612,1,8,0:0:0:0:
256,192,28922,1,8,0:0:0:0:
256,192,29026,1,0,0:0:0:0:
256,192,29233,1,0,0:0:0:0:
256,192,29440,1,8,0:0:0:0:
256,192,29647,1,8,0:0:0:0:
256,192,29853,1,0,0:0:0:0:
256,192,30267,1,8,0:0:0:0:
256,192,30578,1,0,0:0:0:0:
256,192,30681,1,8,0:0:0:0:
256,192,30888,1,0,0:0:0:0:
256,192,31095,1,8,0:0:0:0:
256,192,31302,1,8,0:0:0:0:
256,192,31509,1,0,0:0:0:0:
256,192,31922,1,8,0:0:0:0:
256,192,32129,1,8,0:0:0:0:
256,192,32336,1,0,0:0:0:0:
256,192,32543,1,0,0:0:0:0:
256,192,32750,1,8,0:0:0:0:
256,192,32957,1,0,0:0:0:0:
256,192,33164,1,8,0:0:0:0:
256,192,33474,1,0,0:0:0:0:
256,192,33578,1,8,0:0:0:0:
256,192,33784,1,0,0:0:0:0:
256,192,33888,1,0,0:0:0:0:
256,192,33991,1,8,0:0:0:0:
256,192,34198,1,0,0:0:0:0:
256,192,34405,1,8,0:0:0:0:
256,192,34509,1,8,0:0:0:0:
256,192,34612,1,8,0:0:0:0:
256,192,34716,1,8,0:0:0:0:
256,192,34819,1,0,0:0:0:0:
256,192,35026,1,0,0:0:0:0:
256,192,35233,1,8,0:0:0:0:
256,192,35440,1,0,0:0:0:0:
256,192,35543,1,8,0:0:0:0:
256,192,35750,1,8,0:0:0:0:
256,192,35853,1,0,0:0:0:0:
256,192,35957,1,0,0:0:0:0:
256,192,36060,1,8,0:0:0:0:
256,192,36267,1,8,0:0:0:0:
256,192,36371,1,8,0:0:0:0:
256,192,36474,1,0,0:0:0:0:
256,192,36681,1,0,0:0:0:0:
256,192,36888,1,8,0:0:0:0:
256,192,37095,1,0,0:0:0:0:
256,192,37198,1,8,0:0:0:0:
256,192,37302,1,0,0:0:0:0:
256,192,37508,1,0,0:0:0:0:
256,192,37612,1,0,0:0:0:0:
256,192,37716,1,8,0:0:0:0:
256,192,37922,1,8,0:0:0:0:
256,192,38129,1,0,0:0:0:0:
256,192,38543,1,8,0:0:0:0:
256,192,38853,1,8,0:0:0:0:
256,192,38957,1,0,0:0:0:0:
256,192,39164,1,0,0:0:0:0:
256,192,39371,1,8,0:0:0:0:
256,192,39578,1,0,0:0:0:0:
256,192,39784,1,8,0:0:0:0:
256,192,40095,1,8,0:0:0:0:
256,192,40198,1,8,0:0:0:0:
256,192,40405,1,8,0:0:0:0:
256,192,40612,1,0,0:0:0:0:
256,192,40716,1,0,0:0:0:0:
256,192,40819,1,0,0:0:0:0:
256,192,41026,1,8,0:0:0:0:
256,192,41129,1,8,0:0:0:0:
256,192,41233,1,8,0:0:0:0:
256,192,41440,1,4,0:0:0:0:
256,192,41853,1,8,0:0:0:0:
256,192,42060,1,0,0:0:0:0:
256,192,42267,1,0,0:0:0:0:
256,192,42681,1,0,0:0:0:0:
256,192,42888,1,8,0:0:0:0:
256,192,43095,1,0,0:0:0:0:
256,192,43302,1,0,0:0:0:0:
256,192,43509,1,8,0:0:0:0:
256,192,43922,1,0,0:0:0:0:
256,192,44129,1,8,0:0:0:0:
256,192,44336,1,8,0:0:0:0:
256,192,44750,1,0,0:0:0:0:
256,192,45164,1,8,0:0:0:0:
256,192,45371,1,8,0:0:0:0:
256,192,45578,1,0,0:0:0:0:
256,192,45784,1,0,0:0:0:0:
256,192,45991,1,8,0:0:0:0:
256,192,46405,1,4,0:0:0:0:
256,192,46819,1,4,0:0:0:0:
256,192,47233,1,4,0:0:0:0:
256,192,47440,1,0,0:0:0:0:
256,192,47509,1,0,0:0:0:0:
256,192,47578,1,0,0:0:0:0:
256,192,47647,1,0,0:0:0:0:
256,192,47853,1,8,0:0:0:0:
256,192,48060,1,4,0:0:0:0:
256,192,48474,1,8,0:0:0:0:
256,192,48681,1,0,0:0:0:0:
256,192,48888,1,0,0:0:0:0:
256,192,49302,1,8,0:0:0:0:
256,192,49509,1,8,0:0:0:0:
256,192,49716,1,0,0:0:0:0:
256,192,50129,1,0,0:0:0:0:
256,192,50336,1,8,0:0:0:0:
256,192,50543,1,0,0:0:0:0:
256,192,50750,1,8,0:0:0:0:
256,192,50957,1,8,0:0:0:0:
256,192,51371,1,4,0:0:0:0:
256,192,51578,1,8,0:0:0:0:
256,192,51888,1,8,0:0:0:0:
256,192,51991,1,0,0:0:0:0:
256,192,52198,1,8,0:0:0:0:
256,192,52405,1,0,0:0:0:0:
256,192,52509,1,0,0:0:0:0:
256,192,52612,1,8,0:0:0:0:
256,192,52819,1,8,0:0:0:0:
256,192,53026,1,0,0:0:0:0:
256,192,54681,1,4,0:0:0:0:
256,192,54991,1,0,0:0:0:0:
256,192,55095,1,8,0:0:0:0:
256,192,55302,1,0,0:0:0:0:
256,192,55509,1,8,0:0:0:0:
256,192,55819,1,0,0:0:0:0:
256,192,55922,1,8,0:0:0:0:
256,192,56129,1,0,0:0:0:0:
256,192,56336,1,8,0:0:0:0:
256,192,56543,1,8,0:0:0:0:
256,192,56647,1,8,0:0:0:0:
256,192,56750,1,0,0:0:0:0:
256,192,56957,1,0,0:0:0:0:
256,192,57164,1,8,0:0:0:0:
256,192,57267,1,8,0:0:0:0:
256,192,57371,1,0,0:0:0:0:
256,192,57474,1,0,0:0:0:0:
256,192,57578,1,8,0:0:0:0:
256,192,57784,1,8,0:0:0:0:
256,192,57991,1,0,0:0:0:0:
256,192,58302,1,0,0:0:0:0:
256,192,58405,1,8,0:0:0:0:
256,192,58612,1,0,0:0:0:0:
256,192,58819,1,8,0:0:0:0:
256,192,59129,1,0,0:0:0:0:
256,192,59233,1,8,0:0:0:0:
256,192,59440,1,8,0:0:0:0:
256,192,59647,1,4,0:0:0:0:
256,192,60060,1,4,0:0:0:0:
256,192,60474,1,12,0:0:0:0:
256,192,60681,1,0,0:0:0:0:
256,192,60784,1,0,0:0:0:0:
256,192,60888,1,8,0:0:0:0:
256,192,61095,1,8,0:0:0:0:
256,192,61302,1,4,0:0:0:0:
256,192,61716,1,8,0:0:0:0:
256,192,61922,1,0,0:0:0:0:
256,192,62129,1,8,0:0:0:0:
256,192,62543,1,8,0:0:0:0:
256,192,62750,1,0,0:0:0:0:
256,192,62957,1,8,0:0:0:0:
256,192,63371,1,8,0:0:0:0:
256,192,63578,1,8,0:0:0:0:
256,192,63784,1,0,0:0:0:0:
256,192,63991,1,0,0:0:0:0:
256,192,64198,1,8,0:0:0:0:
256,192,64405,1,8,0:0:0:0:
256,192,64509,1,8,0:0:0:0:
256,192,64612,1,0,0:0:0:0:
256,192,65026,1,0,0:0:0:0:
256,192,65233,1,0,0:0:0:0:
256,192,65440,1,8,0:0:0:0:
256,192,65647,1,0,0:0:0:0:
256,192,65750,1,0,0:0:0:0:
256,192,65854,1,8,0:0:0:0:
256,192,66060,1,8,0:0:0:0:
256,192,66267,1,4,0:0:0:0:
256,192,66681,1,0,0:0:0:0:
256,192,66888,1,0,0:0:0:0:
256,192,66991,1,0,0:0:0:0:
256,192,67095,1,8,0:0:0:0:
256,192,67198,1,0,0:0:0:0:
256,192,67302,1,8,0:0:0:0:
256,192,67405,1,8,0:0:0:0:
256,192,67509,1,0,0:0:0:0:
256,192,67716,1,8,0:0:0:0:
256,192,67922,1,4,0:0:0:0:
256,192,68232,1,0,0:0:0:0:
256,192,68336,1,8,0:0:0:0:
256,192,68543,1,0,0:0:0:0:
256,192,68750,1,8,0:0:0:0:
256,192,69060,1,0,0:0:0:0:
256,192,69163,1,8,0:0:0:0:
256,192,69370,1,0,0:0:0:0:
256,192,69577,1,8,0:0:0:0:
256,192,69784,1,8,0:0:0:0:
256,192,69888,1,8,0:0:0:0:
256,192,69991,1,0,0:0:0:0:
256,192,70198,1,0,0:0:0:0:
256,192,70405,1,8,0:0:0:0:
256,192,70508,1,8,0:0:0:0:
256,192,70612,1,0,0:0:0:0:
256,192,70715,1,0,0:0:0:0:
256,192,70819,1,8,0:0:0:0:
256,192,71025,1,8,0:0:0:0:
256,192,71232,1,0,0:0:0:0:
256,192,71543,1,0,0:0:0:0:
256,192,71646,1,8,0:0:0:0:
256,192,71853,1,0,0:0:0:0:
256,192,72060,1,8,0:0:0:0:
256,192,72370,1,0,0:0:0:0:
256,192,72474,1,8,0:0:0:0:
256,192,72681,1,8,0:0:0:0:
256,192,72888,1,4,0:0:0:0:
256,192,73301,1,4,0:0:0:0:
256,192,73715,1,12,0:0:0:0:
256,192,73922,1,0,0:0:0:0:
256,192,74025,1,0,0:0:0:0:
256,192,74129,1,8,0:0:0:0:
256,192,74336,1,8,0:0:0:0:
256,192,74543,1,4,0:0:0:0:
256,192,74957,1,8,0:0:0:0:
256,192,75163,1,0,0:0:0:0:
256,192,75370,1,8,0:0:0:0:
256,192,75784,1,8,0:0:0:0:
256,192,75991,1,0,0:0:0:0:
256,192,76198,1,8,0:0:0:0:
256,192,76612,1,8,0:0:0:0:
256,192,76819,1,8,0:0:0:0:
256,192,76922,1,8,0:0:0:0:
256,192,77025,1,0,0:0:0:0:
256,192,77232,1,0,0:0:0:0:
256,192,77439,1,8,0:0:0:0:
256,192,77646,1,8,0:0:0:0:
256,192,77750,1,8,0:0:0:0:
256,192,77853,1,0,0:0:0:0:
256,192,78267,1,0,0:0:0:0:
256,192,78474,1,0,0:0:0:0:
256,192,78681,1,8,0:0:0:0:
256,192,78888,1,0,0:0:0:0:
256,192,78991,1,0,0:0:0:0:
256,192,79095,1,8,0:0:0:0:
256,192,79301,1,8,0:0:0:0:
256,192,79508,1,4,0:0:0:0:
256,192,79922,1,12,0:0:0:0:
256,192,80336,1,0,0:0:0:0:
256,192,80474,1,0,0:0:0:0:
256,192,80612,1,0,0:0:0:0:
256,192,80750,1,8,0:0:0:0:
256,192,81164,1,0,0:0:0:0:
256,192,81267,1,8,0:0:0:0:
256,192,81474,1,8,0:0:0:0:
256,192,81578,1,0,0:0:0:0:
256,192,81785,1,8,0:0:0:0:
256,192,81888,1,0,0:0:0:0:
256,192,81991,1,0,0:0:0:0:
256,192,82095,1,8,0:0:0:0:
256,192,82198,1,0,0:0:0:0:
256,192,82405,1,8,0:0:0:0:
256,192,82819,1,0,0:0:0:0:
256,192,82923,1,0,0:0:0:0:
256,192,83129,1,8,0:0:0:0:
256,192,83233,1,0,0:0:0:0:
256,192,83440,1,8,0:0:0:0:
256,192,83647,1,0,0:0:0:0:
256,192,83750,1,8,0:0:0:0:
256,192,83853,1,0,0:0:0:0:
256,192,84060,1,8,0:0:0:0:
256,192,84474,1,0,0:0:0:0:
256,192,84578,1,8,0:0:0:0:
256,192,84785,1,8,0:0:0:0:
256,192,84888,1,0,0:0:0:0:
256,192,85095,1,8,0:0:0:0:
256,192,85198,1,0,0:0:0:0:
256,192,85301,1,0,0:0:0:0:
256,192,85405,1,8,0:0:0:0:
256,192,85509,1,0,0:0:0:0:
256,192,85716,1,8,0:0:0:0:
256,192,86129,1,0,0:0:0:0:
256,192,86233,1,0,0:0:0:0:
256,192,86440,1,8,0:0:0:0:
256,192,86543,1,0,0:0:0:0:
256,192,86750,1,8,0:0:0:0:
256,192,86957,1,0,0:0:0:0:
256,192,87060,1,8,0:0:0:0:
256,192,87164,1,0,0:0:0:0:
256,192,87371,1,8,0:0:0:0:
256,192,87578,1,8,0:0:0:0:
256,192,87681,1,8,0:0:0:0:
256,192,87785,1,0,0:0:0:0:
256,192,87888,1,8,0:0:0:0:
256,192,88095,1,8,0:0:0:0:
256,192,88198,1,0,0:0:0:0:
256,192,88405,1,8,0:0:0:0:
256,192,88509,1,0,0:0:0:0:
256,192,88613,1,0,0:0:0:0:
256,192,88716,1,8,0:0:0:0:
256,192,88819,1,0,0:0:0:0:
256,192,89026,1,8,0:0:0:0:
256,192,89440,1,0,0:0:0:0:
256,192,89543,1,0,0:0:0:0:
256,192,89750,1,8,0:0:0:0:
256,192,89854,1,0,0:0:0:0:
256,192,90060,1,8,0:0:0:0:
256,192,90267,1,0,0:0:0:0:
256,192,90371,1,8,0:0:0:0:
256,192,90474,1,0,0:0:0:0:
256,192,90681,1,8,0:0:0:0:
256,192,91095,1,0,0:0:0:0:
256,192,91198,1,8,0:0:0:0:
256,192,91405,1,8,0:0:0:0:
256,192,91509,1,0,0:0:0:0:
256,192,91716,1,8,0:0:0:0:
256,192,91819,1,0,0:0:0:0:
256,192,91923,1,0,0:0:0:0:
256,192,92026,1,8,0:0:0:0:
256,192,92129,1,0,0:0:0:0:
256,192,92336,1,8,0:0:0:0:
256,192,92750,1,0,0:0:0:0:
256,192,92854,1,0,0:0:0:0:
256,192,93060,1,8,0:0:0:0:
256,192,93164,1,0,0:0:0:0:
256,192,93371,1,8,0:0:0:0:
256,192,93578,1,0,0:0:0:0:
256,192,93785,1,8,0:0:0:0:
256,192,93888,1,8,0:0:0:0:
256,192,93991,1,0,0:0:0:0:
256,192,94095,1,0,0:0:0:0:
256,192,94198,1,8,0:0:0:0:
256,192,94405,1,4,0:0:0:0:
256,192,95647,1,0,0:0:0:0:
256,192,96060,1,12,0:0:0:0:
256,192,96888,1,0,0:0:0:0:
256,192,97302,1,0,0:0:0:0:
256,192,97715,1,12,0:0:0:0:
256,192,98957,1,0,0:0:0:0:
256,192,99371,1,12,0:0:0:0:
256,192,100198,1,8,0:0:0:0:
256,192,100405,1,0,0:0:0:0:
256,192,100508,1,0,0:0:0:0:
256,192,100612,1,8,0:0:0:0:
256,192,101026,1,0,0:0:0:0:
256,192,101233,1,0,0:0:0:0:
256,192,101440,1,8,0:0:0:0:
256,192,101647,1,0,0:0:0:0:
256,192,101750,1,8,0:0:0:0:
256,192,101957,1,8,0:0:0:0:
256,192,102060,1,0,0:0:0:0:
256,192,102164,1,0,0:0:0:0:
256,192,102267,1,8,0:0:0:0:
256,192,102474,1,8,0:0:0:0:
256,192,102578,1,8,0:0:0:0:
256,192,102681,1,0,0:0:0:0:
256,192,102888,1,0,0:0:0:0:
256,192,103095,1,8,0:0:0:0:
256,192,103302,1,0,0:0:0:0:
256,192,103405,1,8,0:0:0:0:
256,192,103509,1,0,0:0:0:0:
256,192,103715,1,0,0:0:0:0:
256,192,103819,1,0,0:0:0:0:
256,192,103923,1,8,0:0:0:0:
256,192,104129,1,0,0:0:0:0:
256,192,104336,1,8,0:0:0:0:
256,192,104750,1,8,0:0:0:0:
256,192,105060,1,8,0:0:0:0:
256,192,105164,1,0,0:0:0:0:
256,192,105371,1,0,0:0:0:0:
256,192,105578,1,8,0:0:0:0:
256,192,105785,1,0,0:0:0:0:
256,192,105991,1,8,0:0:0:0:
256,192,106302,1,8,0:0:0:0:
256,192,106405,1,8,0:0:0:0:
256,192,106612,1,8,0:0:0:0:
256,192,106819,1,0,0:0:0:0:
256,192,106923,1,0,0:0:0:0:
256,192,107026,1,0,0:0:0:0:
256,192,107233,1,8,0:0:0:0:
256,192,107336,1,8,0:0:0:0:
256,192,107440,1,8,0:0:0:0:
256,192,107647,1,4,0:0:0:0:
256,192,108060,1,8,0:0:0:0:
256,192,108267,1,0,0:0:0:0:
256,192,108474,1,0,0:0:0:0:
256,192,108888,1,0,0:0:0:0:
256,192,109095,1,8,0:0:0:0:
256,192,109302,1,0,0:0:0:0:
256,192,109509,1,0,0:0:0:0:
256,192,109716,1,8,0:0:0:0:
256,192,110129,1,0,0:0:0:0:
256,192,110336,1,8,0:0:0:0:
256,192,110543,1,8,0:0:0:0:
256,192,110957,1,0,0:0:0:0:
256,192,111371,1,8,0:0:0:0:
256,192,111578,1,8,0:0:0:0:
256,192,111785,1,0,0:0:0:0:
256,192,111991,1,0,0:0:0:0:
256,192,112198,1,8,0:0:0:0:
256,192,112612,1,4,0:0:0:0:
256,192,113026,1,4,0:0:0:0:
256,192,113440,1,4,0:0:0:0:
256,192,113647,1,0,0:0:0:0:
256,192,113716,1,0,0:0:0:0:
256,192,113785,1,0,0:0:0:0:
256,192,113854,1,0,0:0:0:0:
256,192,114060,1,8,0:0:0:0:
256,192,114267,1,4,0:0:0:0:
256,192,114681,1,8,0:0:0:0:
256,192,114888,1,0,0:0:0:0:
256,192,115095,1,0,0:0:0:0:
256,192,115509,1,8,0:0:0:0:
256,192,115716,1,8,0:0:0:0:
256,192,115923,1,0,0:0:0:0:
256,192,116336,1,0,0:0:0:0:
256,192,116543,1,8,0:0:0:0:
256,192,116750,1,0,0:0:0:0:
256,192,116957,1,0,0:0:0:0:
256,192,117164,1,8,0:0:0:0:
256,192,117578,1,4,0:0:0:0:
256,192,117784,1,8,0:0:0:0:
256,192,118095,1,8,0:0:0:0:
256,192,118198,1,0,0:0:0:0:
256,192,118405,1,8,0:0:0:0:
256,192,118612,1,0,0:0:0:0:
256,192,118716,1,0,0:0:0:0:
256,192,118819,1,8,0:0:0:0:
256,192,119026,1,8,0:0:0:0:
256,192,119233,1,0,0:0:0:0:
256,192,119440,1,0,0:0:0:0:
256,192,119647,1,8,0:0:0:0:
256,192,119853,1,8,0:0:0:0:
256,192,120267,1,8,0:0:0:0:
256,192,120474,1,8,0:0:0:0:
256,192,120578,1,8,0:0:0:0:
256,192,120681,1,8,0:0:0:0:
256,192,120888,1,4,0:0:0:0:
256,192,121198,1,0,0:0:0:0:
256,192,121302,1,8,0:0:0:0:
256,192,121509,1,0,0:0:0:0:
256,192,121716,1,8,0:0:0:0:
256,192,122026,1,0,0:0:0:0:
256,192,122129,1,8,0:0:0:0:
256,192,122336,1,0,0:0:0:0:
256,192,122543,1,8,0:0:0:0:
256,192,122750,1,8,0:0:0:0:
256,192,122854,1,0,0:0:0:0:
256,192,122957,1,8,0:0:0:0:
256,192,123164,1,0,0:0:0:0:
256,192,123371,1,8,0:0:0:0:
256,192,123474,1,8,0:0:0:0:
256,192,123578,1,0,0:0:0:0:
256,192,123681,1,0,0:0:0:0:
256,192,123785,1,8,0:0:0:0:
256,192,123991,1,8,0:0:0:0:
256,192,124198,1,0,0:0:0:0:
256,192,124509,1,0,0:0:0:0:
256,192,124612,1,8,0:0:0:0:
256,192,124819,1,0,0:0:0:0:
256,192,125026,1,8,0:0:0:0:
256,192,125336,1,0,0:0:0:0:
256,192,125440,1,8,0:0:0:0:
256,192,125647,1,8,0:0:0:0:
256,192,125854,1,4,0:0:0:0:
256,192,126267,1,4,0:0:0:0:
256,192,126681,1,12,0:0:0:0:
256,192,126888,1,0,0:0:0:0:
256,192,126991,1,0,0:0:0:0:
256,192,127095,1,8,0:0:0:0:
256,192,127302,1,8,0:0:0:0:
256,192,127509,1,4,0:0:0:0:
256,192,127923,1,8,0:0:0:0:
256,192,128129,1,0,0:0:0:0:
256,192,128336,1,8,0:0:0:0:
256,192,128750,1,8,0:0:0:0:
256,192,128957,1,0,0:0:0:0:
256,192,129164,1,8,0:0:0:0:
256,192,129578,1,8,0:0:0:0:
256,192,129785,1,8,0:0:0:0:
256,192,129991,1,0,0:0:0:0:
256,192,130198,1,0,0:0:0:0:
256,192,130405,1,8,0:0:0:0:
256,192,130612,1,8,0:0:0:0:
256,192,130716,1,8,0:0:0:0:
256,192,130819,1,0,0:0:0:0:
256,192,131233,1,0,0:0:0:0:
256,192,131440,1,0,0:0:0:0:
256,192,131647,1,8,0:0:0:0:
256,192,131854,1,0,0:0:0:0:
256,192,131957,1,0,0:0:0:0:
256,192,132061,1,8,0:0:0:0:
256,192,132267,1,8,0:0:0:0:
256,192,132474,1,4,0:0:0:0:
256,192,132888,1,0,0:0:0:0:
256,192,133095,1,0,0:0:0:0:
256,192,133198,1,0,0:0:0:0:
256,192,133302,1,8,0:0:0:0:
256,192,133405,1,0,0:0:0:0:
256,192,133509,1,8,0:0:0:0:
256,192,133612,1,8,0:0:0:0:
256,192,133716,1,0,0:0:0:0:
256,192,133923,1,8,0:0:0:0:
256,192,134129,1,4,0:0:0:0:
256,192,134439,1,0,0:0:0:0:
256,192,134543,1,8,0:0:0:0:
256,192,134750,1,0,0:0:0:0:
256,192,134957,1,8,0:0:0:0:
256,192,135267,1,0,0:0:0:0:
256,192,135370,1,8,0:0:0:0:
256,192,135577,1,0,0:0:0:0:
256,192,135784,1,8,0:0:0:0:
256,192,135991,1,8,0:0:0:0:
256,192,136095,1,0,0:0:0:0:
256,192,136198,1,8,0:0:0:0:
256,192,136405,1,0,0:0:0:0:
256,192,136612,1,8,0:0:0:0:
256,192,136715,1,8,0:0:0:0:
256,192,136819,1,0,0:0:0:0:
256,192,136922,1,0,0:0:0:0:
256,192,137026,1,8,0:0:0:0:
256,192,137232,1,8,0:0:0:0:
256,192,137439,1,0,0:0:0:0:
256,192,137750,1,0,0:0:0:0:
256,192,137853,1,8,0:0:0:0:
256,192,138060,1,0,0:0:0:0:
256,192,138267,1,8,0:0:0:0:
256,192,138577,1,0,0:0:0:0:
256,192,138681,1,8,0:0:0:0:
256,192,138888,1,8,0:0:0:0:
256,192,139095,1,4,0:0:0:0:
256,192,139508,1,4,0:0:0:0:
256,192,139922,1,12,0:0:0:0:
256,192,140129,1,0,0:0:0:0:
256,192,140232,1,0,0:0:0:0:
256,192,140336,1,8,0:0:0:0:
256,192,140543,1,8,0:0:0:0:
256,192,140750,1,4,0:0:0:0:
256,192,141164,1,8,0:0:0:0:
256,192,141370,1,0,0:0:0:0:
256,192,141577,1,8,0:0:0:0:
256,192,141991,1,8,0:0:0:0:
256,192,142198,1,0,0:0:0:0:
256,192,142405,1,8,0:0:0:0:
256,192,142819,1,8,0:0:0:0:
256,192,143026,1,8,0:0:0:0:
256,192,143129,1,8,0:0:0:0:
256,192,143232,1,0,0:0:0:0:
256,192,143439,1,0,0:0:0:0:
256,192,143646,1,8,0:0:0:0:
256,192,143853,1,8,0:0:0:0:
256,192,143957,1,8,0:0:0:0:
256,192,144060,1,0,0:0:0:0:
256,192,144474,1,0,0:0:0:0:
256,192,144681,1,0,0:0:0:0:
256,192,144888,1,8,0:0:0:0:
256,192,145095,1,0,0:0:0:0:
256,192,145198,1,0,0:0:0:0:
256,192,145302,1,8,0:0:0:0:
256,192,145508,1,8,0:0:0:0:
256,192,145715,1,0,0:0:0:0:
256,192,147371,1,4,0:0:0:0:
256,192,148198,1,8,0:0:0:0:
256,192,149026,1,0,0:0:0:0:
256,192,149647,1,0,0:0:0:0:
256,192,150267,1,8,0:0:0:0:
256,192,150681,1,0,0:0:0:0:
256,192,151509,1,8,0:0:0:0:
256,192,152336,1,0,0:0:0:0:
256,192,152957,1,0,0:0:0:0:
256,192,153578,1,8,0:0:0:0:
256,192,153991,1,0,0:0:0:0:
256,192,154819,1,8,0:0:0:0:
256,192,155647,1,0,0:0:0:0:
256,192,156267,1,0,0:0:0:0:
256,192,156474,1,8,0:0:0:0:
256,192,156888,1,8,0:0:0:0:
256,192,157302,1,0,0:0:0:0:
256,192,158129,1,8,0:0:0:0:
256,192,158957,1,0,0:0:0:0:
256,192,159267,1,0,0:0:0:0:
256,192,159371,1,8,0:0:0:0:
256,192,159578,1,0,0:0:0:0:
256,192,159784,1,8,0:0:0:0:
256,192,159991,1,0,0:0:0:0:
256,192,160198,1,8,0:0:0:0:
256,192,160612,1,4,0:0:0:0:
256,192,161026,1,8,0:0:0:0:
256,192,161440,1,0,0:0:0:0:
256,192,161853,1,8,0:0:0:0:
256,192,162060,1,8,0:0:0:0:
256,192,162267,1,0,0:0:0:0:
256,192,162681,1,8,0:0:0:0:
256,192,162888,1,0,0:0:0:0:
256,192,163095,1,0,0:0:0:0:
256,192,163302,1,8,0:0:0:0:
256,192,163509,1,8,0:0:0:0:
256,192,163716,1,8,0:0:0:0:
256,192,163922,1,0,0:0:0:0:
256,192,164336,1,8,0:0:0:0:
256,192,164543,1,0,0:0:0:0:
256,192,164750,1,8,0:0:0:0:
256,192,165164,1,8,0:0:0:0:
256,192,165578,1,0,0:0:0:0:
256,192,165991,1,8,0:0:0:0:
256,192,166198,1,0,0:0:0:0:
256,192,166405,1,0,0:0:0:0:
256,192,166612,1,8,0:0:0:0:
256,192,167026,1,8,0:0:0:0:
256,192,167233,1,0,0:0:0:0:
256,192,167647,1,8,0:0:0:0:
256,192,168060,1,0,0:0:0:0:
256,192,168474,1,8,0:0:0:0:
256,192,168681,1,8,0:0:0:0:
256,192,168888,1,0,0:0:0:0:
256,192,169302,1,8,0:0:0:0:
256,192,169509,1,0,0:0:0:0:
256,192,169716,1,0,0:0:0:0:
256,192,169922,1,8,0:0:0:0:
256,192,170129,1,8,0:0:0:0:
256,192,170336,1,8,0:0:0:0:
256,192,170543,1,0,0:0:0:0:
256,192,170957,1,8,0:0:0:0:
256,192,171164,1,0,0:0:0:0:
256,192,171267,1,0,0:0:0:0:
256,192,171371,1,8,0:0:0:0:
256,192,171784,1,8,0:0:0:0:
256,192,172198,1,0,0:0:0:0:
256,192,172612,1,8,0:0:0:0:
256,192,172819,1,8,0:0:0:0:
256,192,173026,1,0,0:0:0:0:
256,192,173233,1,0,0:0:0:0:
256,192,173440,1,8,0:0:0:0:
256,192,173853,1,4,0:0:0:0:
256,192,174267,1,0,0:0:0:0:
256,192,174474,1,8,0:0:0:0:
256,192,174681,1,0,0:0:0:0:
256,192,175095,1,8,0:0:0:0:
256,192,175509,1,0,0:0:0:0:
256,192,175922,1,0,0:0:0:0:
256,192,176129,1,0,0:0:0:0:
256,192,176336,1,0,0:0:0:0:
256,192,176543,1,8,0:0:0:0:
256,192,176750,1,8,0:0:0:0:
256,192,179440,1,0,0:0:0:0:
256,192,179543,1,0,0:0:0:0:
256,192,179647,1,8,0:0:0:0:
256,192,179853,1,0,0:0:0:0:
256,192,180060,1,0,0:0:0:0:
256,192,180474,1,12,0:0:0:0:
256,192,182129,1,8,0:0:0:0:
256,192,182957,1,8,0:0:0:0:
256,192,183371,1,8,0:0:0:0:
256,192,183784,1,8,0:0:0:0:
256,192,184612,1,8,0:0:0:0:
256,192,185026,1,8,0:0:0:0:
256,192,185853,1,12,0:0:0:0:
256,192,186267,1,0,0:0:0:0:
256,192,186371,1,0,0:0:0:0:
256,192,186474,1,8,0:0:0:0:
256,192,186578,1,0,0:0:0:0:
256,192,186681,1,8,0:0:0:0:
256,192,186784,1,8,0:0:0:0:
256,192,186888,1,8,0:0:0:0:
256,192,187095,1,4,0:0:0:0:
256,192,187509,1,8,0:0:0:0:
256,192,187715,1,0,0:0:0:0:
256,192,187922,1,8,0:0:0:0:
256,192,188336,1,8,0:0:0:0:
256,192,188543,1,0,0:0:0:0:
256,192,188750,1,8,0:0:0:0:
256,192,189164,1,8,0:0:0:0:
256,192,189371,1,8,0:0:0:0:
256,192,189577,1,0,0:0:0:0:
256,192,189784,1,0,0:0:0:0:
256,192,189991,1,8,0:0:0:0:
256,192,190198,1,8,0:0:0:0:
256,192,190302,1,8,0:0:0:0:
256,192,190405,1,0,0:0:0:0:
256,192,190819,1,0,0:0:0:0:
256,192,191026,1,0,0:0:0:0:
256,192,191233,1,8,0:0:0:0:
256,192,191440,1,0,0:0:0:0:
256,192,191543,1,0,0:0:0:0:
256,192,191647,1,8,0:0:0:0:
256,192,191853,1,8,0:0:0:0:
256,192,192060,1,4,0:0:0:0:
256,192,192474,1,0,0:0:0:0:
256,192,192681,1,0,0:0:0:0:
256,192,192784,1,0,0:0:0:0:
256,192,192888,1,8,0:0:0:0:
256,192,192991,1,0,0:0:0:0:
256,192,193095,1,8,0:0:0:0:
256,192,193198,1,8,0:0:0:0:
256,192,193302,1,0,0:0:0:0:
256,192,193405,1,0,0:0:0:0:
256,192,193509,1,8,0:0:0:0:
256,192,193715,1,4,0:0:0:0:
256,192,194025,1,0,0:0:0:0:
256,192,194129,1,8,0:0:0:0:
256,192,194336,1,0,0:0:0:0:
256,192,194543,1,8,0:0:0:0:
256,192,194853,1,0,0:0:0:0:
256,192,194956,1,8,0:0:0:0:
256,192,195163,1,0,0:0:0:0:
256,192,195370,1,8,0:0:0:0:
256,192,195577,1,8,0:0:0:0:
256,192,195681,1,8,0:0:0:0:
256,192,195784,1,0,0:0:0:0:
256,192,195991,1,0,0:0:0:0:
256,192,196198,1,8,0:0:0:0:
256,192,196301,1,8,0:0:0:0:
256,192,196405,1,0,0:0:0:0:
256,192,196508,1,0,0:0:0:0:
256,192,196612,1,8,0:0:0:0:
256,192,196818,1,8,0:0:0:0:
256,192,197025,1,0,0:0:0:0:
256,192,197336,1,0,0:0:0:0:
256,192,197439,1,8,0:0:0:0:
256,192,197646,1,0,0:0:0:0:
256,192,197853,1,8,0:0:0:0:
256,192,198163,1,0,0:0:0:0:
256,192,198267,1,8,0:0:0:0:
256,192,198474,1,8,0:0:0:0:
256,192,198681,1,4,0:0:0:0:
256,192,199094,1,4,0:0:0:0:
256,192,199508,1,12,0:0:0:0:
256,192,199715,1,0,0:0:0:0:
256,192,199818,1,0,0:0:0:0:
256,192,199922,1,8,0:0:0:0:
256,192,200129,1,8,0:0:0:0:
256,192,200336,1,4,0:0:0:0:
256,192,200750,1,8,0:0:0:0:
256,192,200956,1,0,0:0:0:0:
256,192,201163,1,8,0:0:0:0:
256,192,201577,1,8,0:0:0:0:
256,192,201784,1,0,0:0:0:0:
256,192,201991,1,8,0:0:0:0:
256,192,202405,1,8,0:0:0:0:
256,192,202612,1,8,0:0:0:0:
256,192,202715,1,8,0:0:0:0:
256,192,202818,1,0,0:0:0:0:
256,192,203025,1,0,0:0:0:0:
256,192,203232,1,8,0:0:0:0:
256,192,203439,1,8,0:0:0:0:
256,192,203543,1,8,0:0:0:0:
256,192,203646,1,0,0:0:0:0:
256,192,204060,1,0,0:0:0:0:
256,192,204267,1,0,0:0:0:0:
256,192,204371,1,0,0:0:0:0:
256,192,204474,1,8,0:0:0:0:
256,192,204578,1,8,0:0:0:0:
256,192,204681,1,0,0:0:0:0:
256,192,204784,1,0,0:0:0:0:
256,192,204888,1,8,0:0:0:0:
256,192,205094,1,8,0:0:0:0:
256,192,205301,1,4,0:0:0:0:
256,192,205715,1,12,0:0:0:0:
256,192,205922,1,0,0:0:0:0:
256,192,206026,1,0,0:0:0:0:
256,192,206129,1,8,0:0:0:0:
256,192,206233,1,0,0:0:0:0:
256,192,206336,1,8,0:0:0:0:
256,192,206440,1,8,0:0:0:0:
256,192,206543,1,0,0:0:0:0:
256,192,206647,1,0,0:0:0:0:
256,192,206750,1,8,0:0:0:0:
256,192,206957,1,4,0:0:0:0:
256,192,207267,1,0,0:0:0:0:
256,192,207371,1,8,0:0:0:0:
256,192,207578,1,0,0:0:0:0:
256,192,207785,1,8,0:0:0:0:
256,192,208095,1,0,0:0:0:0:
256,192,208198,1,8,0:0:0:0:
256,192,208405,1,0,0:0:0:0:
256,192,208612,1,8,0:0:0:0:
256,192,208819,1,8,0:0:0:0:
256,192,208923,1,8,0:0:0:0:
256,192,209026,1,0,0:0:0:0:
256,192,209233,1,0,0:0:0:0:
256,192,209440,1,8,0:0:0:0:
256,192,209543,1,8,0:0:0:0:
256,192,209647,1,0,0:0:0:0:
256,192,209750,1,0,0:0:0:0:
256,192,209854,1,8,0:0:0:0:
256,192,210060,1,8,0:0:0:0:
256,192,210267,1,0,0:0:0:0:
256,192,210578,1,0,0:0:0:0:
256,192,210681,1,8,0:0:0:0:
256,192,210888,1,0,0:0:0:0:
256,192,211095,1,8,0:0:0:0:
256,192,211302,1,0,0:0:0:0:
256,192,211405,1,0,0:0:0:0:
256,192,211509,1,8,0:0:0:0:
256,192,211716,1,8,0:0:0:0:
256,192,211922,1,0,0:0:0:0:
256,192,212026,1,0,0:0:0:0:
256,192,212129,1,0,0:0:0:0:
256,192,212336,1,8,0:0:0:0:
256,192,212440,1,8,0:0:0:0:
256,192,212543,1,8,0:0:0:0:
256,192,212750,1,8,0:0:0:0:
256,192,212957,1,0,0:0:0:0:
256,192,213060,1,0,0:0:0:0:
256,192,213164,1,8,0:0:0:0:
256,192,213371,1,8,0:0:0:0:
256,192,213578,1,4,0:0:0:0:
256,192,213888,1,0,0:0:0:0:
256,192,213992,1,8,0:0:0:0:
256,192,214199,1,0,0:0:0:0:
256,192,214406,1,8,0:0:0:0:
256,192,214716,1,0,0:0:0:0:
256,192,214819,1,8,0:0:0:0:
256,192,215026,1,0,0:0:0:0:
256,192,215233,1,8,0:0:0:0:
256,192,215440,1,8,0:0:0:0:
256,192,215544,1,8,0:0:0:0:
256,192,215647,1,0,0:0:0:0:
256,192,215854,1,0,0:0:0:0:
256,192,216061,1,8,0:0:0:0:
256,192,216164,1,8,0:0:0:0:
256,192,216268,1,0,0:0:0:0:
256,192,216371,1,0,0:0:0:0:
256,192,216475,1,8,0:0:0:0:
256,192,216681,1,0,0:0:0:0:
256,192,216888,1,8,0:0:0:0:
256,192,217199,1,0,0:0:0:0:
256,192,217302,1,8,0:0:0:0:
256,192,217509,1,0,0:0:0:0:
256,192,217716,1,8,0:0:0:0:
256,192,217922,1,0,0:0:0:0:
256,192,218026,1,0,0:0:0:0:
256,192,218130,1,8,0:0:0:0:
256,192,218337,1,8,0:0:0:0:
256,192,218544,1,0,0:0:0:0:
256,192,218647,1,0,0:0:0:0:
256,192,218750,1,0,0:0:0:0:
256,192,218957,1,8,0:0:0:0:
256,192,219060,1,8,0:0:0:0:
256,192,219164,1,0,0:0:0:0:
256,192,219267,1,0,0:0:0:0:
256,192,219371,1,8,0:0:0:0:
256,192,219578,1,0,0:0:0:0:
256,192,219681,1,0,0:0:0:0:
256,192,219785,1,8,0:0:0:0:
256,192,219992,1,8,0:0:0:0:
256,192,220199,1,4,0:0:0:0:
256,192,220509,1,0,0:0:0:0:
256,192,220612,1,8,0:0:0:0:
256,192,220819,1,0,0:0:0:0:
256,192,221026,1,8,0:0:0:0:
256,192,221336,1,8,0:0:0:0:
256,192,221440,1,0,0:0:0:0:
256,192,221647,1,8,0:0:0:0:
256,192,221853,1,0,0:0:0:0:
256,192,222060,1,0,0:0:0:0:
256,192,222164,1,0,0:0:0:0:
256,192,222267,1,8,0:0:0:0:
256,192,222474,1,8,0:0:0:0:
256,192,222681,1,0,0:0:0:0:
256,192,222784,1,8,0:0:0:0:
256,192,222888,1,0,0:0:0:0:
256,192,222991,1,0,0:0:0:0:
256,192,223095,1,8,0:0:0:0:
256,192,223302,1,8,0:0:0:0:
256,192,223509,1,4,0:0:0:0:
256,192,223716,1,0,0:0:0:0:
256,192,223819,1,0,0:0:0:0:
256,192,223922,1,8,0:0:0:0:
256,192,224129,1,0,0:0:0:0:
256,192,224336,1,8,0:0:0:0:
256,192,224440,1,8,0:0:0:0:
256,192,224543,1,0,0:0:0:0:
256,192,224647,1,0,0:0:0:0:
256,192,224750,1,8,0:0:0:0:
256,192,224957,1,8,0:0:0:0:
256,192,225164,1,0,0:0:0:0:
256,192,225578,1,8,0:0:0:0:
256,192,225991,1,8,0:0:0:0:
