osu file format v14

[General]
AudioFilename: audio.mp3
AudioLeadIn: 0
PreviewTime: 53750
Countdown: 0
SampleSet: Normal
StackLeniency: 0.7
Mode: 1
LetterboxInBreaks: 0
WidescreenStoryboard: 0

[Editor]
Bookmarks: 14957,28198,54681,81164,94405,120888,147371,180474,193716
DistanceSpacing: 1
BeatDivisor: 4
GridSize: 4
TimelineZoom: 0.9999999

[Metadata]
Title:Charles
TitleUnicode:シャルル
Artist:balloon
ArtistUnicode:バルーン
Creator:Charlotte
Version:Kantan
Source:
Tags:flower Vocaloid yuzu__rinrin toara_fict
BeatmapID:1390801
BeatmapSetID:650733

[Difficulty]
HPDrainRate:8
CircleSize:5
OverallDifficulty:3
ApproachRate:5
SliderMultiplier:1.4
SliderTickRate:1

[Events]
//Background and Video events
0,0,"BG0.jpg",0,-100
//Break Periods
//Storyboard Layer 0 (Background)
//Storyboard Layer 1 (Fail)
//Storyboard Layer 2 (Pass)
//Storyboard Layer 3 (Foreground)
//Storyboard Sound Samples

[TimingPoints]
1716,413.793103448276,4,1,0,60,1,0
14957,-100,4,1,0,75,0,0
54681,-100,4,1,0,85,0,1
81164,-100,4,1,0,75,0,0
120888,-100,4,1,0,85,0,1
145716,-100,4,1,0,85,0,0
147371,-125,4,1,0,55,0,0
160612,-100,4,1,0,65,0,0
177164,-100,4,1,0,55,0,0
185853,-100,4,1,0,85,0,1
206750,-100,4,1,0,85,0,0
206957,-100,4,1,0,85,0,1
225164,-100,4,1,0,85,0,0

[HitObjects]
256,192,1716,5,8,0:0:0:0:
256,192,2543,1,8,0:0:0:0:
256,192,3371,1,0,0:0:0:0:
256,192,5026,1,0,0:0:0:0:
256,192,5853,1,8,0:0:0:0:
256,192,6681,1,0,0:0:0:0:
256,192,8336,1,0,0:0:0:0:
256,192,9164,1,8,0:0:0:0:
256,192,9991,1,8,0:0:0:0:
256,192,11647,1,8,0:0:0:0:
256,192,12474,1,0,0:0:0:0:
256,192,13302,1,8,0:0:0:0:
256,192,14957,1,0,0:0:0:0:
256,192,15784,1,8,0:0:0:0:
256,192,16612,1,0,0:0:0:0:
256,192,18267,1,0,0:0:0:0:
256,192,19095,1,8,0:0:0:0:
256,192,19922,1,0,0:0:0:0:
256,192,20336,1,0,0:0:0:0:
256,192,20750,1,8,0:0:0:0:
256,192,21578,1,0,0:0:0:0:
256,192,22405,1,8,0:0:0:0:
256,192,23233,1,0,0:0:0:0:
256,192,24888,1,0,0:0:0:0:
256,192,25716,1,8,0:0:0:0:
256,192,26543,1,0,0:0:0:0:
256,192,26957,1,0,0:0:0:0:
256,192,27371,1,8,0:0:0:0:
256,192,28198,1,4,0:0:0:0:
256,192,29026,1,8,0:0:0:0:
256,192,29853,1,0,0:0:0:0:
256,192,31509,1,0,0:0:0:0:
256,192,31922,1,8,0:0:0:0:
256,192,32336,1,0,0:0:0:0:
256,192,33164,1,8,0:0:0:0:
256,192,34819,1,0,0:0:0:0:
256,192,35647,1,8,0:0:0:0:
256,192,36474,1,8,0:0:0:0:
256,192,36888,1,8,0:0:0:0:
256,192,37302,1,0,0:0:0:0:
256,192,38129,1,8,0:0:0:0:
256,192,38957,1,0,0:0:0:0:
256,192,39785,1,8,0:0:0:0:
256,192,40612,1,0,0:0:0:0:
256,192,41026,1,8,0:0:0:0:
256,192,41440,1,4,0:0:0:0:
256,192,43095,1,0,0:0:0:0:
256,192,43922,1,8,0:0:0:0:
256,192,44336,1,8,0:0:0:0:
256,192,45578,1,8,0:0:0:0:
256,192,46405,1,4,0:0:0:0:
256,192,46819,1,4,0:0:0:0:
256,192,47233,1,4,0:0:0:0:
256,192,48060,1,12,0:0:0:0:
256,192,48888,1,0,0:0:0:0:
256,192,49716,1,8,0:0:0:0:
256,192,50543,1,0,0:0:0:0:
256,192,50957,1,8,0:0:0:0:
256,192,51371,1,0,0:0:0:0:
256,192,52198,1,0,0:0:0:0:
256,192,53026,1,8,0:0:0:0:
256,192,54681,1,4,0:0:0:0:
256,192,55509,1,8,0:0:0:0:
256,192,56336,1,0,0:0:0:0:
256,192,56750,1,0,0:0:0:0:
256,192,57164,1,8,0:0:0:0:
256,192,57991,1,0,0:0:0:0:
256,192,58819,1,8,0:0:0:0:
256,192,59647,1,4,0:0:0:0:
256,192,60474,1,12,0:0:0:0:
256,192,60888,1,12,0:0:0:0:
256,192,61302,1,12,0:0:0:0:
256,192,62128,1,8,0:0:0:0:
256,192,62956,1,8,0:0:0:0:
256,192,63371,1,0,0:0:0:0:
256,192,63784,1,8,0:0:0:0:
256,192,64612,1,0,0:0:0:0:
256,192,65440,1,8,0:0:0:0:
256,192,66267,1,0,0:0:0:0:
256,192,67922,1,0,0:0:0:0:
256,192,68751,1,8,0:0:0:0:
256,192,69578,1,0,0:0:0:0:
256,192,69991,1,0,0:0:0:0:
256,192,70406,1,8,0:0:0:0:
256,192,71233,1,0,0:0:0:0:
256,192,72060,1,8,0:0:0:0:
256,192,72888,1,4,0:0:0:0:
256,192,73716,1,12,0:0:0:0:
256,192,74129,1,12,0:0:0:0:
256,192,74543,1,12,0:0:0:0:
256,192,75371,1,8,0:0:0:0:
256,192,76198,1,8,0:0:0:0:
256,192,76612,1,0,0:0:0:0:
256,192,77026,1,8,0:0:0:0:
256,192,77853,1,0,0:0:0:0:
256,192,78681,1,8,0:0:0:0:
256,192,79509,1,0,0:0:0:0:
256,192,81164,1,0,0:0:0:0:
256,192,81991,1,8,0:0:0:0:
256,192,82819,1,0,0:0:0:0:
256,192,84474,1,0,0:0:0:0:
256,192,85302,1,8,0:0:0:0:
256,192,86129,1,8,0:0:0:0:
256,192,86543,1,0,0:0:0:0:
256,192,86957,1,8,0:0:0:0:
256,192,87785,1,0,0:0:0:0:
256,192,88612,1,8,0:0:0:0:
256,192,89440,1,0,0:0:0:0:
256,192,91095,1,0,0:0:0:0:
256,192,91923,1,8,0:0:0:0:
256,192,92750,1,8,0:0:0:0:
256,192,93164,1,0,0:0:0:0:
256,192,93578,1,8,0:0:0:0:
256,192,94405,1,4,0:0:0:0:
256,192,95647,1,4,0:0:0:0:
256,192,96060,1,4,0:0:0:0:
256,192,96888,1,8,0:0:0:0:
256,192,97302,1,8,0:0:0:0:
256,192,97716,1,4,0:0:0:0:
256,192,98957,1,4,0:0:0:0:
256,192,99371,1,4,0:0:0:0:
256,192,100198,1,0,0:0:0:0:
256,192,100612,1,12,0:0:0:0:
256,192,101026,1,0,0:0:0:0:
256,192,101853,1,8,0:0:0:0:
256,192,102681,1,0,0:0:0:0:
256,192,103095,1,8,0:0:0:0:
256,192,103509,1,0,0:0:0:0:
256,192,104336,1,8,0:0:0:0:
256,192,105164,1,0,0:0:0:0:
256,192,105578,1,0,0:0:0:0:
256,192,105991,1,8,0:0:0:0:
256,192,106819,1,8,0:0:0:0:
256,192,107233,1,8,0:0:0:0:
256,192,107647,1,4,0:0:0:0:
256,192,109302,1,0,0:0:0:0:
256,192,110129,1,8,0:0:0:0:
256,192,110543,1,8,0:0:0:0:
256,192,111784,1,8,0:0:0:0:
256,192,112612,1,4,0:0:0:0:
256,192,113026,1,12,0:0:0:0:
256,192,113440,1,4,0:0:0:0:
256,192,114267,1,12,0:0:0:0:
256,192,115095,1,0,0:0:0:0:
256,192,115923,1,8,0:0:0:0:
256,192,116750,1,8,0:0:0:0:
256,192,117164,1,8,0:0:0:0:
256,192,117578,1,0,0:0:0:0:
256,192,118405,1,0,0:0:0:0:
256,192,119233,1,8,0:0:0:0:
256,192,120888,1,4,0:0:0:0:
256,192,121716,1,8,0:0:0:0:
256,192,122543,1,0,0:0:0:0:
256,192,122957,1,8,0:0:0:0:
256,192,123371,1,8,0:0:0:0:
256,192,124198,1,0,0:0:0:0:
256,192,125026,1,8,0:0:0:0:
256,192,125853,1,4,0:0:0:0:
256,192,126681,1,12,0:0:0:0:
256,192,127095,1,12,0:0:0:0:
256,192,127509,1,12,0:0:0:0:
256,192,128335,1,8,0:0:0:0:
256,192,129163,1,0,0:0:0:0:
256,192,129578,1,0,0:0:0:0:
256,192,129991,1,8,0:0:0:0:
256,192,130819,1,0,0:0:0:0:
256,192,131647,1,8,0:0:0:0:
256,192,132474,1,0,0:0:0:0:
256,192,134129,1,0,0:0:0:0:
256,192,134958,1,0,0:0:0:0:
256,192,135785,1,0,0:0:0:0:
256,192,136198,1,8,0:0:0:0:
256,192,136613,1,8,0:0:0:0:
256,192,137440,1,0,0:0:0:0:
256,192,138267,1,8,0:0:0:0:
256,192,139095,1,4,0:0:0:0:
256,192,139923,1,12,0:0:0:0:
256,192,140336,1,12,0:0:0:0:
256,192,140750,1,12,0:0:0:0:
256,192,141578,1,8,0:0:0:0:
256,192,142405,1,0,0:0:0:0:
256,192,142819,1,0,0:0:0:0:
256,192,143233,1,8,0:0:0:0:
256,192,144060,1,0,0:0:0:0:
256,192,144888,1,8,0:0:0:0:
256,192,145716,1,0,0:0:0:0:
256,192,147371,1,4,0:0:0:0:
256,192,148198,1,0,0:0:0:0:
256,192,149026,1,0,0:0:0:0:
256,192,150681,1,0,0:0:0:0:
256,192,151509,1,0,0:0:0:0:
256,192,152336,1,8,0:0:0:0:
256,192,153164,1,0,0:0:0:0:
256,192,153578,1,8,0:0:0:0:
256,192,153991,1,0,0:0:0:0:
256,192,154819,1,0,0:0:0:0:
256,192,155647,1,0,0:0:0:0:
256,192,157302,1,0,0:0:0:0:
256,192,158129,1,0,0:0:0:0:
256,192,158957,1,8,0:0:0:0:
256,192,159784,1,8,0:0:0:0:
256,192,160198,1,0,0:0:0:0:
256,192,160612,1,0,0:0:0:0:
256,192,161440,1,0,0:0:0:0:
256,192,162267,1,0,0:0:0:0:
256,192,162681,1,0,0:0:0:0:
256,192,163095,1,8,0:0:0:0:
256,192,163922,1,0,0:0:0:0:
256,192,164750,1,8,0:0:0:0:
256,192,165578,1,8,0:0:0:0:
256,192,167233,1,0,0:0:0:0:
256,192,168060,1,0,0:0:0:0:
256,192,168888,1,0,0:0:0:0:
256,192,169302,1,0,0:0:0:0:
256,192,169716,1,8,0:0:0:0:
256,192,170543,1,0,0:0:0:0:
256,192,171371,1,8,0:0:0:0:
256,192,172199,1,8,0:0:0:0:
256,192,173853,1,0,0:0:0:0:
256,192,174681,1,8,0:0:0:0:
256,192,175509,1,8,0:0:0:0:
256,192,175922,1,8,0:0:0:0:
256,192,176336,1,0,0:0:0:0:
256,192,176750,1,8,0:0:0:0:
256,192,177164,1,0,0:0:0:0:
256,192,177991,1,0,0:0:0:0:
256,192,178819,1,0,0:0:0:0:
256,192,180474,1,4,0:0:0:0:
256,192,181302,1,0,0:0:0:0:
256,192,182129,1,8,0:0:0:0:
256,192,183784,1,0,0:0:0:0:
256,192,184612,1,8,0:0:0:0:
256,192,185853,1,4,0:0:0:0:
256,192,186267,1,12,0:0:0:0:
256,192,186681,1,12,0:0:0:0:
256,192,187095,1,12,0:0:0:0:
256,192,187921,1,8,0:0:0:0:
256,192,188749,1,8,0:0:0:0:
256,192,189164,1,0,0:0:0:0:
256,192,189577,1,8,0:0:0:0:
256,192,190405,1,0,0:0:0:0:
256,192,191233,1,8,0:0:0:0:
256,192,192060,1,0,0:0:0:0:
256,192,193715,1,0,0:0:0:0:
256,192,194543,1,8,0:0:0:0:
256,192,195371,1,0,0:0:0:0:
256,192,195784,1,0,0:0:0:0:
256,192,196199,1,8,0:0:0:0:
256,192,197026,1,0,0:0:0:0:
256,192,197853,1,8,0:0:0:0:
256,192,198681,1,4,0:0:0:0:
256,192,199509,1,12,0:0:0:0:
256,192,199922,1,12,0:0:0:0:
256,192,200336,1,12,0:0:0:0:
256,192,201164,1,8,0:0:0:0:
256,192,201991,1,8,0:0:0:0:
256,192,202405,1,0,0:0:0:0:
256,192,202819,1,8,0:0:0:0:
256,192,203646,1,0,0:0:0:0:
256,192,204474,1,8,0:0:0:0:
256,192,205302,1,0,0:0:0:0:
256,192,206957,1,4,0:0:0:0:
256,192,207784,1,8,0:0:0:0:
256,192,208612,1,8,0:0:0:0:
256,192,209026,1,8,0:0:0:0:
256,192,209440,1,8,0:0:0:0:
256,192,210267,1,0,0:0:0:0:
256,192,211095,1,0,0:0:0:0:
256,192,211922,1,0,0:0:0:0:
256,192,212750,1,8,0:0:0:0:
256,192,213578,1,0,0:0:0:0:
256,192,214406,1,8,0:0:0:0:
256,192,215233,1,8,0:0:0:0:
256,192,215647,1,8,0:0:0:0:
256,192,216061,1,8,0:0:0:0:
256,192,216888,1,0,0:0:0:0:
256,192,217716,1,0,0:0:0:0:
256,192,218543,1,0,0:0:0:0:
256,192,219371,1,8,0:0:0:0:
256,192,219784,1,8,0:0:0:0:
256,192,220198,1,0,0:0:0:0:
256,192,221026,1,0,0:0:0:0:
256,192,221853,1,0,0:0:0:0:
256,192,222267,1,0,0:0:0:0:
256,192,222681,1,8,0:0:0:0:
256,192,223509,1,0,0:0:0:0:
256,192,224336,1,8,0:0:0:0:
256,192,225164,1,0,0:0:0:0:
256,192,225578,1,0,0:0:0:0:
256,192,225991,1,8,0:0:0:0:
