osu file format v14

[General]
AudioFilename: audio.mp3
AudioLeadIn: 0
PreviewTime: 53750
Countdown: 0
SampleSet: Normal
StackLeniency: 0.7
Mode: 1
LetterboxInBreaks: 0
WidescreenStoryboard: 0

[Editor]
Bookmarks: 14957,28198,54681,81164,94405,120888,147371,180474,193716
DistanceSpacing: 1
BeatDivisor: 4
GridSize: 4
TimelineZoom: 1.9

[Metadata]
Title:Charles
TitleUnicode:シャルル
Artist:balloon
ArtistUnicode:バルーン
Creator:Charlotte
Version:Inner Oni
Source:
Tags:flower Vocaloid yuzu__rinrin toara_fict
BeatmapID:1378878
BeatmapSetID:650733

[Difficulty]
HPDrainRate:6
CircleSize:5
OverallDifficulty:6
ApproachRate:5
SliderMultiplier:1.4
SliderTickRate:1

[Events]
//Background and Video events
0,0,"BG0.jpg",0,-100
//Break Periods
//Storyboard Layer 0 (Background)
//Storyboard Layer 1 (Fail)
//Storyboard Layer 2 (Pass)
//Storyboard Layer 3 (Foreground)
//Storyboard Sound Samples

[TimingPoints]
1716,413.793103448276,4,1,0,60,1,0
14957,-100,4,1,0,75,0,0
54681,-100,4,1,0,85,0,1
81164,-100,4,1,0,75,0,0
120888,-100,4,1,0,85,0,1
145716,-100,4,1,0,85,0,0
147371,-125,4,1,0,55,0,0
160612,-100,4,1,0,65,0,0
177164,-100,4,1,0,55,0,0
185853,-100,4,1,0,85,0,1
206750,-100,4,1,0,85,0,0
206957,-100,4,1,0,85,0,1
225164,-100,4,1,0,85,0,0

[HitObjects]
256,192,1716,5,8,0:0:0:0:
256,192,1922,1,0,0:0:0:0:
256,192,2129,1,8,0:0:0:0:
256,192,2440,1,0,0:0:0:0:
256,192,2543,1,8,0:0:0:0:
256,192,2750,1,0,0:0:0:0:
256,192,2957,1,8,0:0:0:0:
256,192,3164,1,8,0:0:0:0:
256,192,3371,1,0,0:0:0:0:
256,192,3784,1,8,0:0:0:0:
256,192,3991,1,0,0:0:0:0:
256,192,4095,1,0,0:0:0:0:
256,192,4198,1,8,0:0:0:0:
256,192,4405,1,0,0:0:0:0:
256,192,4612,1,8,0:0:0:0:
256,192,4819,1,8,0:0:0:0:
256,192,5026,1,0,0:0:0:0:
256,192,5233,1,8,0:0:0:0:
256,192,5647,1,0,0:0:0:0:
256,192,5853,1,8,0:0:0:0:
256,192,6060,1,0,0:0:0:0:
256,192,6164,1,0,0:0:0:0:
256,192,6267,1,8,0:0:0:0:
256,192,6474,1,8,0:0:0:0:
256,192,6681,1,0,0:0:0:0:
256,192,6991,1,0,0:0:0:0:
256,192,7198,1,8,0:0:0:0:
256,192,7302,1,8,0:0:0:0:
256,192,7509,1,0,0:0:0:0:
256,192,7819,1,0,0:0:0:0:
256,192,8129,1,8,0:0:0:0:
256,192,8336,1,0,0:0:0:0:
256,192,8543,1,0,0:0:0:0:
256,192,8750,1,8,0:0:0:0:
256,192,8957,1,8,0:0:0:0:
256,192,9060,1,0,0:0:0:0:
256,192,9267,1,0,0:0:0:0:
256,192,9371,1,8,0:0:0:0:
256,192,9474,1,8,0:0:0:0:
256,192,9578,1,0,0:0:0:0:
256,192,9784,1,0,0:0:0:0:
256,192,9888,1,8,0:0:0:0:
256,192,9991,1,8,0:0:0:0:
256,192,10198,1,0,0:0:0:0:
256,192,10405,1,8,0:0:0:0:
256,192,10612,1,0,0:0:0:0:
256,192,10716,1,8,0:0:0:0:
256,192,10819,1,0,0:0:0:0:
256,192,11026,1,0,0:0:0:0:
256,192,11129,1,0,0:0:0:0:
256,192,11233,1,8,0:0:0:0:
256,192,11440,1,0,0:0:0:0:
256,192,11647,1,8,0:0:0:0:
256,192,11853,1,0,0:0:0:0:
256,192,11957,1,0,0:0:0:0:
256,192,12267,1,8,0:0:0:0:
256,192,12474,1,0,0:0:0:0:
256,192,12681,1,0,0:0:0:0:
256,192,12888,1,8,0:0:0:0:
256,192,13095,1,0,0:0:0:0:
256,192,13302,1,8,0:0:0:0:
256,192,13509,1,0,0:0:0:0:
256,192,13613,1,8,0:0:0:0:
256,192,13716,1,0,0:0:0:0:
256,192,13923,1,8,0:0:0:0:
256,192,14130,1,0,0:0:0:0:
256,192,14267,1,0,0:0:0:0:
256,192,14405,1,0,0:0:0:0:
256,192,14543,1,8,0:0:0:0:
256,192,14957,1,0,0:0:0:0:
256,192,15060,1,0,0:0:0:0:
256,192,15267,1,8,0:0:0:0:
256,192,15371,1,0,0:0:0:0:
256,192,15578,1,0,0:0:0:0:
256,192,15681,1,8,0:0:0:0:
256,192,15888,1,0,0:0:0:0:
256,192,15991,1,0,0:0:0:0:
256,192,16095,1,0,0:0:0:0:
256,192,16198,1,8,0:0:0:0:
256,192,16405,1,0,0:0:0:0:
256,192,16612,1,0,0:0:0:0:
256,192,16716,1,0,0:0:0:0:
256,192,16922,1,8,0:0:0:0:
256,192,17026,1,0,0:0:0:0:
256,192,17233,1,0,0:0:0:0:
256,192,17336,1,8,0:0:0:0:
256,192,17543,1,0,0:0:0:0:
256,192,17647,1,8,0:0:0:0:
256,192,17750,1,8,0:0:0:0:
256,192,17853,1,0,0:0:0:0:
256,192,18060,1,8,0:0:0:0:
256,192,18267,1,0,0:0:0:0:
256,192,18370,1,0,0:0:0:0:
256,192,18577,1,8,0:0:0:0:
256,192,18681,1,0,0:0:0:0:
256,192,18888,1,0,0:0:0:0:
256,192,18991,1,8,0:0:0:0:
256,192,19198,1,0,0:0:0:0:
256,192,19301,1,0,0:0:0:0:
256,192,19405,1,0,0:0:0:0:
256,192,19508,1,8,0:0:0:0:
256,192,19716,1,0,0:0:0:0:
256,192,19922,1,0,0:0:0:0:
256,192,20026,1,0,0:0:0:0:
256,192,20232,1,8,0:0:0:0:
256,192,20336,1,0,0:0:0:0:
256,192,20543,1,0,0:0:0:0:
256,192,20646,1,8,0:0:0:0:
256,192,20853,1,0,0:0:0:0:
256,192,20957,1,8,0:0:0:0:
256,192,21060,1,8,0:0:0:0:
256,192,21163,1,0,0:0:0:0:
256,192,21371,1,8,0:0:0:0:
256,192,21474,1,0,0:0:0:0:
256,192,21578,1,0,0:0:0:0:
256,192,21681,1,8,0:0:0:0:
256,192,21888,1,8,0:0:0:0:
256,192,21992,1,0,0:0:0:0:
256,192,22199,1,0,0:0:0:0:
256,192,22302,1,8,0:0:0:0:
256,192,22405,1,8,0:0:0:0:
256,192,22509,1,0,0:0:0:0:
256,192,22612,1,0,0:0:0:0:
256,192,22716,1,0,0:0:0:0:
256,192,22819,1,8,0:0:0:0:
256,192,23026,1,0,0:0:0:0:
256,192,23233,1,0,0:0:0:0:
256,192,23336,1,8,0:0:0:0:
256,192,23543,1,8,0:0:0:0:
256,192,23647,1,0,0:0:0:0:
256,192,23854,1,0,0:0:0:0:
256,192,23957,1,8,0:0:0:0:
256,192,24061,1,0,0:0:0:0:
256,192,24164,1,0,0:0:0:0:
256,192,24268,1,8,0:0:0:0:
256,192,24371,1,8,0:0:0:0:
256,192,24474,1,0,0:0:0:0:
256,192,24681,1,8,0:0:0:0:
256,192,24888,1,0,0:0:0:0:
256,192,24991,1,8,0:0:0:0:
256,192,25198,1,8,0:0:0:0:
256,192,25302,1,0,0:0:0:0:
256,192,25509,1,0,0:0:0:0:
256,192,25612,1,8,0:0:0:0:
256,192,25715,1,0,0:0:0:0:
256,192,25819,1,0,0:0:0:0:
256,192,25922,1,8,0:0:0:0:
256,192,26026,1,0,0:0:0:0:
256,192,26129,1,8,0:0:0:0:
256,192,26336,1,0,0:0:0:0:
256,192,26543,1,0,0:0:0:0:
256,192,26647,1,8,0:0:0:0:
256,192,26853,1,8,0:0:0:0:
256,192,26957,1,0,0:0:0:0:
256,192,27164,1,0,0:0:0:0:
256,192,27267,1,8,0:0:0:0:
256,192,27371,1,8,0:0:0:0:
256,192,27474,1,0,0:0:0:0:
256,192,27578,1,0,0:0:0:0:
256,192,27681,1,8,0:0:0:0:
256,192,27784,1,0,0:0:0:0:
256,192,27991,1,8,0:0:0:0:
256,192,28198,1,4,0:0:0:0:
256,192,28612,1,8,0:0:0:0:
256,192,28819,1,0,0:0:0:0:
256,192,28922,1,0,0:0:0:0:
256,192,29026,1,8,0:0:0:0:
256,192,29233,1,0,0:0:0:0:
256,192,29440,1,8,0:0:0:0:
256,192,29647,1,8,0:0:0:0:
256,192,29750,1,8,0:0:0:0:
256,192,29853,1,0,0:0:0:0:
256,192,30060,1,0,0:0:0:0:
256,192,30267,1,8,0:0:0:0:
256,192,30578,1,0,0:0:0:0:
256,192,30681,1,8,0:0:0:0:
256,192,30888,1,0,0:0:0:0:
256,192,31095,1,8,0:0:0:0:
256,192,31302,1,8,0:0:0:0:
256,192,31509,1,0,0:0:0:0:
256,192,31716,1,8,0:0:0:0:
256,192,31819,1,8,0:0:0:0:
256,192,31922,1,0,0:0:0:0:
256,192,32129,1,8,0:0:0:0:
256,192,32336,1,0,0:0:0:0:
256,192,32440,1,0,0:0:0:0:
256,192,32543,1,8,0:0:0:0:
256,192,32647,1,8,0:0:0:0:
256,192,32750,1,0,0:0:0:0:
256,192,32957,1,8,0:0:0:0:
256,192,33164,1,0,0:0:0:0:
256,192,33474,1,0,0:0:0:0:
256,192,33578,1,8,0:0:0:0:
256,192,33784,1,0,0:0:0:0:
256,192,33991,1,0,0:0:0:0:
256,192,34095,1,8,0:0:0:0:
256,192,34198,1,0,0:0:0:0:
256,192,34302,1,0,0:0:0:0:
256,192,34405,1,8,0:0:0:0:
256,192,34509,1,8,0:0:0:0:
256,192,34612,1,0,0:0:0:0:
256,192,34819,1,0,0:0:0:0:
256,192,35026,1,0,0:0:0:0:
256,192,35130,1,0,0:0:0:0:
256,192,35233,1,8,0:0:0:0:
256,192,35440,1,8,0:0:0:0:
256,192,35543,1,0,0:0:0:0:
256,192,35750,1,0,0:0:0:0:
256,192,35854,1,0,0:0:0:0:
256,192,35957,1,8,0:0:0:0:
256,192,36061,1,0,0:0:0:0:
256,192,36267,1,8,0:0:0:0:
256,192,36371,1,0,0:0:0:0:
256,192,36474,1,8,0:0:0:0:
256,192,36681,1,0,0:0:0:0:
256,192,36888,1,8,0:0:0:0:
256,192,36992,1,0,0:0:0:0:
256,192,37095,1,8,0:0:0:0:
256,192,37199,1,8,0:0:0:0:
256,192,37302,1,0,0:0:0:0:
256,192,37509,1,0,0:0:0:0:
256,192,37612,1,0,0:0:0:0:
256,192,37716,1,8,0:0:0:0:
256,192,37922,1,0,0:0:0:0:
256,192,38129,1,8,0:0:0:0:
256,192,38336,1,0,0:0:0:0:
256,192,38440,1,0,0:0:0:0:
256,192,38750,1,8,0:0:0:0:
256,192,38957,1,0,0:0:0:0:
256,192,39164,1,0,0:0:0:0:
256,192,39267,1,0,0:0:0:0:
256,192,39371,1,8,0:0:0:0:
256,192,39578,1,0,0:0:0:0:
256,192,39785,1,8,0:0:0:0:
256,192,40096,1,8,0:0:0:0:
256,192,40198,1,8,0:0:0:0:
256,192,40302,1,0,0:0:0:0:
256,192,40406,1,8,0:0:0:0:
256,192,40612,1,0,0:0:0:0:
256,192,40819,1,0,0:0:0:0:
256,192,40922,1,0,0:0:0:0:
256,192,41026,1,8,0:0:0:0:
256,192,41233,1,8,0:0:0:0:
256,192,41336,1,8,0:0:0:0:
256,192,41440,1,0,0:0:0:0:
256,192,41750,1,0,0:0:0:0:
256,192,41853,1,8,0:0:0:0:
256,192,42060,1,8,0:0:0:0:
256,192,42267,1,0,0:0:0:0:
256,192,42681,1,0,0:0:0:0:
256,192,42888,1,8,0:0:0:0:
256,192,43095,1,0,0:0:0:0:
256,192,43509,1,0,0:0:0:0:
256,192,43922,1,8,0:0:0:0:
256,192,44129,1,0,0:0:0:0:
256,192,44336,1,8,0:0:0:0:
256,192,44750,1,0,0:0:0:0:
256,192,44957,1,8,0:0:0:0:
256,192,45164,1,0,0:0:0:0:
256,192,45371,1,0,0:0:0:0:
256,192,45578,1,8,0:0:0:0:
256,192,45784,1,0,0:0:0:0:
256,192,45991,1,8,0:0:0:0:
256,192,46198,1,8,0:0:0:0:
256,192,46405,1,4,0:0:0:0:
256,192,46819,1,4,0:0:0:0:
256,192,47233,1,4,0:0:0:0:
256,192,47440,1,8,0:0:0:0:
256,192,47509,1,8,0:0:0:0:
256,192,47578,1,8,0:0:0:0:
256,192,47647,1,0,0:0:0:0:
256,192,47853,1,0,0:0:0:0:
256,192,48060,1,12,0:0:0:0:
256,192,48371,1,0,0:0:0:0:
256,192,48474,1,8,0:0:0:0:
256,192,48681,1,8,0:0:0:0:
256,192,48888,1,0,0:0:0:0:
256,192,49302,1,0,0:0:0:0:
256,192,49509,1,8,0:0:0:0:
256,192,49716,1,0,0:0:0:0:
256,192,49922,1,0,0:0:0:0:
256,192,50026,1,0,0:0:0:0:
256,192,50130,1,8,0:0:0:0:
256,192,50336,1,8,0:0:0:0:
256,192,50543,1,0,0:0:0:0:
256,192,50750,1,0,0:0:0:0:
256,192,50957,1,8,0:0:0:0:
256,192,51371,1,0,0:0:0:0:
256,192,51578,1,0,0:0:0:0:
256,192,51888,1,8,0:0:0:0:
256,192,52095,1,0,0:0:0:0:
256,192,52198,1,0,0:0:0:0:
256,192,52405,1,8,0:0:0:0:
256,192,52509,1,8,0:0:0:0:
256,192,52612,1,0,0:0:0:0:
256,192,52819,1,8,0:0:0:0:
256,192,53026,1,0,0:0:0:0:
256,192,54681,1,4,0:0:0:0:
256,192,54991,1,0,0:0:0:0:
256,192,55095,1,8,0:0:0:0:
256,192,55302,1,8,0:0:0:0:
256,192,55405,1,8,0:0:0:0:
256,192,55509,1,0,0:0:0:0:
256,192,55716,1,0,0:0:0:0:
256,192,55819,1,0,0:0:0:0:
256,192,55923,1,8,0:0:0:0:
256,192,56129,1,0,0:0:0:0:
256,192,56336,1,8,0:0:0:0:
256,192,56543,1,0,0:0:0:0:
256,192,56647,1,8,0:0:0:0:
256,192,56750,1,0,0:0:0:0:
256,192,56853,1,0,0:0:0:0:
256,192,56957,1,8,0:0:0:0:
256,192,57164,1,8,0:0:0:0:
256,192,57267,1,0,0:0:0:0:
256,192,57371,1,8,0:0:0:0:
256,192,57474,1,8,0:0:0:0:
256,192,57578,1,0,0:0:0:0:
256,192,57681,1,0,0:0:0:0:
256,192,57784,1,8,0:0:0:0:
256,192,57991,1,0,0:0:0:0:
256,192,58302,1,0,0:0:0:0:
256,192,58405,1,8,0:0:0:0:
256,192,58612,1,0,0:0:0:0:
256,192,58819,1,8,0:0:0:0:
256,192,59026,1,0,0:0:0:0:
256,192,59129,1,0,0:0:0:0:
256,192,59233,1,8,0:0:0:0:
256,192,59440,1,8,0:0:0:0:
256,192,59647,1,4,0:0:0:0:
256,192,60060,1,12,0:0:0:0:
256,192,60474,1,12,0:0:0:0:
256,192,60888,1,12,0:0:0:0:
256,192,61095,1,0,0:0:0:0:
256,192,61198,1,0,0:0:0:0:
256,192,61302,1,8,0:0:0:0:
256,192,61612,1,0,0:0:0:0:
256,192,61716,1,8,0:0:0:0:
256,192,61922,1,0,0:0:0:0:
256,192,62128,1,8,0:0:0:0:
256,192,62440,1,0,0:0:0:0:
256,192,62544,1,8,0:0:0:0:
256,192,62750,1,0,0:0:0:0:
256,192,62956,1,8,0:0:0:0:
256,192,63164,1,8,0:0:0:0:
256,192,63267,1,8,0:0:0:0:
256,192,63371,1,0,0:0:0:0:
256,192,63578,1,8,0:0:0:0:
256,192,63681,1,0,0:0:0:0:
256,192,63784,1,8,0:0:0:0:
256,192,63991,1,0,0:0:0:0:
256,192,64405,1,8,0:0:0:0:
256,192,64612,1,0,0:0:0:0:
256,192,64819,1,0,0:0:0:0:
256,192,64922,1,0,0:0:0:0:
256,192,65026,1,8,0:0:0:0:
256,192,65233,1,8,0:0:0:0:
256,192,65440,1,0,0:0:0:0:
256,192,65647,1,8,0:0:0:0:
256,192,65750,1,8,0:0:0:0:
256,192,65853,1,0,0:0:0:0:
256,192,65957,1,0,0:0:0:0:
256,192,66060,1,8,0:0:0:0:
256,192,66267,1,0,0:0:0:0:
256,192,66474,1,0,0:0:0:0:
256,192,66578,1,0,0:0:0:0:
256,192,66681,1,8,0:0:0:0:
256,192,66888,1,8,0:0:0:0:
256,192,66991,1,8,0:0:0:0:
256,192,67095,1,0,0:0:0:0:
256,192,67302,1,0,0:0:0:0:
256,192,67405,1,0,0:0:0:0:
256,192,67509,1,8,0:0:0:0:
256,192,67612,1,0,0:0:0:0:
256,192,67716,1,8,0:0:0:0:
256,192,67819,1,8,0:0:0:0:
256,192,67922,1,0,0:0:0:0:
256,192,68233,1,0,0:0:0:0:
256,192,68337,1,8,0:0:0:0:
256,192,68544,1,8,0:0:0:0:
256,192,68647,1,8,0:0:0:0:
256,192,68751,1,0,0:0:0:0:
256,192,68958,1,0,0:0:0:0:
256,192,69061,1,0,0:0:0:0:
256,192,69165,1,8,0:0:0:0:
256,192,69371,1,0,0:0:0:0:
256,192,69578,1,8,0:0:0:0:
256,192,69785,1,0,0:0:0:0:
256,192,69889,1,8,0:0:0:0:
256,192,69991,1,8,0:0:0:0:
256,192,70095,1,0,0:0:0:0:
256,192,70198,1,0,0:0:0:0:
256,192,70406,1,8,0:0:0:0:
256,192,70509,1,0,0:0:0:0:
256,192,70613,1,0,0:0:0:0:
256,192,70716,1,8,0:0:0:0:
256,192,70819,1,8,0:0:0:0:
256,192,70922,1,0,0:0:0:0:
256,192,71026,1,8,0:0:0:0:
256,192,71233,1,0,0:0:0:0:
256,192,71543,1,0,0:0:0:0:
256,192,71646,1,8,0:0:0:0:
256,192,71853,1,0,0:0:0:0:
256,192,72060,1,8,0:0:0:0:
256,192,72267,1,0,0:0:0:0:
256,192,72370,1,0,0:0:0:0:
256,192,72474,1,8,0:0:0:0:
256,192,72681,1,8,0:0:0:0:
256,192,72888,1,4,0:0:0:0:
256,192,73302,1,12,0:0:0:0:
256,192,73716,1,12,0:0:0:0:
256,192,74129,1,12,0:0:0:0:
256,192,74336,1,0,0:0:0:0:
256,192,74440,1,0,0:0:0:0:
256,192,74543,1,8,0:0:0:0:
256,192,74853,1,0,0:0:0:0:
256,192,74957,1,8,0:0:0:0:
256,192,75164,1,0,0:0:0:0:
256,192,75267,1,0,0:0:0:0:
256,192,75371,1,8,0:0:0:0:
256,192,75681,1,0,0:0:0:0:
256,192,75784,1,8,0:0:0:0:
256,192,75991,1,0,0:0:0:0:
256,192,76095,1,0,0:0:0:0:
256,192,76198,1,8,0:0:0:0:
256,192,76405,1,8,0:0:0:0:
256,192,76509,1,8,0:0:0:0:
256,192,76612,1,0,0:0:0:0:
256,192,76716,1,0,0:0:0:0:
256,192,76819,1,8,0:0:0:0:
256,192,76922,1,0,0:0:0:0:
256,192,77026,1,8,0:0:0:0:
256,192,77233,1,8,0:0:0:0:
256,192,77336,1,0,0:0:0:0:
256,192,77440,1,0,0:0:0:0:
256,192,77647,1,8,0:0:0:0:
256,192,77853,1,0,0:0:0:0:
256,192,78060,1,0,0:0:0:0:
256,192,78164,1,0,0:0:0:0:
256,192,78267,1,8,0:0:0:0:
256,192,78474,1,0,0:0:0:0:
256,192,78681,1,8,0:0:0:0:
256,192,79095,1,8,0:0:0:0:
256,192,79302,1,8,0:0:0:0:
256,192,79509,1,0,0:0:0:0:
256,192,79922,1,0,0:0:0:0:
256,192,80336,1,0,0:0:0:0:
256,192,80474,1,0,0:0:0:0:
256,192,80612,1,0,0:0:0:0:
256,192,80750,1,8,0:0:0:0:
256,192,81164,1,0,0:0:0:0:
256,192,81267,1,8,0:0:0:0:
256,192,81474,1,8,0:0:0:0:
256,192,81578,1,0,0:0:0:0:
256,192,81785,1,0,0:0:0:0:
256,192,81888,1,8,0:0:0:0:
256,192,82095,1,8,0:0:0:0:
256,192,82198,1,0,0:0:0:0:
256,192,82302,1,0,0:0:0:0:
256,192,82405,1,8,0:0:0:0:
256,192,82612,1,0,0:0:0:0:
256,192,82819,1,0,0:0:0:0:
256,192,82923,1,0,0:0:0:0:
256,192,83129,1,8,0:0:0:0:
256,192,83233,1,0,0:0:0:0:
256,192,83440,1,0,0:0:0:0:
256,192,83543,1,8,0:0:0:0:
256,192,83750,1,0,0:0:0:0:
256,192,83854,1,8,0:0:0:0:
256,192,83957,1,0,0:0:0:0:
256,192,84060,1,0,0:0:0:0:
256,192,84267,1,8,0:0:0:0:
256,192,84474,1,0,0:0:0:0:
256,192,84577,1,8,0:0:0:0:
256,192,84784,1,8,0:0:0:0:
256,192,84888,1,0,0:0:0:0:
256,192,85095,1,0,0:0:0:0:
256,192,85198,1,8,0:0:0:0:
256,192,85405,1,8,0:0:0:0:
256,192,85508,1,0,0:0:0:0:
256,192,85612,1,0,0:0:0:0:
256,192,85715,1,8,0:0:0:0:
256,192,85923,1,0,0:0:0:0:
256,192,86129,1,0,0:0:0:0:
256,192,86233,1,0,0:0:0:0:
256,192,86439,1,8,0:0:0:0:
256,192,86543,1,0,0:0:0:0:
256,192,86750,1,0,0:0:0:0:
256,192,86853,1,8,0:0:0:0:
256,192,87060,1,0,0:0:0:0:
256,192,87164,1,8,0:0:0:0:
256,192,87267,1,0,0:0:0:0:
256,192,87370,1,0,0:0:0:0:
256,192,87578,1,8,0:0:0:0:
256,192,87681,1,8,0:0:0:0:
256,192,87785,1,0,0:0:0:0:
256,192,87888,1,8,0:0:0:0:
256,192,88095,1,8,0:0:0:0:
256,192,88199,1,0,0:0:0:0:
256,192,88406,1,0,0:0:0:0:
256,192,88509,1,8,0:0:0:0:
256,192,88612,1,8,0:0:0:0:
256,192,88716,1,0,0:0:0:0:
256,192,88819,1,8,0:0:0:0:
256,192,88923,1,0,0:0:0:0:
256,192,89026,1,8,0:0:0:0:
256,192,89233,1,0,0:0:0:0:
256,192,89440,1,0,0:0:0:0:
256,192,89543,1,0,0:0:0:0:
256,192,89750,1,8,0:0:0:0:
256,192,89854,1,0,0:0:0:0:
256,192,90061,1,0,0:0:0:0:
256,192,90164,1,8,0:0:0:0:
256,192,90268,1,0,0:0:0:0:
256,192,90371,1,0,0:0:0:0:
256,192,90475,1,8,0:0:0:0:
256,192,90578,1,8,0:0:0:0:
256,192,90681,1,0,0:0:0:0:
256,192,90888,1,8,0:0:0:0:
256,192,91095,1,0,0:0:0:0:
256,192,91198,1,8,0:0:0:0:
256,192,91405,1,8,0:0:0:0:
256,192,91509,1,0,0:0:0:0:
256,192,91716,1,0,0:0:0:0:
256,192,91819,1,8,0:0:0:0:
256,192,91922,1,8,0:0:0:0:
256,192,92026,1,0,0:0:0:0:
256,192,92129,1,8,0:0:0:0:
256,192,92233,1,0,0:0:0:0:
256,192,92336,1,8,0:0:0:0:
256,192,92543,1,0,0:0:0:0:
256,192,92750,1,0,0:0:0:0:
256,192,92854,1,0,0:0:0:0:
256,192,93060,1,8,0:0:0:0:
256,192,93164,1,0,0:0:0:0:
256,192,93371,1,0,0:0:0:0:
256,192,93474,1,8,0:0:0:0:
256,192,93578,1,0,0:0:0:0:
256,192,93681,1,0,0:0:0:0:
256,192,93785,1,8,0:0:0:0:
256,192,93888,1,8,0:0:0:0:
256,192,93991,1,0,0:0:0:0:
256,192,94198,1,8,0:0:0:0:
256,192,94405,1,4,0:0:0:0:
256,192,94819,1,8,0:0:0:0:
256,192,95129,1,0,0:0:0:0:
256,192,95233,1,8,0:0:0:0:
256,192,95440,1,8,0:0:0:0:
256,192,95647,1,4,0:0:0:0:
256,192,96060,1,4,0:0:0:0:
256,192,96474,1,8,0:0:0:0:
256,192,96784,1,0,0:0:0:0:
256,192,96888,1,8,0:0:0:0:
256,192,97095,1,8,0:0:0:0:
256,192,97302,1,0,0:0:0:0:
256,192,97509,1,8,0:0:0:0:
256,192,97612,1,8,0:0:0:0:
256,192,97716,1,0,0:0:0:0:
256,192,98129,1,8,0:0:0:0:
256,192,98336,1,0,0:0:0:0:
256,192,98543,1,8,0:0:0:0:
256,192,98750,1,8,0:0:0:0:
256,192,98957,1,4,0:0:0:0:
256,192,99371,1,4,0:0:0:0:
256,192,99681,1,0,0:0:0:0:
256,192,99784,1,8,0:0:0:0:
256,192,99991,1,8,0:0:0:0:
256,192,100198,1,0,0:0:0:0:
256,192,100405,1,0,0:0:0:0:
256,192,100612,1,12,0:0:0:0:
256,192,101026,1,0,0:0:0:0:
256,192,101233,1,0,0:0:0:0:
256,192,101337,1,0,0:0:0:0:
256,192,101440,1,8,0:0:0:0:
256,192,101647,1,8,0:0:0:0:
256,192,101750,1,0,0:0:0:0:
256,192,101957,1,0,0:0:0:0:
256,192,102061,1,8,0:0:0:0:
256,192,102164,1,8,0:0:0:0:
256,192,102268,1,0,0:0:0:0:
256,192,102474,1,0,0:0:0:0:
256,192,102578,1,8,0:0:0:0:
256,192,102681,1,8,0:0:0:0:
256,192,102888,1,0,0:0:0:0:
256,192,103095,1,8,0:0:0:0:
256,192,103199,1,0,0:0:0:0:
256,192,103302,1,0,0:0:0:0:
256,192,103406,1,8,0:0:0:0:
256,192,103509,1,8,0:0:0:0:
256,192,103716,1,0,0:0:0:0:
256,192,103819,1,8,0:0:0:0:
256,192,103923,1,8,0:0:0:0:
256,192,104026,1,0,0:0:0:0:
256,192,104129,1,0,0:0:0:0:
256,192,104233,1,8,0:0:0:0:
256,192,104336,1,8,0:0:0:0:
256,192,104543,1,0,0:0:0:0:
256,192,104647,1,0,0:0:0:0:
256,192,104957,1,8,0:0:0:0:
256,192,105164,1,0,0:0:0:0:
256,192,105371,1,0,0:0:0:0:
256,192,105474,1,0,0:0:0:0:
256,192,105578,1,8,0:0:0:0:
256,192,105784,1,0,0:0:0:0:
256,192,105991,1,8,0:0:0:0:
256,192,106302,1,8,0:0:0:0:
256,192,106404,1,8,0:0:0:0:
256,192,106508,1,0,0:0:0:0:
256,192,106612,1,8,0:0:0:0:
256,192,106819,1,0,0:0:0:0:
256,192,107026,1,0,0:0:0:0:
256,192,107129,1,0,0:0:0:0:
256,192,107233,1,8,0:0:0:0:
256,192,107336,1,0,0:0:0:0:
256,192,107440,1,8,0:0:0:0:
256,192,107543,1,8,0:0:0:0:
256,192,107647,1,0,0:0:0:0:
256,192,107957,1,0,0:0:0:0:
256,192,108060,1,8,0:0:0:0:
256,192,108267,1,8,0:0:0:0:
256,192,108474,1,0,0:0:0:0:
256,192,108888,1,0,0:0:0:0:
256,192,109095,1,8,0:0:0:0:
256,192,109302,1,0,0:0:0:0:
256,192,109716,1,8,0:0:0:0:
256,192,110129,1,0,0:0:0:0:
256,192,110336,1,8,0:0:0:0:
256,192,110543,1,8,0:0:0:0:
256,192,110957,1,0,0:0:0:0:
256,192,111164,1,0,0:0:0:0:
256,192,111371,1,8,0:0:0:0:
256,192,111578,1,0,0:0:0:0:
256,192,111785,1,8,0:0:0:0:
256,192,111991,1,8,0:0:0:0:
256,192,112198,1,0,0:0:0:0:
256,192,112405,1,8,0:0:0:0:
256,192,112612,1,4,0:0:0:0:
256,192,113026,1,4,0:0:0:0:
256,192,113440,1,4,0:0:0:0:
256,192,113647,1,8,0:0:0:0:
256,192,113716,1,8,0:0:0:0:
256,192,113785,1,8,0:0:0:0:
256,192,113854,1,0,0:0:0:0:
256,192,114060,1,0,0:0:0:0:
256,192,114267,1,12,0:0:0:0:
256,192,114578,1,0,0:0:0:0:
256,192,114681,1,8,0:0:0:0:
256,192,114888,1,8,0:0:0:0:
256,192,115095,1,0,0:0:0:0:
256,192,115509,1,0,0:0:0:0:
256,192,115716,1,8,0:0:0:0:
256,192,115923,1,0,0:0:0:0:
256,192,116129,1,0,0:0:0:0:
256,192,116233,1,0,0:0:0:0:
256,192,116337,1,8,0:0:0:0:
256,192,116543,1,8,0:0:0:0:
256,192,116647,1,8,0:0:0:0:
256,192,116750,1,0,0:0:0:0:
256,192,116957,1,0,0:0:0:0:
256,192,117164,1,8,0:0:0:0:
256,192,117578,1,0,0:0:0:0:
256,192,117785,1,0,0:0:0:0:
256,192,118095,1,8,0:0:0:0:
256,192,118302,1,0,0:0:0:0:
256,192,118405,1,8,0:0:0:0:
256,192,118612,1,8,0:0:0:0:
256,192,118716,1,8,0:0:0:0:
256,192,118819,1,0,0:0:0:0:
256,192,119026,1,8,0:0:0:0:
256,192,119233,1,0,0:0:0:0:
256,192,119440,1,0,0:0:0:0:
256,192,119647,1,0,0:0:0:0:
256,192,119853,1,8,0:0:0:0:
256,192,120060,1,0,0:0:0:0:
256,192,120164,1,8,0:0:0:0:
256,192,120267,1,0,0:0:0:0:
256,192,120474,1,8,0:0:0:0:
256,192,120578,1,8,0:0:0:0:
256,192,120681,1,8,0:0:0:0:
256,192,120784,1,8,0:0:0:0:
256,192,120888,1,0,0:0:0:0:
256,192,121198,1,0,0:0:0:0:
256,192,121302,1,8,0:0:0:0:
256,192,121509,1,8,0:0:0:0:
256,192,121716,1,0,0:0:0:0:
256,192,122026,1,0,0:0:0:0:
256,192,122130,1,8,0:0:0:0:
256,192,122336,1,0,0:0:0:0:
256,192,122543,1,8,0:0:0:0:
256,192,122750,1,8,0:0:0:0:
256,192,122853,1,0,0:0:0:0:
256,192,122957,1,0,0:0:0:0:
256,192,123060,1,8,0:0:0:0:
256,192,123164,1,0,0:0:0:0:
256,192,123371,1,0,0:0:0:0:
256,192,123474,1,8,0:0:0:0:
256,192,123578,1,8,0:0:0:0:
256,192,123681,1,0,0:0:0:0:
256,192,123785,1,8,0:0:0:0:
256,192,123888,1,0,0:0:0:0:
256,192,123991,1,8,0:0:0:0:
256,192,124095,1,8,0:0:0:0:
256,192,124198,1,0,0:0:0:0:
256,192,124509,1,0,0:0:0:0:
256,192,124612,1,8,0:0:0:0:
256,192,124819,1,0,0:0:0:0:
256,192,125026,1,8,0:0:0:0:
256,192,125129,1,8,0:0:0:0:
256,192,125233,1,0,0:0:0:0:
256,192,125336,1,0,0:0:0:0:
256,192,125440,1,8,0:0:0:0:
256,192,125647,1,8,0:0:0:0:
256,192,125854,1,4,0:0:0:0:
256,192,126267,1,12,0:0:0:0:
256,192,126681,1,12,0:0:0:0:
256,192,127095,1,12,0:0:0:0:
256,192,127302,1,0,0:0:0:0:
256,192,127405,1,0,0:0:0:0:
256,192,127509,1,8,0:0:0:0:
256,192,127819,1,0,0:0:0:0:
256,192,127923,1,8,0:0:0:0:
256,192,128129,1,0,0:0:0:0:
256,192,128335,1,8,0:0:0:0:
256,192,128647,1,0,0:0:0:0:
256,192,128751,1,8,0:0:0:0:
256,192,128957,1,0,0:0:0:0:
256,192,129163,1,8,0:0:0:0:
256,192,129371,1,0,0:0:0:0:
256,192,129474,1,8,0:0:0:0:
256,192,129681,1,8,0:0:0:0:
256,192,129785,1,0,0:0:0:0:
256,192,129888,1,0,0:0:0:0:
256,192,129991,1,8,0:0:0:0:
256,192,130198,1,0,0:0:0:0:
256,192,130612,1,8,0:0:0:0:
256,192,130819,1,0,0:0:0:0:
256,192,131026,1,0,0:0:0:0:
256,192,131129,1,0,0:0:0:0:
256,192,131233,1,8,0:0:0:0:
256,192,131440,1,8,0:0:0:0:
256,192,131647,1,0,0:0:0:0:
256,192,131854,1,8,0:0:0:0:
256,192,131957,1,8,0:0:0:0:
256,192,132060,1,0,0:0:0:0:
256,192,132164,1,0,0:0:0:0:
256,192,132267,1,8,0:0:0:0:
256,192,132474,1,0,0:0:0:0:
256,192,132681,1,0,0:0:0:0:
256,192,132785,1,0,0:0:0:0:
256,192,132888,1,8,0:0:0:0:
256,192,132991,1,0,0:0:0:0:
256,192,133095,1,8,0:0:0:0:
256,192,133302,1,0,0:0:0:0:
256,192,133405,1,8,0:0:0:0:
256,192,133509,1,0,0:0:0:0:
256,192,133612,1,0,0:0:0:0:
256,192,133716,1,8,0:0:0:0:
256,192,133819,1,0,0:0:0:0:
256,192,133923,1,8,0:0:0:0:
256,192,134026,1,8,0:0:0:0:
256,192,134129,1,0,0:0:0:0:
256,192,134440,1,0,0:0:0:0:
256,192,134544,1,8,0:0:0:0:
256,192,134751,1,8,0:0:0:0:
256,192,134958,1,0,0:0:0:0:
256,192,135268,1,0,0:0:0:0:
256,192,135372,1,8,0:0:0:0:
256,192,135578,1,0,0:0:0:0:
256,192,135784,1,8,0:0:0:0:
256,192,135992,1,0,0:0:0:0:
256,192,136096,1,0,0:0:0:0:
256,192,136198,1,8,0:0:0:0:
256,192,136302,1,0,0:0:0:0:
256,192,136405,1,0,0:0:0:0:
256,192,136613,1,8,0:0:0:0:
256,192,136716,1,8,0:0:0:0:
256,192,136820,1,0,0:0:0:0:
256,192,136923,1,8,0:0:0:0:
256,192,137026,1,8,0:0:0:0:
256,192,137129,1,0,0:0:0:0:
256,192,137233,1,8,0:0:0:0:
256,192,137440,1,0,0:0:0:0:
256,192,137750,1,0,0:0:0:0:
256,192,137853,1,8,0:0:0:0:
256,192,138060,1,0,0:0:0:0:
256,192,138267,1,8,0:0:0:0:
256,192,138371,1,8,0:0:0:0:
256,192,138474,1,0,0:0:0:0:
256,192,138577,1,0,0:0:0:0:
256,192,138681,1,8,0:0:0:0:
256,192,138888,1,8,0:0:0:0:
256,192,139095,1,4,0:0:0:0:
256,192,139509,1,12,0:0:0:0:
256,192,139923,1,12,0:0:0:0:
256,192,140336,1,12,0:0:0:0:
256,192,140543,1,0,0:0:0:0:
256,192,140647,1,0,0:0:0:0:
256,192,140750,1,8,0:0:0:0:
256,192,141060,1,0,0:0:0:0:
256,192,141164,1,8,0:0:0:0:
256,192,141371,1,0,0:0:0:0:
256,192,141474,1,0,0:0:0:0:
256,192,141578,1,8,0:0:0:0:
256,192,141888,1,0,0:0:0:0:
256,192,141991,1,8,0:0:0:0:
256,192,142198,1,0,0:0:0:0:
256,192,142302,1,0,0:0:0:0:
256,192,142405,1,8,0:0:0:0:
256,192,142612,1,8,0:0:0:0:
256,192,142716,1,0,0:0:0:0:
256,192,142819,1,0,0:0:0:0:
256,192,142923,1,8,0:0:0:0:
256,192,143026,1,8,0:0:0:0:
256,192,143129,1,0,0:0:0:0:
256,192,143233,1,8,0:0:0:0:
256,192,143440,1,8,0:0:0:0:
256,192,143543,1,0,0:0:0:0:
256,192,143647,1,0,0:0:0:0:
256,192,143854,1,8,0:0:0:0:
256,192,144060,1,0,0:0:0:0:
256,192,144267,1,0,0:0:0:0:
256,192,144371,1,0,0:0:0:0:
256,192,144474,1,8,0:0:0:0:
256,192,144681,1,0,0:0:0:0:
256,192,144888,1,8,0:0:0:0:
256,192,145302,1,8,0:0:0:0:
256,192,145509,1,8,0:0:0:0:
256,192,145716,1,0,0:0:0:0:
256,192,146129,1,0,0:0:0:0:
256,192,146543,1,8,0:0:0:0:
256,192,147371,1,4,0:0:0:0:
256,192,147784,1,0,0:0:0:0:
256,192,148198,1,0,0:0:0:0:
256,192,148612,1,8,0:0:0:0:
256,192,149026,1,0,0:0:0:0:
256,192,149440,1,8,0:0:0:0:
256,192,149647,1,0,0:0:0:0:
256,192,150060,1,0,0:0:0:0:
256,192,150267,1,8,0:0:0:0:
256,192,150474,1,8,0:0:0:0:
256,192,150681,1,0,0:0:0:0:
256,192,151095,1,0,0:0:0:0:
256,192,151509,1,0,0:0:0:0:
256,192,151922,1,8,0:0:0:0:
256,192,152336,1,8,0:0:0:0:
256,192,152440,1,8,0:0:0:0:
256,192,152543,1,8,0:0:0:0:
256,192,152853,1,0,0:0:0:0:
256,192,152957,1,8,0:0:0:0:
256,192,153060,1,8,0:0:0:0:
256,192,153164,1,0,0:0:0:0:
256,192,153371,1,0,0:0:0:0:
256,192,153578,1,8,0:0:0:0:
256,192,153784,1,8,0:0:0:0:
256,192,153991,1,0,0:0:0:0:
256,192,154405,1,0,0:0:0:0:
256,192,154819,1,0,0:0:0:0:
256,192,155233,1,8,0:0:0:0:
256,192,155647,1,0,0:0:0:0:
256,192,156060,1,8,0:0:0:0:
256,192,156267,1,0,0:0:0:0:
256,192,156681,1,0,0:0:0:0:
256,192,156888,1,0,0:0:0:0:
256,192,157095,1,8,0:0:0:0:
256,192,157302,1,0,0:0:0:0:
256,192,157716,1,0,0:0:0:0:
256,192,158129,1,0,0:0:0:0:
256,192,158543,1,8,0:0:0:0:
256,192,158957,1,8,0:0:0:0:
256,192,159060,1,8,0:0:0:0:
256,192,159164,1,8,0:0:0:0:
256,192,159371,1,0,0:0:0:0:
256,192,159578,1,0,0:0:0:0:
256,192,159681,1,0,0:0:0:0:
256,192,159784,1,8,0:0:0:0:
256,192,159888,1,8,0:0:0:0:
256,192,159991,1,0,0:0:0:0:
256,192,160198,1,0,0:0:0:0:
256,192,160405,1,8,0:0:0:0:
256,192,160612,1,0,0:0:0:0:
256,192,161026,1,8,0:0:0:0:
256,192,161440,1,0,0:0:0:0:
256,192,161854,1,8,0:0:0:0:
256,192,162060,1,8,0:0:0:0:
256,192,162267,1,0,0:0:0:0:
256,192,162681,1,8,0:0:0:0:
256,192,162888,1,0,0:0:0:0:
256,192,163095,1,0,0:0:0:0:
256,192,163302,1,8,0:0:0:0:
256,192,163509,1,8,0:0:0:0:
256,192,163716,1,8,0:0:0:0:
256,192,163922,1,0,0:0:0:0:
256,192,164336,1,0,0:0:0:0:
256,192,164543,1,0,0:0:0:0:
256,192,164750,1,8,0:0:0:0:
256,192,165164,1,0,0:0:0:0:
256,192,165371,1,8,0:0:0:0:
256,192,165578,1,8,0:0:0:0:
256,192,165784,1,0,0:0:0:0:
256,192,165991,1,8,0:0:0:0:
256,192,166405,1,0,0:0:0:0:
256,192,166612,1,8,0:0:0:0:
256,192,166819,1,8,0:0:0:0:
256,192,167233,1,0,0:0:0:0:
256,192,167647,1,8,0:0:0:0:
256,192,168060,1,0,0:0:0:0:
256,192,168474,1,8,0:0:0:0:
256,192,168681,1,8,0:0:0:0:
256,192,168888,1,0,0:0:0:0:
256,192,169302,1,8,0:0:0:0:
256,192,169509,1,0,0:0:0:0:
256,192,169716,1,0,0:0:0:0:
256,192,169923,1,8,0:0:0:0:
256,192,170130,1,8,0:0:0:0:
256,192,170337,1,8,0:0:0:0:
256,192,170543,1,0,0:0:0:0:
256,192,170957,1,0,0:0:0:0:
256,192,171164,1,0,0:0:0:0:
256,192,171267,1,0,0:0:0:0:
256,192,171371,1,8,0:0:0:0:
256,192,171785,1,0,0:0:0:0:
256,192,171992,1,8,0:0:0:0:
256,192,172199,1,0,0:0:0:0:
256,192,172405,1,0,0:0:0:0:
256,192,172612,1,8,0:0:0:0:
256,192,173026,1,8,0:0:0:0:
256,192,173233,1,0,0:0:0:0:
256,192,173440,1,8,0:0:0:0:
256,192,173647,1,8,0:0:0:0:
256,192,173853,1,0,0:0:0:0:
256,192,174267,1,0,0:0:0:0:
256,192,174474,1,0,0:0:0:0:
256,192,174681,1,8,0:0:0:0:
256,192,175095,1,0,0:0:0:0:
256,192,175302,1,0,0:0:0:0:
256,192,175509,1,8,0:0:0:0:
256,192,175716,1,0,0:0:0:0:
256,192,175922,1,8,0:0:0:0:
256,192,176129,1,8,0:0:0:0:
256,192,176336,1,0,0:0:0:0:
256,192,176543,1,0,0:0:0:0:
256,192,176750,1,8,0:0:0:0:
256,192,177164,1,0,0:0:0:0:
256,192,177991,1,0,0:0:0:0:
256,192,178819,1,0,0:0:0:0:
256,192,179440,1,8,0:0:0:0:
256,192,179543,1,8,0:0:0:0:
256,192,179647,1,0,0:0:0:0:
256,192,179853,1,0,0:0:0:0:
256,192,180060,1,0,0:0:0:0:
256,192,180474,1,4,0:0:0:0:
256,192,180888,1,8,0:0:0:0:
256,192,181302,1,0,0:0:0:0:
256,192,181509,1,0,0:0:0:0:
256,192,181716,1,8,0:0:0:0:
256,192,182129,1,8,0:0:0:0:
256,192,182336,1,8,0:0:0:0:
256,192,182543,1,0,0:0:0:0:
256,192,182750,1,0,0:0:0:0:
256,192,182957,1,8,0:0:0:0:
256,192,183164,1,0,0:0:0:0:
256,192,183371,1,8,0:0:0:0:
256,192,183578,1,8,0:0:0:0:
256,192,183991,1,0,0:0:0:0:
256,192,184198,1,0,0:0:0:0:
256,192,184405,1,8,0:0:0:0:
256,192,184612,1,0,0:0:0:0:
256,192,185026,1,8,0:0:0:0:
256,192,185233,1,8,0:0:0:0:
256,192,185440,1,0,0:0:0:0:
256,192,185853,1,12,0:0:0:0:
256,192,186267,1,12,0:0:0:0:
256,192,186681,1,12,0:0:0:0:
256,192,186888,1,0,0:0:0:0:
256,192,186991,1,0,0:0:0:0:
256,192,187095,1,8,0:0:0:0:
256,192,187405,1,0,0:0:0:0:
256,192,187509,1,8,0:0:0:0:
256,192,187715,1,0,0:0:0:0:
256,192,187921,1,8,0:0:0:0:
256,192,188233,1,0,0:0:0:0:
256,192,188337,1,8,0:0:0:0:
256,192,188543,1,0,0:0:0:0:
256,192,188749,1,8,0:0:0:0:
256,192,188957,1,8,0:0:0:0:
256,192,189060,1,8,0:0:0:0:
256,192,189164,1,0,0:0:0:0:
256,192,189371,1,8,0:0:0:0:
256,192,189474,1,0,0:0:0:0:
256,192,189577,1,8,0:0:0:0:
256,192,189784,1,8,0:0:0:0:
256,192,189888,1,0,0:0:0:0:
256,192,189991,1,0,0:0:0:0:
256,192,190198,1,8,0:0:0:0:
256,192,190405,1,0,0:0:0:0:
256,192,190612,1,0,0:0:0:0:
256,192,190715,1,0,0:0:0:0:
256,192,190819,1,8,0:0:0:0:
256,192,191026,1,8,0:0:0:0:
256,192,191233,1,0,0:0:0:0:
256,192,191440,1,8,0:0:0:0:
256,192,191543,1,8,0:0:0:0:
256,192,191646,1,0,0:0:0:0:
256,192,191750,1,0,0:0:0:0:
256,192,191853,1,8,0:0:0:0:
256,192,192060,1,8,0:0:0:0:
256,192,192267,1,0,0:0:0:0:
256,192,192371,1,8,0:0:0:0:
256,192,192474,1,8,0:0:0:0:
256,192,192681,1,8,0:0:0:0:
256,192,192784,1,8,0:0:0:0:
256,192,192888,1,0,0:0:0:0:
256,192,192991,1,8,0:0:0:0:
256,192,193095,1,0,0:0:0:0:
256,192,193198,1,0,0:0:0:0:
256,192,193302,1,8,0:0:0:0:
256,192,193405,1,0,0:0:0:0:
256,192,193509,1,8,0:0:0:0:
256,192,193612,1,8,0:0:0:0:
256,192,193715,1,0,0:0:0:0:
256,192,194026,1,0,0:0:0:0:
256,192,194130,1,8,0:0:0:0:
256,192,194337,1,8,0:0:0:0:
256,192,194440,1,8,0:0:0:0:
256,192,194544,1,0,0:0:0:0:
256,192,194647,1,0,0:0:0:0:
256,192,194854,1,0,0:0:0:0:
256,192,194958,1,8,0:0:0:0:
256,192,195164,1,0,0:0:0:0:
256,192,195371,1,8,0:0:0:0:
256,192,195578,1,0,0:0:0:0:
256,192,195682,1,8,0:0:0:0:
256,192,195784,1,0,0:0:0:0:
256,192,195888,1,0,0:0:0:0:
256,192,195991,1,0,0:0:0:0:
256,192,196199,1,8,0:0:0:0:
256,192,196302,1,0,0:0:0:0:
256,192,196405,1,8,0:0:0:0:
256,192,196509,1,8,0:0:0:0:
256,192,196612,1,8,0:0:0:0:
256,192,196715,1,0,0:0:0:0:
256,192,196819,1,8,0:0:0:0:
256,192,197026,1,0,0:0:0:0:
256,192,197336,1,0,0:0:0:0:
256,192,197439,1,8,0:0:0:0:
256,192,197646,1,0,0:0:0:0:
256,192,197853,1,8,0:0:0:0:
256,192,198060,1,0,0:0:0:0:
256,192,198163,1,0,0:0:0:0:
256,192,198267,1,8,0:0:0:0:
256,192,198474,1,8,0:0:0:0:
256,192,198681,1,4,0:0:0:0:
256,192,199095,1,12,0:0:0:0:
256,192,199509,1,12,0:0:0:0:
256,192,199922,1,12,0:0:0:0:
256,192,200129,1,0,0:0:0:0:
256,192,200233,1,0,0:0:0:0:
256,192,200336,1,8,0:0:0:0:
256,192,200646,1,0,0:0:0:0:
256,192,200750,1,8,0:0:0:0:
256,192,200957,1,0,0:0:0:0:
256,192,201060,1,0,0:0:0:0:
256,192,201164,1,8,0:0:0:0:
256,192,201474,1,0,0:0:0:0:
256,192,201577,1,8,0:0:0:0:
256,192,201784,1,0,0:0:0:0:
256,192,201888,1,0,0:0:0:0:
256,192,201991,1,8,0:0:0:0:
256,192,202198,1,8,0:0:0:0:
256,192,202302,1,8,0:0:0:0:
256,192,202405,1,0,0:0:0:0:
256,192,202509,1,0,0:0:0:0:
256,192,202612,1,8,0:0:0:0:
256,192,202716,1,0,0:0:0:0:
256,192,202819,1,8,0:0:0:0:
256,192,203026,1,8,0:0:0:0:
256,192,203129,1,0,0:0:0:0:
256,192,203233,1,0,0:0:0:0:
256,192,203440,1,8,0:0:0:0:
256,192,203646,1,0,0:0:0:0:
256,192,203853,1,0,0:0:0:0:
256,192,203957,1,0,0:0:0:0:
256,192,204060,1,8,0:0:0:0:
256,192,204267,1,0,0:0:0:0:
256,192,204371,1,8,0:0:0:0:
256,192,204474,1,0,0:0:0:0:
256,192,204578,1,8,0:0:0:0:
256,192,204681,1,8,0:0:0:0:
256,192,204784,1,8,0:0:0:0:
256,192,204888,1,0,0:0:0:0:
256,192,205095,1,8,0:0:0:0:
256,192,205302,1,0,0:0:0:0:
256,192,205405,1,0,0:0:0:0:
256,192,205509,1,8,0:0:0:0:
256,192,205716,1,8,0:0:0:0:
256,192,205819,1,0,0:0:0:0:
256,192,205922,1,8,0:0:0:0:
256,192,206129,1,0,0:0:0:0:
256,192,206233,1,8,0:0:0:0:
256,192,206336,1,0,0:0:0:0:
256,192,206440,1,0,0:0:0:0:
256,192,206543,1,8,0:0:0:0:
256,192,206647,1,0,0:0:0:0:
256,192,206750,1,8,0:0:0:0:
256,192,206853,1,8,0:0:0:0:
256,192,206957,1,0,0:0:0:0:
256,192,207267,1,0,0:0:0:0:
256,192,207371,1,8,0:0:0:0:
256,192,207578,1,8,0:0:0:0:
256,192,207681,1,8,0:0:0:0:
256,192,207785,1,0,0:0:0:0:
256,192,207992,1,0,0:0:0:0:
256,192,208095,1,0,0:0:0:0:
256,192,208199,1,8,0:0:0:0:
256,192,208405,1,0,0:0:0:0:
256,192,208612,1,8,0:0:0:0:
256,192,208819,1,0,0:0:0:0:
256,192,208923,1,8,0:0:0:0:
256,192,209026,1,0,0:0:0:0:
256,192,209129,1,0,0:0:0:0:
256,192,209233,1,8,0:0:0:0:
256,192,209440,1,8,0:0:0:0:
256,192,209543,1,0,0:0:0:0:
256,192,209647,1,8,0:0:0:0:
256,192,209750,1,8,0:0:0:0:
256,192,209854,1,0,0:0:0:0:
256,192,209957,1,0,0:0:0:0:
256,192,210060,1,8,0:0:0:0:
256,192,210164,1,8,0:0:0:0:
256,192,210267,1,0,0:0:0:0:
256,192,210578,1,8,0:0:0:0:
256,192,210682,1,0,0:0:0:0:
256,192,210888,1,8,0:0:0:0:
256,192,211095,1,0,0:0:0:0:
256,192,211302,1,8,0:0:0:0:
256,192,211405,1,8,0:0:0:0:
256,192,211509,1,0,0:0:0:0:
256,192,211715,1,8,0:0:0:0:
256,192,211922,1,0,0:0:0:0:
256,192,212026,1,8,0:0:0:0:
256,192,212233,1,8,0:0:0:0:
256,192,212337,1,0,0:0:0:0:
256,192,212543,1,8,0:0:0:0:
256,192,212750,1,8,0:0:0:0:
256,192,212853,1,0,0:0:0:0:
256,192,212957,1,0,0:0:0:0:
256,192,213060,1,0,0:0:0:0:
256,192,213164,1,8,0:0:0:0:
256,192,213371,1,8,0:0:0:0:
256,192,213474,1,8,0:0:0:0:
256,192,213578,1,0,0:0:0:0:
256,192,213888,1,0,0:0:0:0:
256,192,213992,1,8,0:0:0:0:
256,192,214199,1,8,0:0:0:0:
256,192,214302,1,8,0:0:0:0:
256,192,214406,1,0,0:0:0:0:
256,192,214509,1,0,0:0:0:0:
256,192,214716,1,0,0:0:0:0:
256,192,214820,1,8,0:0:0:0:
256,192,215026,1,0,0:0:0:0:
256,192,215233,1,8,0:0:0:0:
256,192,215440,1,8,0:0:0:0:
256,192,215544,1,0,0:0:0:0:
256,192,215647,1,0,0:0:0:0:
256,192,215750,1,8,0:0:0:0:
256,192,215853,1,0,0:0:0:0:
256,192,216061,1,0,0:0:0:0:
256,192,216164,1,8,0:0:0:0:
256,192,216268,1,8,0:0:0:0:
256,192,216371,1,0,0:0:0:0:
256,192,216475,1,8,0:0:0:0:
256,192,216578,1,0,0:0:0:0:
256,192,216681,1,8,0:0:0:0:
256,192,216784,1,8,0:0:0:0:
256,192,216888,1,0,0:0:0:0:
256,192,217199,1,8,0:0:0:0:
256,192,217303,1,0,0:0:0:0:
256,192,217509,1,8,0:0:0:0:
256,192,217716,1,0,0:0:0:0:
256,192,217923,1,8,0:0:0:0:
256,192,218026,1,8,0:0:0:0:
256,192,218130,1,0,0:0:0:0:
256,192,218336,1,8,0:0:0:0:
256,192,218440,1,8,0:0:0:0:
256,192,218543,1,0,0:0:0:0:
256,192,218647,1,8,0:0:0:0:
256,192,218854,1,8,0:0:0:0:
256,192,218958,1,0,0:0:0:0:
256,192,219060,1,0,0:0:0:0:
256,192,219164,1,8,0:0:0:0:
256,192,219371,1,8,0:0:0:0:
256,192,219474,1,8,0:0:0:0:
256,192,219578,1,0,0:0:0:0:
256,192,219681,1,0,0:0:0:0:
256,192,219785,1,8,0:0:0:0:
256,192,219888,1,0,0:0:0:0:
256,192,219992,1,8,0:0:0:0:
256,192,220095,1,8,0:0:0:0:
256,192,220199,1,0,0:0:0:0:
256,192,220509,1,8,0:0:0:0:
256,192,220716,1,0,0:0:0:0:
256,192,220819,1,8,0:0:0:0:
256,192,221026,1,0,0:0:0:0:
256,192,221233,1,8,0:0:0:0:
256,192,221336,1,0,0:0:0:0:
256,192,221543,1,0,0:0:0:0:
256,192,221647,1,8,0:0:0:0:
256,192,221853,1,0,0:0:0:0:
256,192,222060,1,8,0:0:0:0:
256,192,222164,1,8,0:0:0:0:
256,192,222267,1,0,0:0:0:0:
256,192,222474,1,0,0:0:0:0:
256,192,222681,1,8,0:0:0:0:
256,192,222991,1,0,0:0:0:0:
256,192,223095,1,0,0:0:0:0:
256,192,223302,1,8,0:0:0:0:
256,192,223405,1,0,0:0:0:0:
256,192,223509,1,0,0:0:0:0:
256,192,223716,1,0,0:0:0:0:
256,192,223819,1,0,0:0:0:0:
256,192,223922,1,8,0:0:0:0:
256,192,224129,1,0,0:0:0:0:
256,192,224336,1,8,0:0:0:0:
256,192,224543,1,0,0:0:0:0:
256,192,224647,1,0,0:0:0:0:
256,192,224750,1,0,0:0:0:0:
256,192,224957,1,8,0:0:0:0:
256,192,225164,1,0,0:0:0:0:
256,192,225578,1,0,0:0:0:0:
256,192,225991,1,8,0:0:0:0:
