osu file format v14

[General]
AudioFilename: audio.mp3
AudioLeadIn: 0
PreviewTime: 65619
Countdown: 0
SampleSet: Normal
StackLeniency: 0.7
Mode: 0
LetterboxInBreaks: 0
WidescreenStoryboard: 1

[Editor]
DistanceSpacing: 1.2
BeatDivisor: 4
GridSize: 32
TimelineZoom: 1.5

[Metadata]
Title:good high school
TitleUnicode:good high school
Artist:baker
ArtistUnicode:baker
Creator:wring
Version:NOVICE
Source:SOUND VOLTEX BOOTH
Tags:sdvx
BeatmapID:3052997
BeatmapSetID:738738

[Difficulty]
HPDrainRate:4
CircleSize:3
OverallDifficulty:5
ApproachRate:6
SliderMultiplier:1.2
SliderTickRate:1

[Events]
//Background and Video events
0,0,"wahr.jpg",0,0
//Break Periods
//Storyboard Layer 0 (Background)
//Storyboard Layer 1 (Fail)
//Storyboard Layer 2 (Pass)
//Storyboard Layer 3 (Foreground)
//Storyboard Layer 4 (Overlay)
//Storyboard Sound Samples

[TimingPoints]
1619,400,4,1,0,50,1,0
25619,-100,4,2,1,50,0,0
25919,-100,4,2,1,5,0,0
26019,-100,4,2,1,50,0,0
26319,-100,4,2,1,5,0,0
26419,-100,4,2,1,50,0,0
26719,-100,4,2,1,5,0,0
26819,-100,4,2,1,50,0,0
27119,-100,4,2,1,5,0,0
27219,-100,4,1,0,50,0,0
52819,-100,4,2,0,50,0,0
59219,-100,4,1,0,50,0,0
65619,-100,4,1,0,60,0,1
76819,-100,4,1,0,50,0,0
78419,-100,4,1,0,60,0,1
91219,-100,4,1,0,60,0,0
103219,-100,4,1,0,50,0,0
103819,-100,4,2,0,20,0,0

[Colours]
Combo1 : 222,209,222
Combo2 : 213,32,50
Combo3 : 255,119,119
Combo4 : 227,196,198

[HitObjects]
80,78,1619,6,0,P|112:121|89:192,1,120,4|0,0:2|0:0,0:0:0:0:
32,310,2419,2,0,P|96:307|162:322,1,120
283,372,3219,1,8,0:2:0:0:
221,241,3619,1,0,0:0:0:0:
316,133,4019,1,0,0:0:0:0:
226,20,4419,1,0,0:0:0:0:
369,28,4819,6,0,P|418:62|484:58,1,120,8|0,0:2|0:0,0:0:0:0:
505,201,5619,2,0,L|491:323,1,120
357,373,6419,2,0,L|343:251,1,120,8|0,0:2|0:0,0:0:0:0:
278,124,7219,2,0,P|220:123|165:168,1,120
149,226,7819,1,0,0:0:0:0:
77,228,8019,6,0,L|89:360,1,120,8|0,0:2|0:0,0:0:0:0:
229,375,8819,2,0,L|241:243,1,120,8|0,0:3|0:0,0:0:0:0:
354,168,9619,1,8,0:2:0:0:
284,41,10019,1,0,0:0:0:0:
157,110,10419,1,0,0:0:0:0:
39,27,10819,1,0,0:0:0:0:
7,91,11019,1,0,0:0:0:0:
29,159,11219,6,0,P|78:192|145:179,1,120,8|0,0:2|0:0,0:0:0:0:
269,129,12019,2,0,L|251:270,1,120,8|0,0:2|0:0,0:0:0:0:
267,319,12619,1,0,0:0:0:0:
203,353,12819,1,8,0:2:0:0:
62,319,13219,1,0,0:0:0:0:
10,184,13619,1,0,0:0:0:0:
89,64,14019,1,0,0:0:0:0:
232,53,14419,6,0,B|299:58|272:27|350:33,2,120,4|0|0,0:2|0:0|0:0,0:0:0:0:
335,153,15619,1,0,0:0:0:0:
473,113,16019,2,0,B|435:168|475:160|431:225,2,120,8|0|0,0:2|0:0|0:0,0:0:0:0:
335,153,17219,1,0,0:0:0:0:
302,293,17619,2,0,B|272:232|259:271|225:200,2,120,8|0|0,0:2|0:0|0:0,0:0:0:0:
335,153,18819,1,0,0:0:0:0:
193,126,19219,5,8,0:2:0:0:
122,112,19419,1,0,0:0:0:0:
51,98,19619,1,2,0:0:0:0:
89,236,20019,1,2,0:0:0:0:
160,222,20219,1,2,0:0:0:0:
137,290,20419,1,2,0:0:0:0:
259,365,20819,6,0,P|319:365|366:320,1,120,8|0,0:2|0:0,0:0:0:0:
505,315,21619,2,0,L|492:194,1,120
477,52,22419,2,0,P|417:52|370:97,1,120,8|0,0:2|0:0,0:0:0:0:
231,102,23219,2,0,L|244:223,1,120
367,296,24019,5,8,0:2:0:0:
243,370,24419,1,0,0:0:0:0:
129,281,24819,1,0,0:0:0:0:
180,146,25219,1,0,0:0:0:0:
323,159,25619,2,0,B|322:101|322:101|329:96|329:96|327:35,3,120,2|2|2|2,0:0|0:0|0:0|0:0,0:0:0:0:
184,24,27219,6,0,P|126:20|66:42,1,120,4|8,0:0|0:0,0:0:0:0:
13,174,28019,2,0,B|66:176|86:128|86:128|97:159,1,120,8|0,0:0|0:0,0:0:0:0:
237,177,28819,2,0,P|210:230|150:229,1,120,4|8,0:0|0:0,0:0:0:0:
79,354,29619,2,0,P|129:331|190:343,1,120,8|0,0:0|0:0,0:0:0:0:
332,370,30419,6,0,P|336:302|336:246,1,120,4|8,0:0|0:0,0:0:0:0:
452,335,31219,2,0,P|454:269|453:191,1,120,8|0,0:0|0:0,0:0:0:0:
334,134,32019,1,4,0:0:0:0:
262,140,32219,1,0,0:0:0:0:
231,205,32419,1,0,0:0:0:0:
109,127,32819,1,8,0:0:0:0:
119,55,33019,1,8,0:0:0:0:
184,24,33219,1,8,0:0:0:0:
328,24,33619,6,0,P|386:20|446:42,1,120,4|8,0:0|0:0,0:0:0:0:
499,174,34419,2,0,B|446:176|426:128|426:128|415:159,1,120,8|0,0:0|0:0,0:0:0:0:
275,177,35219,2,0,P|302:230|362:229,1,120,4|8,0:0|0:0,0:0:0:0:
433,354,36019,2,0,P|383:331|322:343,1,120,8|0,0:0|0:0,0:0:0:0:
180,370,36819,6,0,P|176:302|176:246,1,120,4|8,0:0|0:0,0:0:0:0:
60,335,37619,2,0,P|57:269|59:191,1,120,8|0,0:0|0:0,0:0:0:0:
178,134,38419,1,4,0:0:0:0:
250,140,38619,1,0,0:0:0:0:
281,205,38819,1,0,0:0:0:0:
403,127,39219,1,8,0:0:0:0:
393,55,39419,1,8,0:0:0:0:
328,24,39619,1,2,0:0:0:0:
250,140,40019,6,0,B|198:137|171:186|171:186|157:170|162:144,1,120,4|8,0:0|0:0,0:0:0:0:
123,25,40819,2,0,P|63:40|44:108,1,120,8|2,0:0|0:0,0:0:0:0:
77,151,41419,1,8,0:0:0:0:
42,214,41619,2,0,L|49:346,1,120,4|8,0:0|0:0,0:0:0:0:
190,308,42419,2,0,L|192:181,1,120,8|2,0:0|0:0,0:0:0:0:
256,156,43019,1,8,0:0:0:0:
320,187,43219,6,0,L|321:306,1,120,4|8,0:0|0:0,0:0:0:0:
463,333,44019,2,0,L|470:214,1,120,8|2,0:0|0:0,0:0:0:0:
435,151,44619,1,8,0:0:0:0:
471,89,44819,2,0,P|452:64|445:33,1,60,4|8,0:0|0:0,0:0:0:0:
373,38,45219,2,0,P|369:73|348:102,1,60,2|0,0:0|0:0,0:0:0:0:
291,62,45619,2,0,P|268:37|235:23,1,60,8|8,0:0|0:0,0:0:0:0:
184,64,46019,2,0,P|183:97|196:127,1,60,2|0,0:0|0:0,0:0:0:0:
262,140,46419,6,0,B|314:137|341:186|341:186|355:170|350:144,1,120,4|8,0:0|0:0,0:0:0:0:
389,25,47219,2,0,P|449:40|468:108,1,120,8|2,0:0|0:0,0:0:0:0:
435,151,47819,1,8,0:0:0:0:
470,214,48019,2,0,L|463:346,1,120,4|8,0:0|0:0,0:0:0:0:
322,308,48819,2,0,L|320:181,1,120,8|2,0:0|0:0,0:0:0:0:
256,156,49419,1,8,0:0:0:0:
192,187,49619,6,0,L|190:306,1,120,4|8,0:0|0:0,0:0:0:0:
48,333,50419,6,0,L|42:214,1,120,8|2,0:0|0:0,0:0:0:0:
77,151,51019,1,8,0:0:0:0:
138,187,51219,2,0,P|157:212|164:243,1,60,4|0,0:0|0:0,0:0:0:0:
236,238,51619,2,0,P|240:203|261:174,1,60
318,214,52019,2,0,P|341:239|374:253,1,60
425,212,52419,2,0,P|426:179|413:149,1,60
437,85,52819,6,0,B|405:24|333:31|333:31|280:57,2,180,4|2|2,0:0|0:0|0:0,0:0:0:0:
437,299,54619,2,0,B|405:360|333:353|333:353|280:327,2,180,2|2|0,0:0|0:0|0:0,0:0:0:0:
406,233,56019,6,0,B|382:206|399:169|399:169|355:147|348:219|286:197,2,180,2|2|2,0:0|0:0|0:0,0:0:0:0:
298,45,57819,2,0,B|274:72|291:109|291:109|247:131|240:59|178:81,1,180,2|2,0:0|0:0,0:0:0:0:
154,15,58619,1,0,0:0:0:0:
110,226,59219,6,0,B|134:186|134:186|88:171|88:171|102:116|77:75,2,180
184,351,60819,2,0,B|131:351|90:307|90:307|54:323|57:383,2,180
328,351,62419,2,0,B|381:351|422:307|422:307|458:323|455:383,2,180
402,226,64019,2,0,B|378:186|378:186|424:171|424:171|410:116|435:75,1,180
374,39,64819,5,8,0:0:0:0:
256,122,65219,1,8,0:0:0:0:
138,39,65619,6,0,P|86:17|36:51,1,120,4|8,0:0|0:0,0:0:0:0:
28,193,66419,2,0,B|56:190|82:168|82:168|68:197|76:233,1,120,8|0,0:0|0:0,0:0:0:0:
119,282,67019,1,0,0:0:0:0:
64,328,67219,2,0,L|192:312,1,120,4|8,0:0|0:0,0:0:0:0:
329,313,68019,2,0,L|448:327,1,120
499,276,68619,1,0,0:0:0:0:
450,222,68819,5,4,0:0:0:0:
480,81,69219,1,8,0:0:0:0:
355,7,69619,1,8,0:0:0:0:
242,97,70019,1,8,0:0:0:0:
301,228,70419,2,0,L|343:167,2,60,4|0|8,0:0|0:0|0:0,0:0:0:0:
230,353,71219,2,0,L|156:347,2,60,0|0|8,0:0|0:0|0:0,0:0:0:0:
374,345,72019,6,0,P|426:367|476:333,1,120,4|8,0:0|0:0,0:0:0:0:
484,191,72819,2,0,B|456:194|430:216|430:216|444:187|436:151,1,120,8|8,0:0|0:0,0:0:0:0:
393,102,73419,1,8,0:0:0:0:
448,56,73619,2,0,L|320:72,1,120,4|8,0:0|0:0,0:0:0:0:
183,71,74419,2,0,L|63:56,1,120,8|8,0:0|0:0,0:0:0:0:
13,108,75019,1,8,0:0:0:0:
62,162,75219,5,4,0:0:0:0:
32,303,75619,1,8,0:0:0:0:
157,377,76019,1,8,0:0:0:0:
270,287,76419,1,0,0:0:0:0:
215,77,77019,6,0,L|225:149,1,60
335,226,77619,1,0,0:0:0:0:
335,226,77819,2,0,L|345:154,1,60,0|2,0:0|0:0,0:0:0:0:
333,22,78419,6,0,P|397:27|438:66,1,120,4|2,0:0|0:0,0:0:0:0:
474,202,79219,2,0,L|456:343,1,120,2|8,0:0|0:0,0:0:0:0:
389,299,79819,1,8,0:0:0:0:
341,353,80019,2,0,P|284:366|226:341,1,120,4|2,0:0|0:0,0:0:0:0:
154,219,80819,2,0,L|13:234,1,120,2|8,0:0|0:0,0:0:0:0:
6,297,81419,1,8,0:0:0:0:
49,354,81619,6,0,P|107:356|149:307,1,120,4|2,0:0|0:0,0:0:0:0:
247,210,82419,2,0,L|235:86,1,120,2|8,0:0|0:0,0:0:0:0:
229,18,83019,1,8,0:0:0:0:
157,10,83219,2,0,P|127:14|87:34,1,60,4|0,0:0|0:0,0:0:0:0:
36,60,83619,2,0,B|8:79|4:109|4:109|36:101|65:121,1,120,2|4,0:0|0:0,0:0:0:0:
120,159,84219,1,0,0:0:0:0:
153,222,84419,2,0,P|159:260|153:307,1,60,2|2,0:0|0:0,0:0:0:0:
106,331,84819,6,0,P|164:310|231:318,1,120,0|8,0:0|0:0,0:0:0:0:
361,348,85619,2,0,P|327:299|319:239,1,120,8|8,0:0|0:0,0:0:0:0:
386,216,86219,1,0,0:0:0:0:
451,185,86419,2,0,L|314:165,1,120,8|8,0:0|0:0,0:0:0:0:
209,91,87219,2,0,L|72:71,1,120,8|8,0:0|0:0,0:0:0:0:
24,104,87819,1,0,0:0:0:0:
35,175,88019,6,0,P|65:191|100:189,1,60,8|0,0:0|0:0,0:0:0:0:
159,168,88419,2,0,P|176:193|179:227,1,60,8|8,0:0|0:0,0:0:0:0:
144,285,88819,2,0,P|116:306|106:334,1,60,8|8,0:0|0:0,0:0:0:0:
161,375,89219,2,0,P|191:368|226:372,1,60,8|8,0:0|0:0,0:0:0:0:
292,370,89619,6,0,P|321:368|351:375,1,60
405,328,90019,2,0,P|392:301|368:285,1,60
332,222,90419,2,0,P|336:192|353:168,1,60,8|8,0:0|0:0,0:0:0:0:
421,191,90819,2,0,P|451:189|477:175,1,60,8|0,0:0|0:0,0:0:0:0:
501,107,91219,6,0,P|476:56|414:43,1,120,4|0,0:0|0:0,0:0:0:0:
356,79,91819,1,0,0:0:0:0:
284,79,92019,2,0,P|281:44|293:-2,2,60,8|8|0,0:0|0:0|0:0,0:0:0:0:
290,150,92619,2,0,P|301:210|288:274,1,120,4|8,0:0|0:0,0:0:0:0:
222,292,93219,2,0,L|151:284,1,60,0|8,0:0|0:0,0:0:0:0:
112,233,93619,2,0,P|101:173|114:109,1,120,8|8,0:0|0:0,0:0:0:0:
172,76,94219,1,0,0:0:0:0:
129,17,94419,6,0,P|94:17|63:29,2,60,0|8|0,0:0|0:0|0:0,0:0:0:0:
172,76,95019,2,0,P|200:88|234:86,1,60,8|0,0:0|0:0,0:0:0:0:
295,58,95419,1,8,0:0:0:0:
361,85,95619,2,0,P|366:115|357:165,1,60,8|0,0:0|0:0,0:0:0:0:
337,286,96219,2,0,P|336:321|345:358,2,60,8|0|0,0:0|0:0|0:0,0:0:0:0:
289,231,96819,2,0,P|259:233|227:258,1,60,8|8,0:0|0:0,0:0:0:0:
162,237,97219,2,0,P|141:259|131:301,1,60,8|0,0:0|0:0,0:0:0:0:
69,323,97619,6,0,P|18:293|19:233,1,120,0|8,0:0|0:0,0:0:0:0:
53,174,98219,1,0,0:0:0:0:
42,102,98419,2,0,P|77:107|115:103,1,60,8|8,0:0|0:0,0:0:0:0:
159,62,98819,2,0,P|192:53|217:29,1,60,0|8,0:0|0:0,0:0:0:0:
353,61,99419,2,0,P|374:39|412:31,2,60
389,123,100019,2,0,P|392:182|355:239,1,120,8|0,0:0|0:0,0:0:0:0:
308,281,100619,1,8,0:0:0:0:
371,315,100819,6,0,L|243:327,1,120,0|8,0:0|0:0,0:0:0:0:
194,369,101419,1,0,0:0:0:0:
126,344,101619,2,0,P|114:311|113:273,1,60,8|0,0:0|0:0,0:0:0:0:
78,222,102019,2,0,P|46:220|-2:230,1,60,8|0,0:0|0:0,0:0:0:0:
129,131,102619,2,0,P|159:130|194:136,2,60,8|8|0,0:0|0:0|0:0,0:0:0:0:
69,90,103219,2,0,P|68:57|79:25,1,60,8|8,0:0|0:0,0:0:0:0:
143,6,103619,1,4,0:2:0:0:
