osu file format v14

[General]
AudioFilename: audio.mp3
AudioLeadIn: 0
PreviewTime: 65619
Countdown: 0
SampleSet: Soft
StackLeniency: 0.7
Mode: 0
LetterboxInBreaks: 0
WidescreenStoryboard: 1

[Editor]
DistanceSpacing: 1.1
BeatDivisor: 4
GridSize: 4
TimelineZoom: 1.5

[Metadata]
Title:good high school
TitleUnicode:good high school
Artist:baker
ArtistUnicode:baker
Creator:wring
Version:ADVANCED
Source:SOUND VOLTEX BOOTH
Tags:sdvx
BeatmapID:3307193
BeatmapSetID:738738

[Difficulty]
HPDrainRate:5
CircleSize:3.5
OverallDifficulty:6
ApproachRate:7
SliderMultiplier:1.5
SliderTickRate:1

[Events]
//Background and Video events
0,0,"wahr.jpg",0,0
//Break Periods
//Storyboard Layer 0 (Background)
//Storyboard Layer 1 (Fail)
//Storyboard Layer 2 (Pass)
//Storyboard Layer 3 (Foreground)
//Storyboard Layer 4 (Overlay)
//Storyboard Sound Samples

[TimingPoints]
1619,400,4,1,0,50,1,0
25619,-100,4,2,1,50,0,0
25919,-100,4,2,1,5,0,0
26019,-100,4,2,1,50,0,0
26319,-100,4,2,1,5,0,0
26419,-100,4,2,1,50,0,0
26719,-100,4,2,1,5,0,0
26819,-100,4,2,1,50,0,0
27119,-100,4,2,1,5,0,0
27219,-100,4,1,0,50,0,0
52819,-125,4,2,0,50,0,0
59219,-100,4,1,0,50,0,0
65619,-83.3333333333333,4,1,0,60,0,1
76819,-100,4,1,0,50,0,0
78419,-83.3333333333333,4,1,0,60,0,1
91219,-100,4,1,0,60,0,0
103219,-100,4,1,0,50,0,0
103819,-100,4,2,0,20,0,0

[Colours]
Combo1 : 222,209,222
Combo2 : 213,32,50
Combo3 : 255,119,119
Combo4 : 227,196,198

[HitObjects]
65,335,1619,6,0,P|55:267|130:233,1,150,4|0,0:2|0:0,0:0:0:0:
201,266,2219,1,0,0:0:0:0:
201,266,2319,1,0,0:0:0:0:
201,266,2419,2,0,L|215:362,1,75
302,340,2819,2,0,L|312:265,1,75
361,189,3219,2,0,L|415:182,4,37.5,8|0|0|0|0,0:2|0:0|0:0|0:0|0:0,0:0:0:0:
256,144,3819,1,0,0:0:0:0:
151,189,4019,2,0,L|97:182,4,37.5
256,144,4619,1,0,0:0:0:0:
340,49,4819,6,0,P|419:55|447:119,1,150,8|0,0:2|0:0,0:0:0:0:
411,194,5419,1,0,0:0:0:0:
483,247,5619,2,0,L|477:332,1,75
404,374,6019,2,0,P|371:364|327:358,1,75
301,273,6419,1,8,0:2:0:0:
301,273,6619,2,0,L|312:191,1,75
224,222,7019,2,0,L|213:140,1,75
126,282,7419,2,0,L|137:200,1,75
49,231,7819,1,0,0:0:0:0:
49,231,7919,1,0,0:0:0:0:
49,231,8019,6,0,L|38:149,1,75,8|0,0:2|0:0,0:0:0:0:
94,86,8419,1,0,0:0:0:0:
150,16,8619,1,0,0:0:0:0:
150,16,8719,1,0,0:0:0:0:
150,16,8819,2,0,L|234:25,1,75,8|0,0:3|0:0,0:0:0:0:
314,36,9219,1,0,0:0:0:0:
358,114,9419,2,0,B|304:126|304:126|270:112|270:112|208:125,2,150
448,120,10419,2,0,L|466:62,4,37.5
459,209,11019,1,0,0:0:0:0:
402,278,11219,6,0,L|327:275,1,75,8|0,0:2|0:0,0:0:0:0:
339,133,11619,2,0,L|264:136,1,75
258,216,12019,2,0,L|157:223,1,75,8|0,0:2|0:0,0:0:0:0:
111,275,12419,1,0,0:0:0:0:
39,220,12619,2,0,P|12:147|34:77,2,150
111,275,13619,1,0,0:0:0:0:
162,201,13819,1,0,0:0:0:0:
200,282,14019,1,0,0:0:0:0:
241,361,14219,1,0,0:0:0:0:
292,287,14419,6,0,L|282:238,2,37.5,4|0|0,0:2|0:0|0:0,0:0:0:0:
373,327,14819,1,0,0:0:0:0:
373,327,15019,1,0,0:0:0:0:
371,237,15219,2,0,L|362:183,2,37.5
451,278,15619,2,0,B|469:253|469:253|459:195,1,75
436,122,16019,2,0,L|453:72,2,37.5,8|0|0,0:2|0:0|0:0,0:0:0:0:
377,190,16419,1,0,0:0:0:0:
377,190,16619,1,0,0:0:0:0:
347,104,16819,2,0,L|364:54,2,37.5
288,173,17219,2,0,B|261:146|261:146|258:104,1,75
195,44,17619,6,0,L|179:11,2,37.5,8|0|0,0:2|0:0|0:0,0:0:0:0:
172,131,18019,2,0,B|135:138|135:138|103:119,1,75
51,44,18419,2,0,B|75:72|75:72|75:109,1,75
35,190,18819,2,0,B|47:154|47:154|79:136,1,75
163,169,19219,2,0,B|227:165|227:165|231:160|231:160|312:155,1,150,8|2,0:2|0:0,0:0:0:0:
448,271,20019,1,2,0:0:0:0:
364,236,20219,1,2,0:0:0:0:
304,303,20419,2,0,L|317:390,1,75,2|0,0:0|0:0,0:0:0:0:
220,287,20819,6,0,L|230:238,2,37.5,8|0|0,0:2|0:0|0:0,0:0:0:0:
139,327,21219,1,0,0:0:0:0:
139,327,21419,1,0,0:0:0:0:
141,237,21619,2,0,L|150:183,2,37.5
61,278,22019,2,0,B|43:253|43:253|53:195,1,75
76,122,22419,2,0,L|59:72,2,37.5,8|0|0,0:2|0:0|0:0,0:0:0:0:
135,190,22819,1,0,0:0:0:0:
135,190,23019,1,0,0:0:0:0:
165,104,23219,2,0,L|148:54,2,37.5
224,173,23619,2,0,B|251:146|251:146|254:104,1,75
317,44,24019,6,0,L|333:11,2,37.5,8|0|0,0:2|0:0|0:0,0:0:0:0:
340,131,24419,2,0,B|377:138|377:138|409:119,1,75
461,44,24819,2,0,B|436:72|436:72|436:109,1,75
477,190,25219,2,0,B|464:154|464:154|432:136,1,75
349,169,25619,2,0,B|285:165|285:165|281:160|281:160|200:155,1,150,2|2,0:0|0:0,0:0:0:0:
308,300,26419,2,0,B|372:296|372:296|376:291|376:291|457:286,1,150,2|2,0:0|0:0,0:0:0:0:
211,370,27219,6,0,L|125:375,1,75,4|0,0:0|0:0,0:0:0:0:
37,289,27619,2,0,L|123:294,1,75,8|0,0:0|0:0,0:0:0:0:
187,243,28019,2,0,P|192:200|188:150,1,75,8|8,0:0|0:0,0:0:0:0:
186,156,28319,1,0,0:0:0:0:
178,146,28419,2,0,L|92:151,1,75,0|8,0:0|0:0,0:0:0:0:
66,68,28819,2,0,L|160:62,1,75,4|0,0:0|0:0,0:0:0:0:
216,14,29219,2,0,P|254:21|285:46,1,75,8|0,0:0|0:0,0:0:0:0:
385,126,29619,2,0,P|368:93|365:52,1,75,8|8,0:0|0:0,0:0:0:0:
368,43,29919,1,0,0:0:0:0:
377,33,30019,2,0,L|458:18,1,75,0|8,0:0|0:0,0:0:0:0:
511,85,30419,6,0,L|490:162,1,75,4|0,0:0|0:0,0:0:0:0:
421,215,30819,2,0,P|384:221|344:212,1,75,8|0,0:0|0:0,0:0:0:0:
492,275,31219,2,0,L|512:360,1,75,8|8,0:0|0:0,0:0:0:0:
421,367,31619,2,0,P|384:373|344:364,1,75,0|8,0:0|0:0,0:0:0:0:
274,312,32019,1,4,0:0:0:0:
298,225,32219,1,0,0:0:0:0:
229,165,32419,2,0,P|172:160|113:175,1,112.5
100,131,32819,2,0,P|94:93|100:56,1,75,8|8,0:0|0:0,0:0:0:0:
107,46,33119,1,0,0:0:0:0:
116,36,33219,2,0,P|153:44|195:42,1,75,8|0,0:0|0:0,0:0:0:0:
301,14,33619,6,0,L|387:9,1,75,4|0,0:0|0:0,0:0:0:0:
475,95,34019,2,0,L|389:90,1,75,8|0,0:0|0:0,0:0:0:0:
325,141,34419,2,0,P|320:184|324:234,1,75,8|8,0:0|0:0,0:0:0:0:
326,228,34719,1,0,0:0:0:0:
334,238,34819,2,0,L|420:233,1,75,0|8,0:0|0:0,0:0:0:0:
446,316,35219,2,0,L|352:322,1,75,4|0,0:0|0:0,0:0:0:0:
296,370,35619,2,0,P|258:363|227:338,1,75,8|0,0:0|0:0,0:0:0:0:
127,258,36019,6,0,P|144:291|147:332,1,75,8|8,0:0|0:0,0:0:0:0:
144,341,36319,1,0,0:0:0:0:
135,351,36419,2,0,L|54:366,1,75,0|8,0:0|0:0,0:0:0:0:
1,299,36819,2,0,L|22:222,1,75,4|0,0:0|0:0,0:0:0:0:
91,169,37219,2,0,P|128:163|168:172,1,75,8|0,0:0|0:0,0:0:0:0:
20,109,37619,2,0,L|0:24,1,75,8|8,0:0|0:0,0:0:0:0:
91,17,38019,2,0,P|128:11|168:20,1,75,0|8,0:0|0:0,0:0:0:0:
238,72,38419,1,4,0:0:0:0:
214,159,38619,1,0,0:0:0:0:
283,219,38819,2,0,P|340:224|399:209,1,112.5
412,253,39219,2,0,P|418:291|412:328,1,75,8|8,0:0|0:0,0:0:0:0:
405,338,39519,1,0,0:0:0:0:
396,348,39619,2,0,P|359:340|317:342,1,75,2|0,0:0|0:0,0:0:0:0:
239,303,40019,6,0,P|231:264|236:224,1,75,4|0,0:0|0:0,0:0:0:0:
294,161,40419,1,8,0:0:0:0:
381,183,40619,1,0,0:0:0:0:
445,120,40819,2,0,P|451:83|449:40,1,75,8|8,0:0|0:0,0:0:0:0:
367,10,41219,1,2,0:0:0:0:
285,47,41419,1,8,0:0:0:0:
198,22,41619,2,0,L|113:33,1,75,4|0,0:0|0:0,0:0:0:0:
110,31,41919,1,0,0:0:0:0:
97,27,42019,2,0,P|114:60|121:121,1,75,8|0,0:0|0:0,0:0:0:0:
59,162,42419,1,8,0:0:0:0:
59,162,42619,1,8,0:0:0:0:
45,250,42819,2,0,P|77:237|130:233,1,75,2|8,0:0|0:0,0:0:0:0:
192,281,43219,6,0,L|185:363,1,75,4|0,0:0|0:0,0:0:0:0:
271,329,43619,2,0,L|362:320,1,75,8|0,0:0|0:0,0:0:0:0:
309,239,44019,2,0,L|316:157,1,75,8|8,0:0|0:0,0:0:0:0:
230,191,44419,2,0,L|139:200,1,75,2|8,0:0|0:0,0:0:0:0:
218,86,44819,2,0,B|269:82|269:82|274:88|274:88|338:82,1,112.5,4|0,0:0|0:0,0:0:0:0:
369,66,45219,2,0,B|401:46|401:46|440:68,1,75,2|0,0:0|0:0,0:0:0:0:
430,207,45619,1,8,0:0:0:0:
486,136,45819,1,8,0:0:0:0:
430,207,46019,2,0,B|398:227|398:227|359:205,1,75,2|0,0:0|0:0,0:0:0:0:
273,303,46419,6,0,P|281:264|276:224,1,75,4|0,0:0|0:0,0:0:0:0:
218,161,46819,1,8,0:0:0:0:
131,183,47019,1,0,0:0:0:0:
67,120,47219,2,0,P|61:83|63:40,1,75,8|8,0:0|0:0,0:0:0:0:
145,10,47619,1,2,0:0:0:0:
227,47,47819,1,8,0:0:0:0:
314,22,48019,2,0,L|399:33,1,75,4|0,0:0|0:0,0:0:0:0:
402,31,48319,1,0,0:0:0:0:
415,27,48419,2,0,P|398:60|391:121,1,75,8|0,0:0|0:0,0:0:0:0:
453,162,48819,1,8,0:0:0:0:
453,162,49019,1,8,0:0:0:0:
467,250,49219,2,0,P|435:237|382:233,1,75,2|8,0:0|0:0,0:0:0:0:
320,281,49619,6,0,L|327:363,1,75,4|0,0:0|0:0,0:0:0:0:
241,329,50019,2,0,L|150:320,1,75,8|0,0:0|0:0,0:0:0:0:
203,239,50419,2,0,L|196:157,1,75,8|8,0:0|0:0,0:0:0:0:
282,191,50819,2,0,L|373:200,1,75,2|8,0:0|0:0,0:0:0:0:
263,88,51219,2,0,L|172:79,1,75,4|0,0:0|0:0,0:0:0:0:
176,75,51519,1,0,0:0:0:0:
164,69,51619,2,0,B|131:55|131:55|99:80,1,75
12,99,52019,2,0,B|1:134|1:134|23:173,1,75
65,245,52419,1,0,0:0:0:0:
65,245,52519,1,0,0:0:0:0:
65,245,52619,1,0,0:0:0:0:
101,334,52819,6,0,B|161:342|161:342|196:313|196:313|297:328,2,180,4|2|2,0:0|0:0|0:0,0:0:0:0:
89,326,54619,1,2,0:0:0:0:
122,112,55219,1,2,0:0:0:0:
336,137,55819,1,0,0:0:0:0:
336,137,56019,2,0,B|369:173|369:173|352:262,1,120,2|0,0:0|0:0,0:0:0:0:
309,297,56619,2,0,B|362:284|362:284|415:345,1,120,2|0,0:0|0:0,0:0:0:0:
281,205,57219,2,0,B|228:192|228:192|175:253,1,120,2|0,0:0|0:0,0:0:0:0:
117,215,57819,2,0,B|150:251|150:251|133:340,1,120,2|0,0:0|0:0,0:0:0:0:
198,357,58419,2,0,L|75:376,1,120,2|2,0:0|0:0,0:0:0:0:
22,204,59219,6,0,L|173:183,1,150
170,183,59819,1,0,0:0:0:0:
240,80,60019,2,0,B|275:144|275:144|243:225,1,150
207,296,60619,2,0,L|358:275,1,150
355,275,61219,1,0,0:0:0:0:
450,122,61619,2,0,L|299:143,2,150
404,199,62619,2,0,B|364:136|364:136|384:63,1,150
298,34,63219,2,0,B|261:13|261:13|137:33,1,150
97,100,63819,2,0,B|67:131|67:131|182:109,1,150
262,117,64419,1,0,0:0:0:0:
358,290,64819,5,8,0:0:0:0:
209,187,65219,1,8,0:0:0:0:
53,356,65619,6,0,B|44:323|44:323|47:315|47:315|33:263,1,89.9999972534181,4|8,0:0|0:0,0:0:0:0:
112,207,66019,2,0,B|121:170|121:170|117:160|117:160|127:116,1,89.9999972534181,8|2,0:0|0:0,0:0:0:0:
195,49,66419,1,8,0:0:0:0:
104,7,66619,1,8,0:0:0:0:
24,65,66819,1,0,0:0:0:0:
23,163,67019,1,0,0:0:0:0:
112,207,67219,2,0,L|201:196,1,89.9999972534181,4|8,0:0|0:0,0:0:0:0:
213,186,67519,1,8,0:0:0:0:
224,177,67619,2,0,L|318:192,1,89.9999972534181,8|2,0:0|0:0,0:0:0:0:
339,305,68019,2,0,L|304:216,1,89.9999972534181,0|8,0:0|0:0,0:0:0:0:
394,143,68419,2,0,L|334:216,1,89.9999972534181
357,348,68819,6,0,L|416:274,1,89.9999972534181,4|0,0:0|0:0,0:0:0:0:
509,252,69219,2,0,P|484:220|483:171,1,89.9999972534181,8|0,0:0|0:0,0:0:0:0:
505,75,69619,2,0,L|420:48,1,89.9999972534181,8|0,0:0|0:0,0:0:0:0:
328,6,70019,2,0,P|341:47|337:101,1,89.9999972534181,8|8,0:0|0:0,0:0:0:0:
254,144,70419,2,0,P|246:123|248:91,2,44.999998626709,4|0|0,0:0|0:0|0:0,0:0:0:0:
180,210,70819,2,0,P|211:267|282:267,1,134.999995880127,8|0,0:0|0:0,0:0:0:0:
309,306,71219,2,0,B|354:315|354:315|397:289,1,89.9999972534181
355,199,71619,2,0,B|361:167|361:167|359:148|359:148|367:108,1,89.9999972534181,8|8,0:0|0:0,0:0:0:0:
459,28,72019,6,0,B|468:61|468:61|465:69|465:69|479:121,1,89.9999972534181,4|0,0:0|0:0,0:0:0:0:
400,177,72419,2,0,B|391:214|391:214|395:224|395:224|385:268,1,89.9999972534181,8|0,0:0|0:0,0:0:0:0:
317,335,72819,1,8,0:0:0:0:
408,377,73019,1,0,0:0:0:0:
488,319,73219,5,8,0:0:0:0:
489,221,73419,1,8,0:0:0:0:
400,177,73619,2,0,L|311:188,1,89.9999972534181,4|0,0:0|0:0,0:0:0:0:
299,198,73919,1,0,0:0:0:0:
288,207,74019,2,0,L|194:192,1,89.9999972534181,8|0,0:0|0:0,0:0:0:0:
173,79,74419,2,0,L|207:167,1,89.9999972534181,8|0,0:0|0:0,0:0:0:0:
118,241,74819,2,0,L|177:167,1,89.9999972534181,8|8,0:0|0:0,0:0:0:0:
155,36,75219,2,0,L|95:109,1,89.9999972534181,4|0,0:0|0:0,0:0:0:0:
3,132,75619,2,0,P|28:164|29:213,1,89.9999972534181,8|8,0:0|0:0,0:0:0:0:
7,309,76019,2,0,L|92:336,1,89.9999972534181,8|8,0:0|0:0,0:0:0:0:
184,378,76419,6,0,P|171:337|175:283,1,89.9999972534181,0|8,0:0|0:0,0:0:0:0:
364,145,77019,5,0,0:0:0:0:
364,145,77219,2,0,P|378:181|375:220,1,75
293,253,77619,2,0,B|233:243|233:243|227:248|227:248|122:233,1,150,0|2,0:0|0:0,0:0:0:0:
58,38,78419,6,0,L|40:145,1,89.9999972534181,4|2,0:0|0:0,0:0:0:0:
140,79,78819,2,0,L|126:173,1,89.9999972534181,2|0,0:0|0:0,0:0:0:0:
236,27,79219,2,0,L|222:121,1,89.9999972534181,2|2,0:0|0:0,0:0:0:0:
317,83,79619,1,8,0:0:0:0:
317,83,79719,1,8,0:0:0:0:
317,83,79819,1,8,0:0:0:0:
389,149,80019,2,0,P|404:187|410:250,1,89.9999972534181,4|2,0:0|0:0,0:0:0:0:
285,345,80419,2,0,P|297:298|330:261,1,89.9999972534181,2|0,0:0|0:0,0:0:0:0:
256,193,80819,2,0,P|212:189|167:209,1,89.9999972534181,2|2,0:0|0:0,0:0:0:0:
114,288,81219,1,8,0:0:0:0:
114,288,81319,1,8,0:0:0:0:
114,288,81419,1,8,0:0:0:0:
211,370,81619,6,0,P|236:332|240:286,1,89.9999972534181,4|2,0:0|0:0,0:0:0:0:
195,199,82019,1,2,0:0:0:0:
280,149,82219,1,0,0:0:0:0:
371,293,82419,2,0,P|348:249|354:205,1,89.9999972534181,2|2,0:0|0:0,0:0:0:0:
428,147,82819,1,8,0:0:0:0:
402,51,83019,1,8,0:0:0:0:
304,67,83219,2,0,P|305:45|322:21,4,44.999998626709,4|0|0|0|2,0:0|0:0|0:0|0:0|0:0,0:0:0:0:
384,125,83819,1,2,0:0:0:0:
479,150,84019,2,0,P|497:132|506:92,4,44.999998626709,4|0|0|0|2,0:0|0:0|0:0|0:0|0:0,0:0:0:0:
385,215,84619,1,2,0:0:0:0:
454,346,84819,6,0,L|472:239,1,89.9999972534181
372,305,85219,2,0,L|386:211,1,89.9999972534181,8|0,0:0|0:0,0:0:0:0:
276,357,85619,2,0,L|290:263,1,89.9999972534181,8|8,0:0|0:0,0:0:0:0:
195,301,86019,1,8,0:0:0:0:
195,301,86119,1,0,0:0:0:0:
195,301,86219,1,0,0:0:0:0:
129,227,86419,2,0,P|86:235|51:274,1,89.9999972534181,8|0,0:0|0:0,0:0:0:0:
226,203,86819,2,0,P|202:163|193:98,1,89.9999972534181,8|0,0:0|0:0,0:0:0:0:
37,87,87219,2,0,P|82:103|106:154,1,89.9999972534181,8|8,0:0|0:0,0:0:0:0:
147,41,87619,1,8,0:0:0:0:
147,41,87719,1,0,0:0:0:0:
147,41,87819,1,0,0:0:0:0:
244,59,88019,5,8,0:0:0:0:
340,36,88219,1,0,0:0:0:0:
405,110,88419,1,8,0:0:0:0:
306,109,88619,1,8,0:0:0:0:
260,197,88819,1,8,0:0:0:0:
355,171,89019,1,8,0:0:0:0:
433,230,89219,2,0,L|438:275,2,44.999998626709,8|8|8,0:0|0:0|0:0,0:0:0:0:
308,308,89619,6,0,P|302:328|298:361,3,44.999998626709
249,345,90019,2,0,P|225:348|197:350,3,44.999998626709
174,310,90419,2,0,P|172:283|167:246,3,44.999998626709,8|0|8|0,0:0|0:0|0:0|0:0,0:0:0:0:
132,232,90819,2,0,P|106:232|71:228,3,44.999998626709,8|8|0|0,0:0|0:0|0:0|0:0,0:0:0:0:
53,254,91219,6,0,P|8:199|36:134,1,150,4|0,0:0|0:0,0:0:0:0:
110,95,91819,1,0,0:0:0:0:
110,95,92019,2,0,P|186:113|274:119,1,150,8|0,0:0|0:0,0:0:0:0:
322,67,92619,1,4,0:0:0:0:
276,270,93019,1,8,0:0:0:0:
315,197,93219,2,0,P|351:187|389:190,1,75,0|8,0:0|0:0,0:0:0:0:
453,138,93619,2,0,B|432:170|432:210|432:210|460:295,1,150,8|8,0:0|0:0,0:0:0:0:
309,359,94419,6,0,L|149:371,1,150
97,315,95019,1,8,0:0:0:0:
81,234,95219,2,0,P|107:165|180:162,1,150,0|8,0:0|0:0,0:0:0:0:
175,159,95819,1,0,0:0:0:0:
402,232,96219,1,8,0:0:0:0:
349,168,96419,2,0,P|314:183|275:187,1,75
237,115,96819,1,8,0:0:0:0:
148,29,97019,1,8,0:0:0:0:
50,111,97219,2,0,P|51:148|53:201,1,75,8|0,0:0|0:0,0:0:0:0:
16,260,97619,6,0,P|87:257|156:298,1,150,0|8,0:0|0:0,0:0:0:0:
189,369,98219,1,0,0:0:0:0:
243,267,98419,2,0,P|278:334|355:312,1,150,8|0,0:0|0:0,0:0:0:0:
383,254,99019,1,8,0:0:0:0:
172,203,99419,1,0,0:0:0:0:
172,203,99619,2,0,P|168:164|179:127,1,75
107,86,100019,2,0,L|259:75,1,150,8|0,0:0|0:0,0:0:0:0:
326,31,100619,1,8,0:0:0:0:
439,93,100819,6,0,B|463:157|377:155|413:246,1,150,0|8,0:0|0:0,0:0:0:0:
436,309,101419,1,0,0:0:0:0:
376,366,101619,2,0,P|296:358|271:291,1,150,8|8,0:0|0:0,0:0:0:0:
287,220,102219,1,0,0:0:0:0:
124,73,102619,1,8,0:0:0:0:
48,105,102819,1,8,0:0:0:0:
114,154,103019,1,0,0:0:0:0:
196,162,103219,6,0,P|235:153|285:150,1,75,8|8,0:0|0:0,0:0:0:0:
170,275,103619,2,0,P|137:268|78:262,1,75,4|2,0:2|0:2,0:0:0:0:
