osu file format v14

[General]
AudioFilename: audio.mp3
AudioLeadIn: 0
PreviewTime: 88195
Countdown: 0
SampleSet: Soft
StackLeniency: 0.7
Mode: 0
LetterboxInBreaks: 0
WidescreenStoryboard: 1

[Editor]
Bookmarks: 11721,111605,117154,211143
DistanceSpacing: 1
BeatDivisor: 4
GridSize: 4
TimelineZoom: 1

[Metadata]
Title:Kimi ga Kimi ga -vocanico remix-
TitleUnicode:君が君が -vocanico remix-
Artist:baker
ArtistUnicode:baker
Creator:jonathanlfj
Version:pishi's Normal
Source:
Tags:Nyquill pishifat 初音ミク Append Hatsune Miku Vocaloid 很高興認識你。我們 -MOtOLOiD- osu osu! featured artist
BeatmapID:1443513
BeatmapSetID:682595

[Difficulty]
HPDrainRate:4
CircleSize:3.5
OverallDifficulty:4
ApproachRate:5
SliderMultiplier:1.1
SliderTickRate:1

[Events]
//Background and Video events
0,0,"Kimiga_Kimiga.jpg",0,0
//Break Periods
2,111824,121176
//Storyboard Layer 0 (Background)
//Storyboard Layer 1 (Fail)
//Storyboard Layer 2 (Pass)
//Storyboard Layer 3 (Foreground)
//Storyboard Sound Samples

[TimingPoints]
642,346.820809248555,4,2,1,70,1,0
16942,-100,4,2,1,60,0,0
17289,-111.111111111111,4,2,1,60,0,0
22838,-100,4,2,1,65,0,0
33936,-100,4,2,1,70,0,0
45035,-100,4,2,1,60,0,0
56133,-100,4,2,1,70,0,0
78329,-111.111111111111,4,2,1,75,0,0
83878,-111.111111111111,4,2,1,65,0,0
86653,-111.111111111111,4,2,1,70,0,0
89428,-90.9090909090909,4,2,1,80,0,1
100526,-111.111111111111,4,2,1,80,0,1
111624,-100,4,2,1,70,0,0
122722,-111.111111111111,4,2,1,70,0,1
122809,-111.111111111111,4,2,1,70,0,0
144919,-90.9090909090908,4,2,1,70,0,1
156017,-111.111111111111,4,2,1,70,0,1
167115,-100,4,2,1,70,0,0
189312,-100,4,2,1,60,0,0
200410,-100,4,2,1,50,0,0

[Colours]
Combo1 : 224,86,254
Combo2 : 1,142,248
Combo3 : 56,254,234
Combo4 : 255,51,107

[HitObjects]
42,126,16942,5,8,1:0:0:0:
1,216,17289,6,0,B|54:239|103:216|87:199|136:186|191:208,1,197.99999395752,4|8,1:2|1:0,0:0:0:0:
235,231,18156,2,0,L|246:330,1,98.9999969787598,0|0,1:0|1:0,0:0:0:0:
338,294,18850,2,0,L|345:359,1,49.4999984893799,0|0,1:0|1:0,0:0:0:0:
443,353,19370,2,0,B|438:302|438:302|465:242,1,98.9999969787598,8|8,1:0|1:0,0:0:0:0:
500,169,20063,5,4,1:2:0:0:
401,176,20410,1,0,1:0:0:0:
445,87,20757,1,8,1:0:0:0:
366,26,21104,2,0,L|315:20,1,49.4999984893799,8|12,1:0|1:0,0:0:0:0:
274,45,21451,2,0,L|224:39,2,49.4999984893799,0|4|0,1:0|1:2|1:0,0:0:0:0:
263,144,22144,2,0,L|213:138,1,49.4999984893799,0|0,1:0|1:0,0:0:0:0:
164,133,22491,1,8,1:0:0:0:
67,185,22838,6,0,P|43:231|52:289,1,110,6|8,1:2|1:0,0:0:0:0:
91,323,23358,2,0,P|139:298|192:306,1,110,2|0,2:0|1:0,0:0:0:0:
237,339,23878,1,8,1:0:0:0:
324,272,24225,1,2,1:2:0:0:
426,311,24572,2,0,L|444:142,1,165,8|0,1:0|1:0,0:0:0:0:
450,92,25266,1,8,1:0:0:0:
367,19,25613,6,0,P|313:10|265:35,1,110,2|8,1:2|1:0,0:0:0:0:
243,85,26133,1,2,2:0:0:0:
140,44,26480,1,0,1:0:0:0:
140,44,26653,1,8,1:0:0:0:
49,106,27000,2,0,L|65:223,1,110,2|8,1:2|1:0,0:0:0:0:
72,269,27520,1,2,2:0:0:0:
163,330,27867,2,0,P|149:351|112:374,2,55,2|8|0,1:2|1:0|2:0,0:0:0:0:
193,284,28387,6,0,P|241:259|294:267,1,110,2|8,1:2|1:0,0:0:0:0:
344,290,28907,2,0,P|319:241|327:188,1,110,2|0,2:0|1:0,0:0:0:0:
355,139,29428,1,8,1:0:0:0:
437,66,29774,1,2,1:2:0:0:
332,32,30121,2,0,B|164:63,1,165,8|0,1:0|1:0,0:0:0:0:
116,76,30815,1,8,1:0:0:0:
47,162,31162,6,0,P|100:192|163:181,1,110,2|8,1:2|1:0,0:0:0:0:
197,165,31682,2,0,P|256:167|298:203,1,110,2|0,2:0|1:0,0:0:0:0:
313,249,32202,1,8,1:0:0:0:
421,232,32549,2,0,L|488:222,2,55,8|0|0,1:0|1:0|1:0,0:0:0:0:
428,286,33069,2,0,L|495:276,2,55,8|0|0,1:0|1:0|1:0,0:0:0:0:
435,340,33589,1,8,1:0:0:0:
331,376,33936,6,0,P|279:373|225:325,1,110,6|8,1:2|1:0,0:0:0:0:
179,354,34457,2,0,P|155:305|162:251,1,110,2|0,0:0|1:0,0:0:0:0:
144,199,34977,2,0,P|174:153|224:133,2,110,8|2|8,1:0|1:2|1:0,0:0:0:0:
165,255,35844,1,2,0:0:0:0:
270,294,36191,1,0,1:0:0:0:
270,294,36364,1,8,1:0:0:0:
348,221,36711,6,0,L|463:197,1,110,2|8,1:2|1:0,0:0:0:0:
481,149,37231,2,0,L|366:125,1,110,2|0,0:0|1:0,0:0:0:0:
338,83,37751,2,0,L|453:59,2,110,8|2|8,1:0|1:2|1:0,0:0:0:0:
304,39,38618,1,2,0:0:0:0:
210,96,38965,2,0,P|184:91|142:63,1,55,0|8,1:0|1:0,0:0:0:0:
49,91,39485,6,0,P|23:139|29:192,1,110,2|8,1:2|1:0,0:0:0:0:
85,197,40006,2,0,P|114:242|163:264,1,110,2|0,0:0|1:0,0:0:0:0:
207,231,40526,2,0,P|261:228|304:196,2,110,8|2|8,1:0|1:2|1:0,0:0:0:0:
167,268,41393,1,2,0:0:0:0:
120,365,41740,1,0,1:0:0:0:
120,365,41913,1,8,1:0:0:0:
15,331,42260,6,0,L|-8:202,1,110,2|8,1:2|1:0,0:0:0:0:
42,194,42780,2,0,L|65:65,1,110,0|2,0:0|1:2,0:0:0:0:
109,58,43300,1,8,1:0:0:0:
208,105,43647,2,0,L|220:163,2,55,8|0|2,1:0|1:0|1:2,0:0:0:0:
262,93,44168,2,0,L|274:151,2,55,8|0|2,1:0|1:0|1:2,0:0:0:0:
316,83,44688,1,8,1:0:0:0:
422,112,45035,5,4,1:2:0:0:
497,189,45381,2,0,P|451:216|396:216,1,110,8|0,1:0|0:0,0:0:0:0:
348,189,45902,1,0,1:0:0:0:
348,189,46075,1,8,1:0:0:0:
244,225,46422,2,0,P|216:271|216:326,1,110,0|8,1:0|1:0,0:0:0:0:
239,376,46942,2,0,P|192:348|137:348,1,110,0|0,0:0|1:0,0:0:0:0:
88,374,47462,1,8,1:0:0:0:
9,297,47809,5,0,1:0:0:0:
114,266,48156,2,0,P|117:161|73:121,1,165,8|0,1:0|1:0,0:0:0:0:
34,90,48850,2,0,P|88:90|135:62,1,110,8|0,1:0|1:0,0:0:0:0:
233,12,49543,2,0,P|287:11|334:39,1,110,8|0,1:0|0:0,0:0:0:0:
362,87,50063,1,0,1:0:0:0:
362,87,50237,1,8,1:0:0:0:
256,118,50584,6,0,P|228:164|228:219,1,110,0|8,1:0|1:0,0:0:0:0:
335,191,51277,2,0,L|404:176,1,55,0|0,2:0|1:0,0:0:0:0:
442,168,51624,2,0,P|469:214|469:269,1,110,8|0,1:0|1:0,0:0:0:0:
420,368,52318,1,8,1:0:0:0:
322,316,52665,2,0,L|308:246,2,55,0|0|8,0:0|1:0|1:0,0:0:0:0:
237,382,53358,5,0,1:0:0:0:
135,339,53705,2,0,P|55:349|0:269,1,165,8|0,1:0|1:0,0:0:0:0:
9,236,54399,1,8,1:0:0:0:
72,145,54746,2,0,L|59:77,2,55,8|0|0,1:0|1:0|1:0,0:0:0:0:
126,134,55266,2,0,L|113:66,2,55,8|0|0,1:0|1:0|1:0,0:0:0:0:
180,123,55786,1,8,1:0:0:0:
142,226,56133,5,4,1:2:0:0:
238,279,56480,2,0,P|286:274|337:234,1,110,8|0,1:0|0:0,0:0:0:0:
355,186,57000,1,0,1:0:0:0:
355,186,57173,1,8,1:0:0:0:
452,134,57520,1,2,1:2:0:0:
358,75,57867,2,0,L|170:102,1,165,8|0,1:0|1:0,0:0:0:0:
140,108,58561,1,8,1:0:0:0:
40,153,58907,6,0,P|11:211|21:265,1,110,2|8,1:2|1:0,0:0:0:0:
117,297,59601,2,0,L|185:286,1,55,0|0,0:0|1:0,0:0:0:0:
225,278,59948,1,8,1:0:0:0:
303,355,60295,2,0,P|361:384|415:374,1,110,2|8,1:2|1:0,0:0:0:0:
450,349,60815,2,0,P|479:291|469:237,1,110,2|0,0:0|1:0,0:0:0:0:
446,199,61335,1,8,1:0:0:0:
358,132,61682,5,2,1:2:0:0:
460,92,62029,1,8,1:0:0:0:
375,21,62376,2,0,L|312:34,1,55,0|0,0:0|1:0,0:0:0:0:
271,53,62722,2,0,P|216:50|174:17,1,110,8|2,1:0|1:2,0:0:0:0:
64,6,63416,2,0,P|30:48|27:102,1,110,8|0,1:0|0:0,0:0:0:0:
56,149,63936,1,0,1:0:0:0:
56,149,64110,1,8,1:0:0:0:
11,249,64457,5,2,1:2:0:0:
119,232,64803,1,8,1:0:0:0:
227,210,65150,2,0,L|233:151,2,55,8|0|8,1:0|1:0|1:0,0:0:0:0:
289,301,65844,2,0,L|294:355,2,55,8|0|8,1:0|1:0|1:0,0:0:0:0:
389,258,66537,1,8,1:0:0:0:
408,366,66884,2,0,L|464:353,1,55,8|8,1:0|1:0,0:0:0:0:
500,314,67231,6,0,P|521:268|528:188,1,110,4|8,1:2|1:0,0:0:0:0:
458,125,67925,2,0,P|403:132|353:154,1,110,0|8,0:0|1:0,0:0:0:0:
314,193,68445,1,2,0:0:0:0:
314,193,68618,2,0,P|259:185|209:163,1,110,0|8,1:0|1:0,0:0:0:0:
160,137,69139,2,0,P|181:187|189:241,1,110,2|0,0:0|1:0,0:0:0:0:
177,295,69659,1,8,1:0:0:0:
80,348,70006,6,0,P|30:335|-27:289,1,110,2|8,1:2|1:0,0:0:0:0:
52,215,70699,2,0,P|73:164|81:110,1,110,0|8,0:0|1:0,0:0:0:0:
65,57,71220,1,2,0:0:0:0:
65,57,71393,2,0,P|109:24|161:10,1,110,0|8,1:0|1:0,0:0:0:0:
245,81,72087,2,0,L|236:147,2,55,0|0|8,0:0|1:0|1:0,0:0:0:0:
343,30,72780,6,0,P|395:44|439:76,1,110,0|8,1:0|1:0,0:0:0:0:
464,126,73300,2,0,P|449:178|417:222,1,110,0|0,0:0|1:0,0:0:0:0:
371,254,73821,1,8,1:0:0:0:
276,197,74168,2,0,P|223:211|179:243,1,110,2|8,1:2|1:0,0:0:0:0:
92,311,74861,2,0,P|144:325|188:357,1,110,0|8,0:0|1:0,0:0:0:0:
291,316,75555,5,2,1:2:0:0:
381,377,75902,1,8,1:0:0:0:
480,331,76248,2,0,P|478:275|449:217,1,110,0|8,0:0|1:0,0:0:0:0:
362,175,76942,2,0,L|349:109,2,55,8|0|0,1:0|1:0|1:0,0:0:0:0:
307,186,77462,2,0,L|294:120,2,55,8|0|0,1:0|1:0|1:0,0:0:0:0:
252,197,77983,1,8,1:0:0:0:
195,115,78329,6,0,P|139:101|162:201,1,197.99999395752,2|10,1:2|1:0,0:0:0:0:
178,240,79196,2,0,L|74:253,2,98.9999969787599,2|2|2,1:0|1:0|1:0,0:0:0:0:
214,274,80063,1,0,1:0:0:0:
285,342,80410,2,0,L|397:356,1,98.9999969787599,8|2,1:0|0:0,0:0:0:0:
465,298,81104,6,0,P|479:242|379:265,1,197.99999395752,2|10,1:2|1:0,0:0:0:0:
344,287,81971,1,2,1:0:0:0:
264,227,82318,2,0,L|251:109,1,98.9999969787599,2|2,1:0|1:0,0:0:0:0:
247,79,82838,1,0,1:0:0:0:
148,89,83185,2,0,L|142:29,2,49.4999984893799,8|8|8,1:0|1:0|1:0,0:0:0:0:
49,100,83878,5,4,1:2:0:0:
64,297,84572,1,8,1:0:0:0:
64,297,84746,2,0,L|170:282,1,98.9999969787599,0|0,1:0|1:0,0:0:0:0:
242,225,85439,1,0,1:0:0:0:
242,225,85613,2,0,L|349:243,1,98.9999969787599,0|0,1:0|1:0,0:0:0:0:
439,247,86306,2,0,L|448:177,1,49.4999984893799,8|4,1:0|1:2,0:0:0:0:
451,148,86653,5,0,1:0:0:0:
376,82,87000,1,0,1:0:0:0:
282,48,87347,1,8,1:0:0:0:
183,62,87694,2,0,L|117:51,1,49.4999984893799,8|8,1:0|1:0,0:0:0:0:
85,45,88040,2,0,L|22:35,2,49.4999984893799,0|0|0,1:0|1:0|1:0,0:0:0:0:
90,144,88734,2,0,L|27:134,1,49.4999984893799,0|0,1:0|1:0,0:0:0:0:
1,165,89081,1,8,1:0:0:0:
65,267,89428,6,0,B|119:240|119:240|199:253,1,121.000003692627,4|8,1:2|1:0,0:0:0:0:
273,325,90121,2,0,B|332:334|332:334|386:307,1,121.000003692627,0|8,0:0|1:0,0:0:0:0:
439,276,90642,1,2,0:0:0:0:
439,276,90815,1,0,1:0:0:0:
357,186,91162,2,0,B|347:126|347:126|374:72,1,121.000003692627,8|0,1:0|0:0,0:0:0:0:
402,18,91682,2,0,L|469:24,1,60.5000018463135,0|8,1:0|1:0,0:0:0:0:
472,144,92202,5,2,1:2:0:0:
357,186,92549,2,0,B|303:159|303:159|243:168,1,121.000003692627,8|0,1:0|0:0,0:0:0:0:
184,183,93069,1,0,1:0:0:0:
184,183,93243,1,8,1:0:0:0:
88,257,93589,2,0,B|61:203|61:203|70:143,2,121.000003692627,2|8|0,1:2|1:0|0:0,0:0:0:0:
153,359,94630,2,0,L|218:366,1,60.5000018463135,8|2,1:0|0:0,0:0:0:0:
248,316,94977,6,0,B|302:289|302:289|362:298,1,121.000003692627,2|8,1:2|1:0,0:0:0:0:
421,310,95497,1,2,0:0:0:0:
421,310,95670,2,0,B|412:250|412:250|439:196,1,121.000003692627,2|8,0:0|1:0,0:0:0:0:
473,145,96191,1,2,0:0:0:0:
473,145,96364,1,0,1:0:0:0:
407,43,96711,2,0,L|272:29,1,121.000003692627,8|0,1:0|0:0,0:0:0:0:
183,93,97405,1,8,1:0:0:0:
95,9,97751,5,2,1:2:0:0:
12,97,98098,2,0,L|45:290,1,181.500005538941,8|0,1:0|1:0,0:0:0:0:
54,335,98792,1,8,1:0:0:0:
150,262,99139,2,0,P|179:245|213:242,2,60.5000018463135,8|0|0,1:0|1:0|1:0,0:0:0:0:
172,318,99659,2,0,P|205:318|236:332,2,60.5000018463135,8|0|0,1:0|1:0|1:0,0:0:0:0:
164,378,100179,1,8,1:0:0:0:
54,335,100526,5,4,1:2:0:0:
129,151,101220,1,8,1:0:0:0:
129,151,101393,2,0,L|231:161,1,98.9999969787599,0|0,1:0|1:0,0:0:0:0:
319,136,102087,1,0,1:0:0:0:
319,136,102260,2,0,L|421:146,1,98.9999969787599,0|0,1:0|1:0,0:0:0:0:
457,362,103300,5,0,1:0:0:0:
260,339,103994,1,8,1:0:0:0:
260,339,104168,2,0,L|158:349,1,98.9999969787599,0|2,1:0|1:2,0:0:0:0:
100,275,104861,1,0,1:0:0:0:
100,275,105035,2,0,L|-2:285,1,98.9999969787599,0|2,1:0|1:2,0:0:0:0:
90,130,106075,6,0,B|201:106|161:207|288:169,1,197.99999395752,0|8,1:0|1:0,0:0:0:0:
318,152,106942,1,0,1:0:0:0:
394,88,107289,1,0,1:0:0:0:
480,136,107636,1,0,1:0:0:0:
480,136,107809,1,0,1:0:0:0:
459,232,108156,2,0,L|349:245,1,98.9999969787599,8|8,1:0|1:0,0:0:0:0:
290,314,108850,5,4,1:2:0:0:
205,263,109196,1,0,1:0:0:0:
107,277,109543,1,8,1:0:0:0:
24,222,109890,2,0,L|16:151,1,49.4999984893799,8|12,1:0|1:0,0:0:0:0:
14,123,110237,2,0,L|26:64,2,49.4999984893799,0|0|0,1:0|1:0|1:0,0:0:0:0:
110,145,110931,2,0,L|122:86,1,49.4999984893799,0|0,1:0|1:0,0:0:0:0:
132,43,111277,1,8,1:0:0:0:
213,113,111624,5,6,1:2:0:0:
441,85,122376,5,8,1:0:0:0:
481,175,122722,6,0,B|428:198|379:175|395:158|346:145|291:167,1,197.99999395752,4|8,1:2|1:0,0:0:0:0:
245,199,123589,2,0,L|232:308,1,98.9999969787599,0|0,1:0|1:0,0:0:0:0:
154,358,124283,1,0,1:0:0:0:
154,358,124457,1,0,1:0:0:0:
59,328,124803,2,0,L|45:220,1,98.9999969787599,8|8,1:0|1:0,0:0:0:0:
38,180,125324,1,0,1:0:0:0:
38,180,125497,5,0,1:0:0:0:
190,53,126191,2,0,L|256:64,1,49.4999984893799,8|0,1:0|1:0,0:0:0:0:
302,136,126711,2,0,L|415:115,1,98.9999969787599,0|0,1:0|1:0,0:0:0:0:
448,111,127231,1,0,1:0:0:0:
491,200,127578,2,0,L|479:306,1,98.9999969787599,8|8,1:0|1:0,0:0:0:0:
473,347,128098,1,0,1:0:0:0:
473,347,128272,6,0,P|423:273|315:283,1,197.99999395752,4|8,1:2|1:0,0:0:0:0:
283,307,129139,1,0,1:0:0:0:
209,240,129485,2,0,P|139:253|103:282,1,98.9999969787599,0|0,1:0|1:0,0:0:0:0:
83,305,130006,1,0,1:0:0:0:
17,201,130352,2,0,L|3:90,1,98.9999969787599,8|8,1:0|1:0,0:0:0:0:
14,53,130873,1,0,1:0:0:0:
14,53,131046,5,0,1:0:0:0:
200,119,131740,1,8,1:0:0:0:
200,119,131913,1,0,1:0:0:0:
137,196,132260,2,0,L|245:212,1,98.9999969787599,0|0,1:0|1:0,0:0:0:0:
284,217,132780,1,0,1:0:0:0:
251,310,133127,2,0,L|366:290,1,98.9999969787599,8|8,1:0|1:0,0:0:0:0:
398,291,133647,1,0,1:0:0:0:
398,291,133821,6,0,B|376:236|389:187|406:203|429:154|406:101,1,197.99999395752,4|8,1:0|1:0,0:0:0:0:
373,62,134688,1,0,1:0:0:0:
315,143,135035,1,0,1:0:0:0:
225,101,135381,1,0,1:0:0:0:
225,101,135555,2,0,L|111:86,1,98.9999969787599,0|8,1:0|1:0,0:0:0:0:
44,33,136248,1,0,0:0:0:0:
6,124,136595,6,0,L|-4:228,1,98.9999969787599,0|0,1:0|0:0,0:0:0:0:
49,312,137289,1,8,1:0:0:0:
49,312,137462,2,0,P|118:320|152:354,1,98.9999969787599,0|0,1:0|1:0,0:0:0:0:
241,319,138156,1,0,1:0:0:0:
241,319,138329,1,0,1:0:0:0:
338,334,138676,2,0,L|448:317,1,98.9999969787599,8|0,1:0|0:0,0:0:0:0:
512,261,139370,6,0,P|512:164|419:115,1,197.99999395752,0|8,1:0|1:0,0:0:0:0:
388,92,140237,2,0,L|371:-7,2,98.9999969787599,0|0|0,1:0|1:0|1:0,0:0:0:0:
354,128,141104,1,0,1:0:0:0:
264,85,141451,2,0,L|150:67,1,98.9999969787599,8|8,1:0|1:0,0:0:0:0:
69,89,142144,5,4,1:2:0:0:
129,167,142491,1,0,1:0:0:0:
63,241,142838,1,0,1:0:0:0:
123,319,143185,2,0,L|189:329,1,49.4999984893799,0|0,1:0|1:0,0:0:0:0:
221,333,143532,2,0,L|292:321,2,49.4999984893799,0|0|0,1:0|1:0|1:0,0:0:0:0:
219,233,144225,2,0,L|290:221,1,49.4999984893799,0|0,1:0|1:0,0:0:0:0:
317,219,144572,1,8,1:0:0:0:
395,126,144919,6,0,B|344:92|344:92|263:106,1,121.000003692627,4|8,1:2|1:0,0:0:0:0:
165,125,145613,2,0,B|106:135|106:135|55:101,1,121.000003692627,0|8,0:0|1:0,0:0:0:0:
20,51,146133,1,2,0:0:0:0:
20,51,146306,1,0,1:0:0:0:
133,7,146653,1,8,1:0:0:0:
165,125,147000,2,0,L|174:195,1,60.5000018463135,0|0,0:0|1:0,0:0:0:0:
184,244,147347,6,0,B|174:303|174:303|208:354,1,121.000003692627,8|2,1:0|1:2,0:0:0:0:
301,277,148040,2,0,B|360:267|360:267|411:301,1,121.000003692627,8|0,1:0|0:0,0:0:0:0:
458,339,148561,2,0,L|529:325,1,60.5000018463135,0|8,1:0|1:0,0:0:0:0:
459,220,149081,1,2,1:2:0:0:
510,111,149428,2,0,P|452:105|394:64,1,121.000003692627,8|0,1:0|0:0,0:0:0:0:
283,117,150121,2,0,L|273:187,1,60.5000018463135,8|2,1:0|0:0,0:0:0:0:
237,224,150468,6,0,B|177:236|177:236|122:211,1,121.000003692627,2|8,1:2|1:0,0:0:0:0:
68,185,150988,1,2,0:0:0:0:
68,185,151162,2,0,B|71:245|71:245|39:296,1,121.000003692627,2|8,0:0|1:0,0:0:0:0:
10,350,151682,1,2,0:0:0:0:
10,350,151855,1,0,1:0:0:0:
126,382,152202,2,0,L|247:370,1,121.000003692627,8|0,1:0|0:0,0:0:0:0:
367,358,152896,1,8,1:0:0:0:
404,242,153243,5,2,1:2:0:0:
510,297,153589,2,0,L|485:97,1,181.500005538941,8|0,1:0|1:0,0:0:0:0:
476,57,154283,1,8,1:0:0:0:
359,90,154630,2,0,P|330:82|302:61,2,60.5000018463135,8|0|0,1:0|1:0|1:0,0:0:0:0:
351,150,155150,2,0,P|316:155|291:148,2,60.5000018463135,8|0|0,1:0|1:0|1:0,0:0:0:0:
385,199,155670,1,8,1:0:0:0:
453,127,156017,5,4,1:2:0:0:
344,292,156711,1,8,1:0:0:0:
344,292,156884,2,0,L|238:278,1,98.9999969787599,0|0,1:0|1:0,0:0:0:0:
277,184,157578,1,0,1:0:0:0:
277,184,157751,2,0,L|178:196,1,98.9999969787599,0|0,1:0|1:0,0:0:0:0:
62,357,158791,5,0,1:0:0:0:
245,279,159485,1,8,1:0:0:0:
245,279,159659,2,0,L|344:292,1,98.9999969787599,0|0,1:0|1:0,0:0:0:0:
443,302,160352,1,0,1:0:0:0:
443,302,160526,2,0,L|431:196,1,98.9999969787599,0|8,1:0|1:0,0:0:0:0:
323,26,161566,6,0,B|212:2|252:103|125:65,1,197.99999395752,0|8,1:0|1:0,0:0:0:0:
96,46,162433,1,0,1:0:0:0:
32,122,162780,1,0,1:0:0:0:
100,193,163127,1,0,1:0:0:0:
100,193,163300,1,0,1:0:0:0:
35,268,163647,2,0,L|46:366,1,98.9999969787599,8|8,1:0|1:0,0:0:0:0:
126,307,164341,5,4,1:2:0:0:
213,352,164687,1,0,1:0:0:0:
293,293,165034,1,8,1:0:0:0:
385,328,165381,2,0,L|393:257,1,49.4999984893799,8|12,1:0|1:0,0:0:0:0:
371,232,165728,2,0,L|359:173,2,49.4999984893799,0|0|0,1:0|1:0|1:0,0:0:0:0:
468,212,166422,2,0,L|456:153,1,49.4999984893799,0|0,1:0|1:0,0:0:0:0:
453,114,166768,1,8,1:0:0:0:
353,67,167115,6,0,P|279:66|239:101,1,110,6|8,1:2|1:0,0:0:0:0:
212,125,167636,2,0,P|138:126|98:91,1,110,2|0,0:0|1:0,0:0:0:0:
74,65,168156,1,8,1:0:0:0:
0,147,168503,1,2,1:2:0:0:
84,217,168850,2,0,P|109:264|102:318,1,110,8|0,1:0|0:0,0:0:0:0:
80,369,169370,1,0,1:0:0:0:
80,369,169543,1,8,1:0:0:0:
189,362,169890,6,0,L|309:351,1,110,2|8,1:2|1:0,0:0:0:0:
336,312,170410,2,0,L|445:322,1,110,2|0,0:0|1:0,0:0:0:0:
500,328,170931,1,8,1:0:0:0:
454,227,171277,2,0,P|446:173|472:125,1,110,2|8,1:2|1:0,0:0:0:0:
490,73,171798,2,0,P|442:98|388:91,1,110,2|0,0:0|1:0,0:0:0:0:
339,65,172318,1,8,1:0:0:0:
242,12,172665,6,0,P|188:4|140:30,1,110,2|8,1:2|1:0,0:0:0:0:
110,76,173185,1,2,0:0:0:0:
177,162,173532,1,0,1:0:0:0:
177,162,173705,2,0,L|168:236,1,55,8|2,1:0|0:0,0:0:0:0:
211,253,174052,2,0,P|218:306|192:354,1,110,2|8,1:2|1:0,0:0:0:0:
83,369,174746,2,0,P|47:328|42:274,1,110,0|8,0:0|1:0,0:0:0:0:
63,166,175439,6,0,L|195:151,1,110,2|8,1:2|1:0,0:0:0:0:
216,120,175959,2,0,L|325:132,1,110,2|0,0:0|1:0,0:0:0:0:
375,109,176480,1,8,1:0:0:0:
441,196,176826,2,0,L|501:186,2,55,8|0|0,1:0|1:0|0:0,0:0:0:0:
450,250,177347,2,0,L|510:240,2,55,8|0|0,1:0|1:0|1:0,0:0:0:0:
460,304,177867,1,8,1:0:0:0:
358,262,178214,6,0,P|304:254|256:280,1,110,6|8,1:2|1:0,0:0:0:0:
218,319,178734,2,0,P|164:326|116:300,1,110,2|2,0:0|1:2,0:0:0:0:
84,256,179254,2,0,L|79:188,1,55,8|2,1:0|0:0,0:0:0:0:
74,146,179601,1,0,1:0:0:0:
32,43,179948,2,0,L|148:59,1,110,8|0,1:0|0:0,0:0:0:0:
194,70,180468,1,0,1:0:0:0:
194,70,180642,1,8,1:0:0:0:
291,19,180988,6,0,L|399:3,1,110,2|8,1:2|1:0,0:0:0:0:
453,19,181509,2,0,P|475:66|461:134,1,110,2|2,0:0|1:2,0:0:0:0:
443,171,182029,2,0,L|456:241,1,55,8|2,1:0|0:0,0:0:0:0:
464,277,182376,2,0,L|344:264,1,110,0|8,1:0|1:0,0:0:0:0:
301,250,182896,2,0,P|234:259|192:298,1,110,2|0,0:0|1:0,0:0:0:0:
177,333,183416,1,8,1:0:0:0:
75,368,183763,6,0,P|67:314|89:264,1,110,2|8,1:2|1:0,0:0:0:0:
134,232,184283,1,2,0:0:0:0:
86,132,184630,2,0,L|22:125,2,55,2|8|2,1:2|1:0|0:0,0:0:0:0:
131,100,185150,2,0,P|190:70|247:88,1,110,0|8,1:0|1:0,0:0:0:0:
277,106,185670,1,2,0:0:0:0:
309,211,186017,2,0,L|301:279,1,55,2|8,1:2|1:0,0:0:0:0:
300,320,186364,1,2,0:0:0:0:
300,320,186537,6,0,P|353:326|399:297,1,110,2|8,1:2|1:0,0:0:0:0:
421,246,187058,1,2,0:0:0:0:
507,178,187405,1,2,1:2:0:0:
507,178,187578,1,8,1:0:0:0:
402,142,187925,2,0,L|395:79,2,55,8|0|0,1:0|1:0|1:0,0:0:0:0:
347,150,188445,2,0,L|340:87,2,55,8|0|0,1:0|1:0|1:0,0:0:0:0:
292,155,188965,1,8,1:0:0:0:
256,260,189312,5,4,1:2:0:0:
