osu file format v14

[General]
AudioFilename: audio.mp3
AudioLeadIn: 0
PreviewTime: 88195
Countdown: 0
SampleSet: Soft
StackLeniency: 0.4
Mode: 0
LetterboxInBreaks: 0
WidescreenStoryboard: 1

[Editor]
Bookmarks: 11721,111605,117154,211143
DistanceSpacing: 1.2
BeatDivisor: 4
GridSize: 4
TimelineZoom: 1

[Metadata]
Title:Kimi ga Kimi ga -vocanico remix-
TitleUnicode:君が君が -vocanico remix-
Artist:baker
ArtistUnicode:baker
Creator:jonathanlfj
Version:Hard
Source:
Tags:Nyquill pishifat 初音ミク Append Hatsune Miku Vocaloid 很高興認識你。我們 -MOtOLOiD- osu osu! featured artist
BeatmapID:1443511
BeatmapSetID:682595

[Difficulty]
HPDrainRate:5
CircleSize:4
OverallDifficulty:6
ApproachRate:7
SliderMultiplier:1.4
SliderTickRate:1

[Events]
//Background and Video events
0,0,"Kimiga_Kimiga.jpg",0,0
//Break Periods
2,111823,116273
//Storyboard Layer 0 (Background)
//Storyboard Layer 1 (Fail)
//Storyboard Layer 2 (Pass)
//Storyboard Layer 3 (Foreground)
//Storyboard Sound Samples

[TimingPoints]
642,346.820809248555,4,2,1,70,1,0
11740,-100,4,2,1,70,0,0
11826,-100,4,2,1,30,0,0
12087,-100,4,2,1,32,0,0
12433,-100,4,2,1,34,0,0
12780,-100,4,2,1,36,0,0
13127,-100,4,2,1,38,0,0
13474,-100,4,2,1,40,0,0
13821,-100,4,2,1,42,0,0
14168,-100,4,2,1,44,0,0
14514,-100,4,2,1,46,0,0
14861,-100,4,2,1,48,0,0
15208,-100,4,2,1,50,0,0
15555,-100,4,2,1,52,0,0
15902,-100,4,2,1,54,0,0
16248,-100,4,2,1,56,0,0
16595,-100,4,2,1,58,0,0
16942,-100,4,2,1,60,0,0
17289,-125,4,2,1,60,0,0
20410,-111.111111111111,4,2,1,60,0,0
20757,-100,4,2,1,65,0,0
21104,-90.9090909090909,4,2,1,65,0,0
21451,-83.3333333333333,4,2,1,70,0,0
22491,-125,4,2,1,70,0,0
22751,-125,4,2,1,5,0,0
22838,-100,4,2,1,65,0,0
33936,-100,4,2,1,70,0,0
45035,-111.111111111111,4,2,1,60,0,0
56133,-100,4,2,1,70,0,0
67231,-100,4,2,1,70,0,0
78329,-83.3333333333333,4,2,1,75,0,0
78503,-100,4,2,1,75,0,0
79023,-83.3333333333333,4,2,1,75,0,0
79543,-133.333333333333,4,2,1,75,0,0
80237,-90.9090909090909,4,2,1,75,0,0
81104,-100,4,2,1,75,0,0
81798,-83.3333333333333,4,2,1,75,0,0
82318,-133.333333333333,4,2,1,75,0,0
83185,-83.3333333333333,4,2,1,75,0,0
83878,-111.111111111111,4,2,1,65,0,0
86653,-111.111111111111,4,2,1,70,0,0
87000,-100,4,2,1,70,0,0
87347,-90.9090909090909,4,2,1,75,0,0
88040,-100,4,2,1,80,0,0
88387,-90.9090909090909,4,2,1,80,0,0
88734,-83.3333333333333,4,2,1,80,0,0
89081,-133.333333333333,4,2,1,80,0,0
89341,-133.333333333333,4,2,1,10,0,0
89428,-83.3333333333333,4,2,1,80,0,1
100526,-90.9090909090909,4,2,1,80,0,1
111277,-133.333333333333,4,2,1,80,0,1
111624,-100,4,2,1,70,0,0
117173,-125,4,2,1,60,0,0
120295,-111.111111111111,4,2,1,60,0,0
120642,-100,4,2,1,65,0,0
121682,-90.9090909090909,4,2,1,65,0,0
122376,-133.333333333333,4,2,1,65,0,0
122722,-111.111111111111,4,2,1,70,0,1
122809,-111.111111111111,4,2,1,70,0,0
133821,-100,4,2,1,70,0,0
142838,-100,4,2,1,75,0,0
143532,-100,4,2,1,80,0,0
143878,-90.9090909090909,4,2,1,80,0,0
144225,-83.3333333333333,4,2,1,80,0,0
144572,-133.333333333333,4,2,1,80,0,0
144832,-133.333333333333,4,2,1,10,0,0
144919,-83.3333333333333,4,2,1,80,0,1
156017,-90.9090909090909,4,2,1,80,0,1
166769,-133.333333333333,4,2,1,80,0,1
167029,-133.333333333333,4,2,1,10,0,1
167115,-90.9090909090909,4,2,1,80,0,0
178214,-100,4,2,1,80,0,0
186537,-105.263157894737,4,2,1,70,0,0
189312,-111.111111111111,4,2,1,60,0,0
200410,-125,4,2,1,50,0,0

[Colours]
Combo1 : 224,86,254
Combo2 : 1,142,248
Combo3 : 56,254,234
Combo4 : 255,51,107

[HitObjects]
256,192,11740,5,4,1:0:0:0:
256,192,11826,12,8,16942,1:0:0:0:
300,152,17289,6,0,P|356:144|428:152,2,112,4|0|8,1:2|0:0|1:0,0:0:0:0:
236,188,18156,1,0,1:0:0:0:
360,263,18503,1,0,1:0:0:0:
231,331,18850,1,0,1:0:0:0:
231,331,19023,1,0,1:0:0:0:
389,258,19370,1,8,1:0:0:0:
203,180,19717,1,8,1:0:0:0:
388,93,20063,6,0,L|467:80,1,56,4|0,1:2|1:0,0:0:0:0:
414,175,20410,2,0,L|492:180,1,62.9999980773926,0|0,1:0|1:0,0:0:0:0:
389,258,20757,2,0,L|470:274,1,70,8|0,1:0|1:0,0:0:0:0:
322,309,21104,1,8,1:0:0:0:
265,247,21277,2,0,P|264:208|272:163,1,77.0000023498536,12|0,1:0|1:0,0:0:0:0:
356,97,21624,2,0,B|339:124|339:124|267:144|211:91,1,167.999994873047,4|0,1:2|1:0,0:0:0:0:
191,11,22144,2,0,P|216:9|240:13,4,41.9999987182618,0|0|0|0|8,1:0|1:0|1:0|1:0|1:0,0:0:0:0:
94,212,22838,6,0,P|162:215|242:180,1,140,6|8,1:2|1:0,0:0:0:0:
294,230,23358,2,0,P|352:210|439:233,1,140,2|0,2:0|1:0,0:0:0:0:
328,303,23878,2,0,P|291:309|252:301,1,70,8|2,1:0|2:0,0:0:0:0:
193,263,24225,1,2,1:2:0:0:
286,140,24572,2,0,P|335:128|363:128,2,70,8|2|0,1:0|2:0|2:0,0:0:0:0:
228,191,25092,1,0,1:0:0:0:
161,151,25266,2,0,P|142:83|154:5,1,140,8|2,1:0|1:2,0:0:0:0:
21,98,25959,6,0,P|7:131|7:174,2,70,8|2|0,1:0|2:0|2:0,0:0:0:0:
80,148,26480,1,0,1:0:0:0:
105,220,26653,2,0,P|96:291|60:357,1,140,8|2,1:0|1:2,0:0:0:0:
212,306,27347,2,0,L|289:300,1,70,8|2,1:0|2:0,0:0:0:0:
355,322,27694,1,0,2:0:0:0:
242,227,27867,2,0,L|319:221,1,70,2|8,1:2|1:0,0:0:0:0:
455,367,28387,6,0,P|480:302|448:232,1,140,2|8,1:2|1:0,0:0:0:0:
388,200,28907,2,0,P|470:178|484:127,1,140,2|0,2:0|1:0,0:0:0:0:
323,153,29428,2,0,P|311:185|310:220,1,70,8|2,1:0|2:0,0:0:0:0:
366,273,29774,1,2,1:2:0:0:
232,349,30121,2,0,L|158:356,2,70,8|2|0,1:0|2:0|2:0,0:0:0:0:
291,298,30642,1,0,1:0:0:0:
231,249,30815,2,0,L|90:262,1,140,8|2,1:0|1:2,0:0:0:0:
282,190,31509,6,0,B|317:188|317:188|351:197,2,70,8|2|0,1:0|2:0|2:0,0:0:0:0:
265,114,32029,2,0,B|295:95|295:95|344:92,1,70,0|8,1:0|1:0,0:0:0:0:
231,249,32549,1,8,1:0:0:0:
163,212,32722,2,0,P|129:210|86:217,1,70,0|0,1:0|1:0,0:0:0:0:
162,290,33069,1,8,1:0:0:0:
230,327,33242,2,0,P|264:329|307:322,1,70,0|0,1:0|1:0,0:0:0:0:
360,276,33589,2,0,L|389:242,3,35,8|0|8|0,1:0|1:0|1:0|1:0,0:0:0:0:
403,223,33936,6,0,L|360:90,1,140,6|8,1:2|1:0,0:0:0:0:
420,40,34457,2,0,P|354:68|274:48,1,140,2|0,0:0|1:0,0:0:0:0:
226,10,34977,1,8,1:0:0:0:
151,27,35150,1,2,0:0:0:0:
121,98,35324,6,0,L|116:167,2,70,2|2|8,1:2|0:0|1:0,0:0:0:0:
210,143,35844,2,0,L|226:286,1,140,2|0,0:0|1:0,0:0:0:0:
171,337,36364,2,0,P|127:348|94:347,1,70,8|2,1:0|0:0,0:0:0:0:
225,282,36711,5,2,1:2:0:0:
296,309,36884,2,0,P|305:355|305:377,1,70,2|8,0:0|1:0,0:0:0:0:
361,264,37231,2,0,P|351:209|374:119,1,140,2|0,0:0|1:0,0:0:0:0:
440,98,37751,1,8,1:0:0:0:
377,52,37925,1,2,0:0:0:0:
307,83,38098,6,0,P|252:89|222:85,2,70,2|2|8,1:2|0:0|1:0,0:0:0:0:
377,52,38618,2,0,P|436:21|507:61,1,140,2|0,0:0|1:0,0:0:0:0:
440,98,39139,2,0,P|432:164|436:182,1,70,8|2,1:0|0:0,0:0:0:0:
493,272,39485,6,0,P|501:206|497:188,2,70,2|2|8,1:2|0:0|1:0,0:0:0:0:
424,308,40006,2,0,B|390:294|390:294|287:303,1,140,2|0,0:0|1:0,0:0:0:0:
218,337,40526,1,8,1:0:0:0:
225,260,40699,1,2,0:0:0:0:
234,183,40873,6,0,B|268:179|268:179|303:188,1,70,2|2,1:2|0:0,0:0:0:0:
225,260,41220,1,8,1:0:0:0:
163,213,41393,2,0,L|153:70,1,140,2|0,0:0|1:0,0:0:0:0:
86,34,41913,2,0,B|51:41|51:41|22:65,1,70,8|2,1:0|0:0,0:0:0:0:
153,73,42260,5,2,1:2:0:0:
222,41,42433,1,2,0:0:0:0:
285,85,42607,2,0,P|319:92|361:90,2,70,8|0|2,1:0|0:0|0:0,0:0:0:0:
195,156,43127,2,0,P|161:163|119:161,2,70,2|8|2,1:2|1:0|0:0,0:0:0:0:
315,220,43647,6,0,P|349:227|391:225,1,70,8|0,1:0|1:0,0:0:0:0:
268,285,43994,1,2,1:2:0:0:
198,251,44168,2,0,P|154:246|116:252,1,70,8|0,1:0|1:0,0:0:0:0:
244,187,44514,1,2,1:2:0:0:
315,220,44688,1,8,1:0:0:0:
331,224,44774,1,0,1:0:0:0:
349,226,44861,1,8,1:0:0:0:
366,227,44948,1,8,1:0:0:0:
384,226,45035,6,0,P|389:150|366:100,1,125.999996154785,4|8,1:2|1:0,0:0:0:0:
308,64,45555,1,0,0:0:0:0:
244,104,45728,2,0,P|204:116|172:116,1,62.9999980773926,0|0,0:0|1:0,0:0:0:0:
308,64,46075,2,0,P|374:76|450:58,1,125.999996154785,8|0,1:0|1:0,0:0:0:0:
468,132,46595,6,0,P|460:179|460:202,1,62.9999980773926,0|8,0:0|1:0,0:0:0:0:
497,260,46942,2,0,L|351:282,1,125.999996154785,0|0,0:0|1:0,0:0:0:0:
297,290,47462,1,8,1:0:0:0:
297,290,47809,6,0,B|274:255|274:255|279:161,2,125.999996154785,0|8|0,1:0|1:0|0:0,0:0:0:0:
349,234,48676,2,0,L|353:158,1,62.9999980773926,0|8,1:0|1:0,0:0:0:0:
314,105,49023,6,0,P|247:137|193:124,1,125.999996154785,0|0,0:0|0:0,0:0:0:0:
148,70,49543,1,8,1:0:0:0:
79,240,49890,2,0,P|110:231|153:230,1,62.9999980773926,0|0,0:0|1:0,0:0:0:0:
208,264,50237,1,8,1:0:0:0:
27,299,50584,6,0,P|3:253|34:174,2,125.999996154785,0|8|0,1:0|1:0|2:0,0:0:0:0:
102,309,51451,1,0,1:0:0:0:
155,255,51624,2,0,L|144:124,1,125.999996154785,8|0,1:0|1:0,0:0:0:0:
144,129,52318,6,0,L|220:137,1,62.9999980773926,8|0,1:0|0:0,0:0:0:0:
135,53,52665,2,0,L|211:61,1,62.9999980773926,0|0,0:0|1:0,0:0:0:0:
266,90,53011,6,0,P|325:89|373:35,1,125.999996154785,8|0,1:0|1:0,0:0:0:0:
371,195,53705,2,0,P|342:246|365:315,1,125.999996154785,8|0,1:0|0:0,0:0:0:0:
428,338,54225,1,0,1:0:0:0:
488,292,54399,2,0,L|479:215,1,62.9999980773926,8|0,1:0|0:0,0:0:0:0:
427,145,54746,6,0,L|437:79,2,62.9999980773926,8|0|0,1:0|1:0|1:0,0:0:0:0:
352,213,55266,2,0,L|359:275,1,62.9999980773926,8|0,1:0|1:0,0:0:0:0:
369,350,55613,1,0,1:0:0:0:
299,319,55786,2,0,P|280:315|253:316,3,31.4999990386963,8|0|8|0,1:0|1:0|1:0|1:0,0:0:0:0:
236,322,56133,6,0,P|187:332|152:326,1,70,4|0,1:2|0:0,0:0:0:0:
126,264,56480,2,0,P|175:254|210:260,1,70,8|2,1:0|0:0,0:0:0:0:
262,291,56826,1,0,0:0:0:0:
338,282,57000,2,0,P|366:241|372:210,1,70,0|8,1:0|1:0,0:0:0:0:
340,150,57347,6,0,P|253:161|202:156,1,140,2|2,0:0|0:0,0:0:0:0:
143,104,57867,1,8,1:0:0:0:
195,47,58040,2,0,P|282:36|333:41,1,140,2|0,0:0|1:0,0:0:0:0:
391,92,58561,1,8,1:0:0:0:
391,92,58734,1,2,0:0:0:0:
340,150,58907,6,0,P|332:196|334:223,1,70,2|0,1:2|0:0,0:0:0:0:
452,197,59254,2,0,P|460:151|458:124,1,70,8|2,1:0|0:0,0:0:0:0:
340,150,59601,2,0,P|305:158|260:156,1,70,0|0,0:0|1:0,0:0:0:0:
200,126,59948,1,8,1:0:0:0:
228,54,60121,6,0,P|285:34|371:50,1,140,2|0,0:0|0:0,0:0:0:0:
407,108,60642,1,8,1:0:0:0:
407,108,60815,2,0,L|403:257,1,140,2|0,0:0|1:0,0:0:0:0:
353,306,61335,1,8,1:0:0:0:
282,274,61509,1,2,0:0:0:0:
215,312,61682,5,2,1:2:0:0:
403,247,62029,1,8,1:0:0:0:
203,197,62376,2,0,L|210:122,1,70,0|0,0:0|1:0,0:0:0:0:
271,81,62722,2,0,P|340:104|422:72,1,140,8|2,1:0|1:2,0:0:0:0:
202,52,63416,6,0,P|133:29|51:61,1,140,8|0,1:0|0:0,0:0:0:0:
24,108,63936,1,0,1:0:0:0:
62,174,64110,2,0,L|67:258,1,70,8|2,1:0|0:0,0:0:0:0:
73,320,64457,5,2,1:2:0:0:
153,197,64803,1,8,1:0:0:0:
271,352,65150,2,0,L|294:268,1,70,8|0,1:0|1:0,0:0:0:0:
322,176,65497,1,8,1:0:0:0:
433,361,65844,6,0,L|454:282,1,70,8|0,1:0|1:0,0:0:0:0:
489,167,66191,2,0,L|504:251,1,70,8|0,1:0|1:0,0:0:0:0:
422,128,66537,2,0,L|408:45,1,70,8|0,1:0|1:0,0:0:0:0:
344,19,66884,1,8,1:0:0:0:
327,24,66971,1,0,1:0:0:0:
310,30,67058,1,8,1:0:0:0:
293,35,67144,1,0,1:0:0:0:
276,41,67231,6,0,B|242:49|242:49|131:29,1,140,4|8,1:2|1:0,0:0:0:0:
66,166,67925,2,0,L|145:158,1,70,0|0,0:0|1:0,0:0:0:0:
200,201,68272,1,8,1:0:0:0:
146,256,68445,6,0,L|53:264,1,70,2|0,0:0|1:0,0:0:0:0:
200,201,68792,2,0,B|247:205|247:205|287:227|287:227|335:231,2,140,2|2|0,0:0|0:0|1:0,0:0:0:0:
146,256,69659,1,8,1:0:0:0:
184,322,69832,1,0,0:0:0:0:
130,377,70006,6,0,L|278:364,1,140,2|8,1:2|1:0,0:0:0:0:
323,310,70526,2,0,P|331:258|278:175,1,140,2|0,0:0|0:0,0:0:0:0:
213,175,71046,1,8,1:0:0:0:
153,125,71220,6,0,P|150:63|204:4,1,140,2|0,0:0|0:0,0:0:0:0:
275,8,71740,1,8,1:0:0:0:
275,8,72087,2,0,L|284:89,1,70,0|0,0:0|1:0,0:0:0:0:
355,17,72433,2,0,L|364:98,1,70,8|2,1:0|0:0,0:0:0:0:
317,149,72780,6,0,B|354:132|354:132|463:146,2,140,0|8|0,1:0|1:0|0:0,0:0:0:0:
252,192,73647,1,0,1:0:0:0:
186,150,73821,2,0,B|174:117|174:117|182:63,1,70,8|0,1:0|0:0,0:0:0:0:
252,192,74168,6,0,L|241:340,1,140,2|8,1:2|1:0,0:0:0:0:
44,252,74861,2,0,L|29:103,1,140,0|8,0:0|1:0,0:0:0:0:
252,192,75555,6,0,L|246:277,1,70,2|0,1:2|0:0,0:0:0:0:
309,306,75902,2,0,L|385:268,1,70,8|0,1:0|0:0,0:0:0:0:
380,199,76248,2,0,L|309:151,2,70,0|0|8,0:0|1:0|1:0,0:0:0:0:
443,243,76769,1,2,0:0:0:0:
425,137,76942,6,0,P|429:99|444:57,2,70,8|0|0,1:0|1:0|1:0,0:0:0:0:
443,243,77462,2,0,P|451:295|450:322,1,70,8|0,1:0|1:0,0:0:0:0:
401,372,77809,1,0,1:0:0:0:
328,344,77983,2,0,L|283:350,3,35,8|0|8|0,1:0|1:0|1:0|1:0,0:0:0:0:
257,333,78329,6,0,P|248:289|249:228,1,83.9999974365235,2|0,1:2|0:0,0:0:0:0:
291,187,78676,1,2,0:0:0:0:
213,182,78850,1,2,0:0:0:0:
171,247,79023,6,2,B|141:244|141:244|109:254|109:254|78:252,2,83.9999974365235,10|2|2,1:0|1:0|1:0,0:0:0:0:
246,250,79543,6,2,B|281:268|317:262|317:262|347:231|395:233,1,157.500006008148,2|0,1:0|1:0,1:0:0:0:
393,232,80410,6,0,P|402:192|399:146,1,77.0000023498536,8|2,1:0|0:0,0:0:0:0:
466,115,80757,2,0,P|427:84|390:79,1,77.0000023498536,2|2,0:0|0:0,0:0:0:0:
334,118,81104,6,0,P|283:129|247:126,1,70,2|0,1:2|0:0,0:0:0:0:
191,106,81451,1,2,0:0:0:0:
247,53,81624,1,2,0:0:0:0:
265,128,81798,6,2,B|269:154|269:154|263:189|263:189|268:223,2,83.9999974365235,10|2|2,1:0|1:0|1:0,0:0:0:0:
191,106,82318,6,2,B|153:101|127:118|127:118|110:68|51:60,1,157.500006008148,2|0,1:0|1:0,1:0:0:0:
54,139,83011,1,0,0:0:0:0:
110,193,83185,6,0,P|113:233|100:291,1,83.9999974365235,8|8,1:0|1:0,0:0:0:0:
28,369,83532,2,0,P|11:312|11:268,1,83.9999974365235,8|8,1:0|1:0,0:0:0:0:
120,304,83878,6,0,P|189:314|264:303,2,125.999996154785,4|0|8,1:2|0:0|1:0,0:0:0:0:
71,245,84746,1,0,1:0:0:0:
300,182,85092,2,0,P|370:176|441:190,1,125.999996154785,0|0,1:0|1:0,0:0:0:0:
482,234,85613,1,0,1:0:0:0:
273,194,85959,1,8,1:0:0:0:
485,88,86306,1,8,1:0:0:0:
443,24,86480,1,4,1:2:0:0:
410,91,86653,6,0,L|427:169,1,62.9999980773926,0|0,1:0|1:0,0:0:0:0:
368,287,87000,2,0,L|383:219,1,70,0|0,1:0|1:0,0:0:0:0:
328,77,87347,2,0,L|346:159,1,77.0000023498536,8|0,1:0|1:0,0:0:0:0:
306,219,87694,1,8,1:0:0:0:
235,189,87867,6,0,P|202:134|244:53,1,154.000004699707,8|0,1:0|1:0,0:0:0:0:
174,11,88387,2,0,P|150:13|112:23,3,38.5000011749268,0|0|0|0,1:0|1:0|1:0|1:0,0:0:0:0:
96,30,88734,2,0,P|77:40|58:55,3,41.9999987182618,0|0|0|0,1:0|1:0|1:0|1:0,0:0:0:0:
35,84,89081,1,8,1:0:0:0:
35,84,89428,6,0,B|54:127|54:127|33:256,1,167.999994873047,4|8,1:2|1:0,0:0:0:0:
222,370,90121,2,0,L|238:267,1,83.9999974365235,0|0,0:0|1:0,0:0:0:0:
203,208,90468,1,8,1:0:0:0:
266,152,90642,6,0,B|306:137|350:151|350:151|392:164|431:146,1,167.999994873047,2|0,0:0|0:0,0:0:0:0:
383,76,91162,2,0,P|350:128|397:225,1,167.999994873047,8|0,1:0|0:0,0:0:0:0:
471,220,91682,1,0,1:0:0:0:
425,290,91855,6,0,P|370:320|263:274,1,167.999994873047,8|2,1:0|1:2,0:0:0:0:
215,85,92549,1,8,1:0:0:0:
215,85,92722,2,0,L|387:75,1,167.999994873047,0|0,0:0|1:0,0:0:0:0:
453,121,93243,2,0,P|451:169|436:206,1,83.9999974365235,8|2,1:0|0:0,0:0:0:0:
369,296,93589,6,0,P|421:286|461:290,2,83.9999974365235,2|0|8,1:2|0:0|1:0,0:0:0:0:
302,348,94110,2,0,P|219:354|126:333,1,167.999994873047,2|0,0:0|1:0,0:0:0:0:
70,288,94630,5,8,1:0:0:0:
61,372,94803,1,2,0:0:0:0:
61,372,94977,1,2,1:2:0:0:
222,319,95324,5,8,1:0:0:0:
212,231,95497,1,2,0:0:0:0:
212,231,95671,1,2,0:0:0:0:
393,165,96017,5,8,1:0:0:0:
380,256,96190,1,2,0:0:0:0:
380,256,96364,1,2,1:2:0:0:
340,92,96711,6,0,P|403:77|483:150,2,167.999994873047,8|0|8,1:0|0:0|1:0,0:0:0:0:
174,206,97751,5,2,1:2:0:0:
41,54,98098,1,8,1:0:0:0:
41,54,98272,2,0,L|208:29,1,167.999994873047,0|0,0:0|1:0,0:0:0:0:
287,55,98792,1,8,1:0:0:0:
287,55,99139,6,0,P|280:113|283:145,1,83.9999974365235,8|0,1:0|1:0,0:0:0:0:
332,205,99485,1,0,1:0:0:0:
444,152,99659,2,0,P|405:136|364:128,1,83.9999974365235,8|0,1:0|1:0,0:0:0:0:
281,138,100005,1,0,1:0:0:0:
248,215,100179,1,8,1:0:0:0:
251,231,100266,1,0,1:0:0:0:
254,247,100352,1,8,1:0:0:0:
257,263,100439,1,0,1:0:0:0:
260,279,100526,6,0,P|205:298|103:269,2,154.000004699707,4|0|8,1:2|2:0|1:0,0:0:0:0:
331,308,101393,2,0,P|370:297|426:296,1,77.0000023498536,0|0,1:0|0:0,0:0:0:0:
467,341,101740,6,0,P|439:297|447:185,1,154.000004699707,2|0,1:2|1:0,0:0:0:0:
502,152,102260,1,0,1:0:0:0:
323,231,102607,1,8,1:0:0:0:
433,78,102954,1,2,0:0:0:0:
406,294,103300,5,0,1:0:0:0:
190,217,103647,2,0,L|173:54,1,154.000004699707,2|8,0:0|1:0,0:0:0:0:
99,42,104168,2,0,P|49:81|61:169,1,154.000004699707,0|2,1:0|1:2,0:0:0:0:
262,246,104861,5,0,1:0:0:0:
262,246,105035,2,0,L|419:231,1,154.000004699707,0|8,1:0|1:0,0:0:0:0:
482,192,105555,2,0,B|505:161|505:161|511:102|469:47,1,154.000004699707,2|0,0:0|0:0,0:0:0:0:
398,34,106075,5,0,1:0:0:0:
246,171,106422,2,0,P|247:209|261:245,1,77.0000023498536,2|0,0:0|0:0,0:0:0:0:
319,193,106769,1,8,1:0:0:0:
301,118,106942,2,0,P|241:96|172:154,2,154.000004699707,0|0|0,1:0|1:0|1:0,0:0:0:0:
319,193,107809,5,0,1:0:0:0:
123,74,108156,1,8,1:0:0:0:
351,32,108503,1,8,1:0:0:0:
174,146,108850,6,0,P|158:186|161:229,1,77.0000023498536,4|0,1:2|1:0,0:0:0:0:
254,268,109196,2,0,P|236:235|233:197,1,77.0000023498536,0|0,1:0|1:0,0:0:0:0:
341,144,109543,2,0,P|317:174|308:211,1,77.0000023498536,8|0,1:0|1:0,0:0:0:0:
332,284,109890,1,8,1:0:0:0:
408,273,110063,6,0,P|448:232|456:200,1,77.0000023498536,12|0,1:0|1:0,0:0:0:0:
419,144,110410,1,0,1:0:0:0:
341,144,110584,2,0,P|350:111|361:92,3,38.5000011749268,0|0|0|0,1:0|1:0|1:0|1:0,0:0:0:0:
378,79,110931,2,0,P|375:61|363:35,3,38.5000011749268,0|0|0|0,1:0|1:0|1:0|1:0,0:0:0:0:
344,14,111277,6,0,B|312:32|312:32|219:27,1,105.000004005432,8|6,1:0|1:2,0:0:0:0:
45,238,117173,6,0,P|89:209|156:216,1,112,4|0,1:2|0:0,0:0:0:0:
272,318,117867,1,8,1:0:0:0:
333,279,118040,2,0,L|342:155,2,112,0|2|0,1:0|1:2|1:0,0:0:0:0:
272,318,118907,5,0,1:0:0:0:
146,211,119254,1,8,1:0:0:0:
269,100,119601,2,0,L|345:93,1,56,8|4,1:0|1:2,0:0:0:0:
444,141,119948,6,0,L|366:136,1,56,0|0,1:0|1:0,0:0:0:0:
265,187,120295,2,0,L|327:183,1,62.9999980773926,0|0,1:0|1:0,0:0:0:0:
457,234,120642,2,0,L|388:230,1,70,8|0,1:0|1:0,0:0:0:0:
324,271,120988,1,8,1:0:0:0:
250,257,121162,6,0,L|238:87,1,140,8|0,1:0|1:0,0:0:0:0:
182,68,121682,2,0,L|131:72,3,38.5000011749268,0|0|0|0,1:0|1:0|1:0|1:0,0:0:0:0:
119,101,122029,2,0,L|123:152,3,38.5000011749268,0|0|0|0,1:0|1:0|1:0|1:0,0:0:0:0:
125,173,122376,1,8,1:0:0:0:
125,173,122722,6,0,B|168:168|168:168|210:181|210:181|248:178,2,125.999996154785,4|0|8,1:2|0:0|1:0,0:0:0:0:
75,230,123589,2,0,P|64:264|110:339,1,125.999996154785,0|0,1:0|1:0,0:0:0:0:
267,279,124283,5,0,1:0:0:0:
267,279,124457,2,0,L|131:267,1,125.999996154785,0|8,1:0|1:0,0:0:0:0:
308,213,125150,1,8,1:0:0:0:
344,279,125324,1,0,1:0:0:0:
381,344,125497,6,0,L|510:330,1,125.999996154785,0|0,1:0|0:0,0:0:0:0:
384,215,126191,1,8,1:0:0:0:
344,279,126364,2,0,P|287:284|234:219,2,125.999996154785,0|0|0,1:0|1:0|1:0,0:0:0:0:
384,215,127231,2,0,P|377:168|376:140,1,62.9999980773926,0|0,1:0|0:0,0:0:0:0:
415,87,127578,1,8,1:0:0:0:
415,87,127925,6,0,P|383:80|328:86,1,62.9999980773926,8|0,1:0|1:0,0:0:0:0:
268,119,128272,1,4,0:0:0:0:
93,173,128618,6,0,P|125:166|180:172,1,62.9999980773926,0|0,0:0|0:0,0:0:0:0:
246,206,128965,1,8,1:0:0:0:
418,263,129312,6,0,P|386:256|331:262,1,62.9999980773926,0|0,0:0|1:0,0:0:0:0:
260,296,129659,1,0,0:0:0:0:
77,349,130006,6,0,P|153:347|196:369,2,125.999996154785,0|8|8,1:0|1:0|1:0,0:0:0:0:
23,294,130873,1,0,1:0:0:0:
77,241,131046,6,0,P|96:193|75:102,1,125.999996154785,0|0,1:0|0:0,0:0:0:0:
240,37,131740,2,0,P|235:82|239:113,1,62.9999980773926,8|0,1:0|1:0,0:0:0:0:
285,157,132087,1,0,0:0:0:0:
352,122,132260,2,0,P|356:180|304:229,1,125.999996154785,0|0,1:0|1:0,0:0:0:0:
236,216,132780,5,0,1:0:0:0:
413,284,133127,1,8,1:0:0:0:
238,355,133474,2,0,L|237:278,1,62.9999980773926,8|0,1:0|1:0,0:0:0:0:
236,216,133821,6,0,B|246:146|246:146|202:78,2,140,4|0|8,1:0|0:0|1:0,0:0:0:0:
170,257,134688,2,0,L|21:268,1,140,0|0,1:0|1:0,0:0:0:0:
194,354,135381,5,0,1:0:0:0:
194,354,135555,1,0,1:0:0:0:
115,175,135902,1,8,1:0:0:0:
296,271,136248,1,0,0:0:0:0:
190,86,136595,5,0,1:0:0:0:
395,187,136942,2,0,P|481:180|511:127,1,140,0|8,0:0|1:0,0:0:0:0:
489,65,137462,1,0,1:0:0:0:
418,34,137636,2,0,L|337:41,1,70,0|0,0:0|1:0,0:0:0:0:
183,170,138156,5,0,1:0:0:0:
183,170,138329,2,0,L|339:158,1,140,0|8,1:0|1:0,0:0:0:0:
395,187,138850,2,0,B|416:253|416:253|388:333,1,140,0|0,0:0|0:0,0:0:0:0:
319,344,139370,5,0,1:0:0:0:
177,253,139717,1,0,0:0:0:0:
42,353,140063,1,8,1:0:0:0:
42,353,140237,2,0,L|27:209,1,140,0|0,1:0|1:0,0:0:0:0:
156,55,140931,5,0,1:0:0:0:
214,104,141104,2,0,P|215:134|202:178,1,70,0|0,1:0|0:0,0:0:0:0:
139,130,141451,2,0,P|105:111|82:71,1,70,8|0,1:0|0:0,0:0:0:0:
156,55,141798,2,0,P|195:31|228:27,1,70,8|0,1:0|0:0,0:0:0:0:
281,71,142144,5,4,1:2:0:0:
352,40,142318,1,0,1:0:0:0:
414,84,142491,2,0,L|422:171,1,70,0|0,1:0|1:0,0:0:0:0:
338,234,142838,2,0,L|345:154,1,70,0|0,1:0|1:0,0:0:0:0:
267,272,143185,1,0,1:0:0:0:
338,234,143358,6,0,P|409:239|445:308,1,140,0|0,1:0|1:0,0:0:0:0:
461,368,143878,2,0,P|442:369|419:366,3,38.5000011749268,0|0|0|0,1:0|1:0|1:0|1:0,0:0:0:0:
390,351,144225,2,0,P|366:347|337:349,3,41.9999987182618,0|0|0|0,1:0|1:0|1:0|1:0,0:0:0:0:
314,366,144572,1,8,1:0:0:0:
314,366,144919,6,0,B|338:334|338:334|346:266|308:207,1,167.999994873047,4|8,1:2|1:0,0:0:0:0:
86,183,145613,1,0,0:0:0:0:
40,253,145786,2,0,P|41:301|53:346,1,83.9999974365235,0|8,1:0|1:0,0:0:0:0:
154,232,146133,6,0,P|168:172|82:98,1,167.999994873047,2|0,0:0|0:0,0:0:0:0:
17,86,146653,2,0,P|94:89|185:57,1,167.999994873047,8|0,1:0|0:0,0:0:0:0:
248,108,147173,1,0,1:0:0:0:
311,52,147347,2,0,P|357:46|399:48,1,83.9999974365235,8|0,1:0|0:0,0:0:0:0:
248,108,147694,6,0,L|238:286,1,167.999994873047,2|8,1:2|1:0,0:0:0:0:
310,319,148214,2,0,P|385:277|382:198,1,167.999994873047,0|0,0:0|1:0,0:0:0:0:
323,145,148734,1,8,1:0:0:0:
87,239,149081,6,0,L|75:326,2,83.9999974365235,2|0|8,1:2|0:0|1:0,0:0:0:0:
122,162,149601,2,0,B|162:148|205:161|205:161|246:173|288:163,1,167.999994873047,2|0,0:0|1:0,0:0:0:0:
356,206,150121,5,8,1:0:0:0:
361,122,150295,1,2,0:0:0:0:
356,206,150468,1,2,1:2:0:0:
235,210,150815,5,8,1:0:0:0:
246,297,150989,1,2,0:0:0:0:
235,210,151162,1,2,0:0:0:0:
77,327,151509,5,8,1:0:0:0:
89,236,151683,1,2,0:0:0:0:
77,327,151856,1,2,1:2:0:0:
129,152,152202,6,0,B|87:137|45:152|45:152|12:127|9:81,2,167.999994873047,8|0|8,1:0|0:0|1:0,0:0:0:0:
323,211,153243,5,2,1:2:0:0:
167,339,153589,1,8,1:0:0:0:
167,339,153763,2,0,B|141:301|141:301|162:167,1,167.999994873047,0|0,0:0|1:0,0:0:0:0:
173,97,154283,1,8,1:0:0:0:
173,97,154630,6,0,L|270:85,1,83.9999974365235,8|0,1:0|1:0,0:0:0:0:
340,77,154977,1,0,1:0:0:0:
243,170,155150,2,0,L|159:180,1,83.9999974365235,8|0,1:0|1:0,0:0:0:0:
76,190,155497,1,0,1:0:0:0:
125,257,155670,1,8,1:0:0:0:
135,270,155757,1,0,1:0:0:0:
141,285,155844,1,8,1:0:0:0:
145,301,155931,1,0,1:0:0:0:
145,316,156017,6,0,P|212:346|284:298,1,154.000004699707,4|0,1:2|2:0,0:0:0:0:
388,138,156711,1,8,1:0:0:0:
448,184,156884,2,0,P|377:214|318:167,2,154.000004699707,0|2|0,1:0|1:2|1:0,0:0:0:0:
388,138,157751,5,0,1:0:0:0:
291,286,158098,1,8,1:0:0:0:
223,111,158445,1,2,0:0:0:0:
116,287,158792,5,0,1:0:0:0:
50,85,159139,2,0,L|146:70,1,77.0000023498536,2|0,0:0|0:0,0:0:0:0:
12,151,159485,1,8,1:0:0:0:
69,202,159659,2,0,P|125:209|209:155,1,154.000004699707,0|2,1:0|1:2,0:0:0:0:
317,27,160352,5,0,1:0:0:0:
317,27,160526,2,0,P|282:71|287:171,1,154.000004699707,0|8,1:0|1:0,0:0:0:0:
238,232,161046,2,0,P|307:263|343:330,1,154.000004699707,2|0,0:0|0:0,0:0:0:0:
414,299,161566,6,0,P|460:227|440:147,1,154.000004699707,0|2,1:0|0:0,0:0:0:0:
333,61,162260,1,8,1:0:0:0:
281,118,162433,2,0,P|240:127|195:114,1,77.0000023498536,0|2,1:0|0:0,0:0:0:0:
108,55,162780,2,0,P|186:21|251:59,1,154.000004699707,0|0,1:0|1:0,0:0:0:0:
281,118,163300,5,0,1:0:0:0:
203,285,163647,1,8,1:0:0:0:
179,101,163994,1,8,1:0:0:0:
356,184,164341,6,0,P|316:210|273:217,1,77.0000023498536,4|0,1:2|1:0,0:0:0:0:
145,195,164688,2,0,P|107:174|80:131,1,77.0000023498536,0|0,1:0|1:0,0:0:0:0:
234,91,165035,2,0,L|223:167,1,77.0000023498536,8|0,1:0|1:0,0:0:0:0:
210,252,165381,1,8,1:0:0:0:
133,289,165555,6,0,P|207:273|287:326,1,154.000004699707,12|0,1:0|1:0,0:0:0:0:
338,266,166075,2,0,L|346:214,3,38.5000011749268,0|0|0|0,1:0|1:0|1:0|1:0,0:0:0:0:
337,189,166422,2,0,L|314:141,3,38.5000011749268,0|0|0|0,1:0|1:0|1:0|1:0,0:0:0:0:
289,130,166769,6,0,B|274:142|251:142|251:142|221:129|187:139,1,105.000004005432,8|6,1:0|1:2,0:0:0:0:
60,281,167462,5,8,1:0:0:0:
60,281,167636,2,0,P|112:271|224:279,1,154.000004699707,2|0,0:0|1:0,0:0:0:0:
276,233,168156,2,0,P|325:244|362:243,1,77.0000023498536,8|2,1:0|0:0,0:0:0:0:
413,198,168503,6,0,P|386:250|420:348,1,154.000004699707,2|8,1:2|1:0,0:0:0:0:
478,156,169196,1,0,0:0:0:0:
408,121,169370,1,0,1:0:0:0:
344,164,169543,2,0,P|331:122|345:74,1,77.0000023498536,8|2,1:0|0:0,0:0:0:0:
397,43,169890,6,0,B|360:58|360:58|236:43,1,154.000004699707,2|8,1:2|1:0,0:0:0:0:
169,35,170410,2,0,P|214:80|193:166,1,154.000004699707,2|0,0:0|1:0,0:0:0:0:
123,183,170931,1,8,1:0:0:0:
109,258,171104,1,2,0:0:0:0:
166,308,171277,6,0,P|219:313|261:302,2,77.0000023498536,2|0|8,1:2|0:0|1:0,0:0:0:0:
109,258,171798,2,0,L|105:94,1,154.000004699707,2|0,0:0|1:0,0:0:0:0:
156,46,172318,1,8,1:0:0:0:
274,204,172665,6,0,L|256:373,2,154.000004699707,2|8|0,1:2|1:0|0:0,0:0:0:0:
341,166,173532,1,0,1:0:0:0:
392,222,173705,2,0,L|383:308,1,77.0000023498536,8|2,1:0|0:0,0:0:0:0:
341,166,174052,6,0,P|402:147|466:208,1,154.000004699707,2|8,1:2|1:0,0:0:0:0:
274,204,174746,2,0,P|267:147|276:124,1,77.0000023498536,0|0,0:0|1:0,0:0:0:0:
240,60,175092,2,0,L|142:50,1,77.0000023498536,8|2,1:0|0:0,0:0:0:0:
102,99,175439,5,2,1:2:0:0:
102,99,175613,1,0,0:0:0:0:
149,159,175786,2,0,P|161:193|156:237,2,77.0000023498536,8|2|0,1:0|0:0|0:0,0:0:0:0:
248,134,176306,2,0,P|235:97|239:59,2,77.0000023498536,0|8|2,1:0|1:0|0:0,0:0:0:0:
333,194,176826,5,8,1:0:0:0:
397,151,177000,2,0,L|401:69,1,77.0000023498536,0|0,1:0|0:0,0:0:0:0:
509,168,177347,1,8,1:0:0:0:
445,211,177521,2,0,L|441:293,1,77.0000023498536,0|0,1:0|1:0,0:0:0:0:
403,354,177867,2,0,P|377:359|348:357,3,38.5000011749268,8|0|8|8,1:0|1:0|1:0|1:0,0:0:0:0:
333,351,178214,6,0,P|290:323|274:223,1,140,6|8,1:2|1:0,0:0:0:0:
308,175,178734,1,2,0:0:0:0:
121,289,179081,1,2,1:2:0:0:
121,289,179254,1,8,1:0:0:0:
194,314,179428,6,0,P|196:278|182:239,1,70,2|0,0:0|1:0,0:0:0:0:
116,212,179774,2,0,P|71:231|55:252,1,70,2|8,0:0|1:0,0:0:0:0:
121,289,180121,2,0,L|271:272,1,140,2|0,0:0|1:0,0:0:0:0:
324,317,180642,1,8,1:0:0:0:
389,276,180815,1,2,0:0:0:0:
452,319,180988,6,0,P|434:274|440:172,1,140,2|8,1:2|1:0,0:0:0:0:
491,128,181509,2,0,B|447:106|447:106|354:121,1,140,2|2,0:0|1:2,0:0:0:0:
281,135,182029,1,8,1:0:0:0:
215,94,182202,6,0,P|205:49|208:20,1,70,2|0,0:0|1:0,0:0:0:0:
281,135,182549,2,0,P|273:186|263:208,1,70,2|8,0:0|1:0,0:0:0:0:
194,231,182896,2,0,P|270:227|339:258,1,140,2|0,0:0|1:0,0:0:0:0:
365,318,183416,1,8,1:0:0:0:
288,318,183589,1,2,0:0:0:0:
327,251,183763,6,0,P|351:184|361:105,1,140,2|8,1:2|1:0,0:0:0:0:
356,38,184283,1,2,0:0:0:0:
181,146,184630,1,2,1:2:0:0:
181,146,184803,1,8,1:0:0:0:
127,89,184977,6,0,L|121:15,1,70,2|0,0:0|1:0,0:0:0:0:
205,82,185324,2,0,P|199:116|181:146,1,70,2|8,0:0|1:0,0:0:0:0:
104,163,185670,2,0,P|98:233|124:311,1,140,2|2,0:0|1:2,0:0:0:0:
175,351,186191,1,8,1:0:0:0:
251,346,186364,1,2,0:0:0:0:
296,288,186537,6,0,B|328:276|361:282|361:282|395:287|428:278,1,132.999996448517,2|8,1:2|1:0,0:0:0:0:
462,343,187058,2,0,L|454:210,1,132.999996448517,2|2,0:0|1:2,0:0:0:0:
403,156,187578,2,0,P|367:158|331:155,1,66.4999982242585,8|2,1:0|0:0,0:0:0:0:
255,211,187925,6,0,P|208:209|160:216,2,66.4999982242585,8|0|0,1:0|1:0|1:0,0:0:0:0:
334,286,188445,2,0,P|391:284|414:281,1,66.4999982242585,8|0,1:0|1:0,0:0:0:0:
280,345,188792,1,0,1:0:0:0:
204,318,188965,1,8,1:0:0:0:
187,315,189052,1,0,1:0:0:0:
170,316,189139,1,8,1:0:0:0:
154,320,189225,1,8,1:0:0:0:
139,327,189312,6,0,P|105:334|75:329,2,62.9999980773926,4|0|2,1:2|0:0|0:0,0:0:0:0:
105,257,189832,2,0,P|96:187|99:123,1,125.999996154785,2|0,0:0|0:0,0:0:0:0:
153,79,190352,1,2,0:0:0:0:
221,111,190526,1,0,0:0:0:0:
281,65,190699,6,0,L|353:71,2,62.9999980773926,2|0|2,0:0|0:0|0:0,0:0:0:0:
221,111,191220,2,0,P|216:172|248:235,1,125.999996154785,2|0,0:0|0:0,0:0:0:0:
315,251,191740,2,0,P|325:299|323:327,1,62.9999980773926,2|0,0:0|0:0,0:0:0:0:
390,223,192087,6,0,P|401:171|411:151,1,62.9999980773926,2|0,0:0|0:0,0:0:0:0:
469,122,192433,1,2,0:0:0:0:
403,84,192607,2,0,P|337:74|280:106,1,125.999996154785,2|0,0:0|0:0,0:0:0:0:
238,159,193127,1,2,0:0:0:0:
238,159,193300,1,0,0:0:0:0:
163,147,193474,6,0,L|91:155,2,62.9999980773926,2|0|2,0:0|0:0|0:0,0:0:0:0:
210,87,193994,2,0,L|202:231,1,125.999996154785,2|0,0:0|0:0,0:0:0:0:
246,275,194514,2,0,L|327:266,1,62.9999980773926,2|0,0:0|0:0,0:0:0:0:
190,329,194861,6,0,L|126:323,1,62.9999980773926,2|0,0:0|0:0,0:0:0:0:
59,358,195208,1,2,0:0:0:0:
59,358,195381,2,0,P|80:311|77:233,1,125.999996154785,2|0,0:0|0:0,0:0:0:0:
24,183,195902,1,2,0:0:0:0:
46,111,196075,1,0,0:0:0:0:
118,91,196248,6,0,L|188:97,2,62.9999980773926,2|0|2,0:0|0:0|0:0,0:0:0:0:
99,164,196769,2,0,L|242:175,1,125.999996154785,2|0,0:0|0:0,0:0:0:0:
270,113,197289,2,0,L|262:43,1,62.9999980773926,2|0,0:0|0:0,0:0:0:0:
224,173,197636,5,2,0:0:0:0:
298,182,197809,1,0,0:0:0:0:
373,191,197983,6,0,P|411:176|437:152,2,62.9999980773926,2|0|0,0:0|0:0|0:0,0:0:0:0:
340,259,198503,2,0,P|380:265|414:257,2,62.9999980773926,2|0|0,0:0|0:0|0:0,0:0:0:0:
277,301,199023,2,0,P|308:326|342:336,2,62.9999980773926,2|2|0,0:0|0:0|0:0,0:0:0:0:
201,306,199543,2,0,P|215:344|239:370,2,62.9999980773926,2|0|2,0:0|0:0|0:0,0:0:0:0:
129,281,200063,1,2,0:0:0:0:
129,281,200410,6,0,L|141:209,1,56,2|0,0:0|0:0,0:0:0:0:
108,158,200757,1,2,0:0:0:0:
170,120,200931,2,0,P|226:130|292:112,1,112,2|0,0:0|0:0,0:0:0:0:
328,64,201451,1,2,0:0:0:0:
351,132,201624,1,0,0:0:0:0:
303,187,201798,6,0,P|297:218|300:251,2,56,2|0|2,0:0|0:0|0:0,0:0:0:0:
351,132,202318,2,0,P|386:106|393:32,1,112,2|0,0:0|0:0,0:0:0:0:
467,23,202838,2,0,P|471:52|471:92,1,56,2|0,0:0|0:0,0:0:0:0:
420,176,203185,6,0,P|425:218|431:241,1,56,2|0,0:0|0:0,0:0:0:0:
478,283,203532,1,2,0:0:0:0:
482,287,203705,2,0,P|441:278|347:282,1,112,2|0,0:0|0:0,0:0:0:0:
304,310,204225,2,0,L|299:373,1,56,2|0,0:0|0:0,0:0:0:0:
245,264,204572,6,0,L|242:199,2,56,2|0|2,0:0|0:0|0:0,0:0:0:0:
191,313,205092,2,0,P|126:324|66:316,1,112,2|0,0:0|0:0,0:0:0:0:
21,275,205613,1,2,0:0:0:0:
62,215,205786,1,0,0:0:0:0:
13,160,205959,6,0,P|5:132|8:102,2,56,2|0|2,0:0|0:0|0:0,0:0:0:0:
78,126,206480,2,0,B|98:138|98:138|141:137|186:119,1,112,2|0,0:0|0:0,0:0:0:0:
239,71,207000,2,0,L|231:5,1,56,2|0,0:0|0:0,0:0:0:0:
299,115,207347,6,0,P|290:143|290:175,1,56,2|0,0:0|0:0,0:0:0:0:
345,217,207694,1,2,0:0:0:0:
417,211,207867,2,0,P|437:129|427:96,1,112,2|0,0:0|0:0,0:0:0:0:
389,43,208387,2,0,L|321:50,1,56,2|0,0:0|0:0,0:0:0:0:
299,115,208734,5,2,0:0:0:0:
226,107,208907,1,0,0:0:0:0:
153,104,209081,6,0,P|159:78|187:44,2,56,2|0|0,0:0|0:0|0:0,0:0:0:0:
126,172,209601,2,0,P|103:158|79:121,2,56,2|0|0,0:0|0:0|0:0,0:0:0:0:
182,218,210121,2,0,P|161:235|119:246,2,56,2|2|0,0:0|0:0|0:0,0:0:0:0:
244,178,210642,2,0,P|254:202|251:246,2,56,2|0|2,0:0|0:0|0:0,0:0:0:0:
226,107,211162,5,2,0:0:0:0:
